  0
SECTION
  2
HEADER
  9
$ACADVER
  1
AC1015
  9
$ACADMAINTVER
 70
               6
  9
$DWGCODEPAGE
  3
ANSI_932
  9
$INSBASE
 10
0.0
 20
0.0
 30
0.0
  9
$EXTMIN
 10
-306.55580000000009
 20
-141.35352
 30
-8.1914999999999996
  9
$EXTMAX
 10
302.55016357968066
 20
152.91170384862241
 30
8.1914999999999996
  9
$LIMMIN
 10
0.0
 20
0.0
  9
$LIMMAX
 10
0.0
 20
0.0
  9
$ORTHOMODE
 70
               0
  9
$REGENMODE
 70
               1
  9
$FILLMODE
 70
               1
  9
$QTEXTMODE
 70
               0
  9
$MIRRTEXT
 70
               1
  9
$LTSCALE
 40
50.799999999999997
  9
$ATTMODE
 70
               1
  9
$TEXTSIZE
 40
0.2
  9
$TRACEWID
 40
1.0
  9
$TEXTSTYLE
  7
Standard
  9
$CLAYER
  8
一般
  9
$CELTYPE
  6
Continuous
  9
$CECOLOR
 62
             256
  9
$CELTSCALE
 40
1.0
  9
$DISPSILH
 70
               0
  9
$DIMSCALE
 40
1.0
  9
$DIMASZ
 40
6.0027343749999993
  9
$DIMEXO
 40
3.9999999999999996
  9
$DIMDLI
 40
7.0
  9
$DIMRND
 40
0.0
  9
$DIMDLE
 40
0.0
  9
$DIMEXE
 40
3.9999999999999996
  9
$DIMTP
 40
0.0
  9
$DIMTM
 40
0.0
  9
$DIMTXT
 40
8.7312499999999993
  9
$DIMCEN
 40
0.0
  9
$DIMTSZ
 40
0.0
  9
$DIMTOL
 70
               0
  9
$DIMLIM
 70
               0
  9
$DIMTIH
 70
               0
  9
$DIMTOH
 70
               0
  9
$DIMSE1
 70
               0
  9
$DIMSE2
 70
               0
  9
$DIMTAD
 70
               1
  9
$DIMZIN
 70
              11
  9
$DIMBLK
  1
VW_FILLEDARROW
  9
$DIMASO
 70
               1
  9
$DIMSHO
 70
               1
  9
$DIMPOST
  1
<>
  9
$DIMAPOST
  1
[]
  9
$DIMALT
 70
               0
  9
$DIMALTD
 70
               2
  9
$DIMALTF
 40
1.0
  9
$DIMLFAC
 40
1.0
  9
$DIMTOFL
 70
               1
  9
$DIMTVP
 40
0.0
  9
$DIMTIX
 70
               1
  9
$DIMSOXD
 70
               0
  9
$DIMSAH
 70
               0
  9
$DIMBLK1
  1

  9
$DIMBLK2
  1

  9
$DIMSTYLE
  2
中谷
  9
$DIMCLRD
 70
               0
  9
$DIMCLRE
 70
               0
  9
$DIMCLRT
 70
               0
  9
$DIMTFAC
 40
1.0
  9
$DIMGAP
 40
0.0099999999627471
  9
$DIMJUST
 70
               0
  9
$DIMSD1
 70
               0
  9
$DIMSD2
 70
               0
  9
$DIMTOLJ
 70
               1
  9
$DIMTZIN
 70
              11
  9
$DIMALTZ
 70
              11
  9
$DIMALTTZ
 70
              11
  9
$DIMUPT
 70
               0
  9
$DIMDEC
 70
               2
  9
$DIMTDEC
 70
               2
  9
$DIMALTU
 70
               2
  9
$DIMALTTD
 70
               2
  9
$DIMTXSTY
  7
ＭＳ Ｐゴシック
  9
$DIMAUNIT
 70
               0
  9
$DIMADEC
 70
               0
  9
$DIMALTRND
 40
0.0
  9
$DIMAZIN
 70
               0
  9
$DIMDSEP
 70
              46
  9
$DIMATFIT
 70
               0
  9
$DIMFRAC
 70
               2
  9
$DIMLDRBLK
  1

  9
$DIMLUNIT
 70
               2
  9
$DIMLWD
 70
              -2
  9
$DIMLWE
 70
              -2
  9
$DIMTMOVE
 70
               0
  9
$LUNITS
 70
               2
  9
$LUPREC
 70
               4
  9
$SKETCHINC
 40
0.1
  9
$FILLETRAD
 40
0.0
  9
$AUNITS
 70
               0
  9
$AUPREC
 70
               0
  9
$MENU
  1
acad
  9
$ELEVATION
 40
0.0
  9
$PELEVATION
 40
0.0
  9
$THICKNESS
 40
0.0
  9
$LIMCHECK
 70
               0
  9
$CHAMFERA
 40
0.0
  9
$CHAMFERB
 40
0.0
  9
$CHAMFERC
 40
0.0
  9
$CHAMFERD
 40
0.0
  9
$SKPOLY
 70
               0
  9
$TDCREATE
 40
2454365.679212963
  9
$TDUCREATE
 40
0.000000000
  9
$TDUPDATE
 40
2454365.679212963
  9
$TDUUPDATE
 40
0.000000000
  9
$TDINDWG
 40
0.0000000000
  9
$TDUSRTIMER
 40
0.0000000000
  9
$USRTIMER
 70
               1
  9
$ANGBASE
 50
0.0
  9
$ANGDIR
 70
               0
  9
$PDMODE
 70
               1
  9
$PDSIZE
 40
-2.0
  9
$PLINEWID
 40
0.0
  9
$SPLFRAME
 70
               0
  9
$SPLINETYPE
 70
               6
  9
$SPLINESEGS
 70
               8
  9
$HANDSEED
  5
356
  9
$SURFTAB1
 70
               6
  9
$SURFTAB2
 70
               6
  9
$SURFTYPE
 70
               6
  9
$SURFU
 70
               6
  9
$SURFV
 70
               6
  9
$UCSBASE
  2

  9
$UCSNAME
  2

  9
$UCSORG
 10
0.0
 20
0.0
 30
0.0
  9
$UCSXDIR
 10
1.0
 20
0.0
 30
0.0
  9
$UCSYDIR
 10
0.0
 20
1.0
 30
0.0
  9
$UCSORTHOREF
  2

  9
$UCSORTHOVIEW
 70
               0
  9
$UCSORGTOP
 10
0.0
 20
0.0
 30
0.0
  9
$UCSORGBOTTOM
 10
0.0
 20
0.0
 30
0.0
  9
$UCSORGLEFT
 10
0.0
 20
0.0
 30
0.0
  9
$UCSORGRIGHT
 10
0.0
 20
0.0
 30
0.0
  9
$UCSORGFRONT
 10
0.0
 20
0.0
 30
0.0
  9
$UCSORGBACK
 10
0.0
 20
0.0
 30
0.0
  9
$PUCSBASE
  2

  9
$PUCSNAME
  2

  9
$PUCSORG
 10
0.0
 20
0.0
 30
0.0
  9
$PUCSXDIR
 10
1.0
 20
0.0
 30
0.0
  9
$PUCSYDIR
 10
0.0
 20
1.0
 30
0.0
  9
$PUCSORTHOREF
  2

  9
$PUCSORTHOVIEW
 70
               0
  9
$PUCSORGTOP
 10
0.0
 20
0.0
 30
0.0
  9
$PUCSORGBOTTOM
 10
0.0
 20
0.0
 30
0.0
  9
$PUCSORGLEFT
 10
0.0
 20
0.0
 30
0.0
  9
$PUCSORGRIGHT
 10
0.0
 20
0.0
 30
0.0
  9
$PUCSORGFRONT
 10
0.0
 20
0.0
 30
0.0
  9
$PUCSORGBACK
 10
0.0
 20
0.0
 30
0.0
  9
$USERI1
 70
               0
  9
$USERI2
 70
               0
  9
$USERI3
 70
               0
  9
$USERI4
 70
               0
  9
$USERI5
 70
               0
  9
$USERR1
 40
0.0
  9
$USERR2
 40
0.0
  9
$USERR3
 40
0.0
  9
$USERR4
 40
0.0
  9
$USERR5
 40
0.0
  9
$WORLDVIEW
 70
               1
  9
$SHADEDGE
 70
               3
  9
$SHADEDIF
 70
              70
  9
$TILEMODE
 70
               1
  9
$MAXACTVP
 70
              64
  9
$PINSBASE
 10
0.0
 20
0.0
 30
0.0
  9
$PLIMCHECK
 70
               0
  9
$PEXTMIN
 10
1.0000000000000000E+20
 20
1.0000000000000000E+20
 30
1.0000000000000000E+20
  9
$PEXTMAX
 10
-1.0000000000000000E+20
 20
-1.0000000000000000E+20
 30
-1.0000000000000000E+20
  9
$PLIMMIN
 10
0.0
 20
0.0
  9
$PLIMMAX
 10
12.0
 20
9.0
  9
$UNITMODE
 70
               0
  9
$VISRETAIN
 70
               0
  9
$PLINEGEN
 70
               1
  9
$PSLTSCALE
 70
               0
  9
$TREEDEPTH
 70
            3020
  9
$CMLSTYLE
  2
Standard
  9
$CMLJUST
 70
               0
  9
$CMLSCALE
 40
1.0
  9
$PROXYGRAPHICS
 70
               0
  9
$MEASUREMENT
 70
               1
  9
$CELWEIGHT
370
               0
  9
$ENDCAPS
280
               0
  9
$JOINSTYLE
280
               0
  9
$LWDISPLAY
290
               1
  9
$INSUNITS
 70
               4
  9
$HYPERLINKBASE
  1

  9
$STYLESHEET
  1

  9
$XEDIT
290
               1
  9
$CEPSNTYPE
380
               0
  9
$PSTYLEMODE
290
               1
  9
$FINGERPRINTGUID
  2

  9
$VERSIONGUID
  2

  9
$EXTNAMES
290
               1
  9
$PSVPSCALE
 40
0.0
  0
ENDSEC
  0
SECTION
  2
CLASSES
  0
CLASS
  1
LWPOLYLINE
  2
AcDbPolyline
  3
AutoCAD 2000
 90
        0
280
               0
281
               1
  0
CLASS
  1
IMAGE
  2
AcDbRasterImage
  3
ISM
 90
      127
280
               0
281
               1
  0
CLASS
  1
OLE2FRAME
  2
AcDbOle2Frame
  3
AutoCAD 2000
 90
        0
280
               0
281
               1
  0
CLASS
  1
HATCH
  2
AcDbHatch
  3
AutoCAD 2000
 90
        0
280
               0
281
               1
  0
CLASS
  1
DICTIONARYVAR
  2
AcDbDictionaryVar
  3
AutoCAD 2000
 90
        0
280
               0
281
               0
  0
CLASS
  1
RASTERVARIABLES
  2
AcDbRasterVariables
  3
ISM
 90
        0
280
               0
281
               0
  0
CLASS
  1
IMAGEDEF
  2
AcDbRasterImageDef
  3
ISM
 90
        0
280
               0
281
               0
  0
CLASS
  1
IMAGEDEF_REACTOR
  2
AcDbRasterImageDefReactor
  3
ISM
 90
        1
280
               0
281
               0
  0
CLASS
  1
IDBUFFER
  2
AcDbIdBuffer
  3
AutoCAD 2000
 90
        0
280
               0
281
               0
  0
CLASS
  1
SPATIAL_FILTER
  2
AcDbSpatialFilter
  3
AutoCAD 2000
 90
        0
280
               0
281
               0
  0
CLASS
  1
XRECORD
  2
AcDbXrecord
  3
AutoCAD 2000
 90
        0
280
               0
281
               0
  0
CLASS
  1
SORTENTSTABLE
  2
AcDbSortentsTable
  3
AutoCAD 2000
 90
        0
280
               0
281
               0
  0
CLASS
  1
LAYER_INDEX
  2
AcDbLayerIndex
  3
AutoCAD 2000
 90
        0
280
               0
281
               0
  0
CLASS
  1
SPATIAL_INDEX
  2
AcDbSpatialIndex
  3
AutoCAD 2000
 90
        0
280
               0
281
               0
  0
CLASS
  1
OBJECT_PTR
  2
CAseDLPNTableRecord
  3
"ASE-LPNTableRecord"
 90
        1
280
               0
281
               0
  0
CLASS
  1
LAYOUT
  2
AcDbLayout
  3
AutoCAD 2000
 90
        0
280
               0
281
               0
  0
CLASS
  1
PLOTSETTINGS
  2
AcDbPlotSettings
  3
AutoCAD 2000
 90
        0
280
               0
281
               0
  0
CLASS
  1
ACDBDICTIONARYWDFLT
  2
AcDbDictionaryWithDefault
  3
AutoCAD 2000
 90
        0
280
               0
281
               0
  0
CLASS
  1
ACDBPLACEHOLDER
  2
AcDbPlaceHolder
  3
AutoCAD 2000
 90
        0
280
               0
281
               0
  0
CLASS
  1
VBA_PROJECT
  2
AcDbVbaProject
  3
acadvba
 90
        0
280
               0
281
               0
  0
CLASS
  1
WIPEOUT
  2
AcDbWipeout
  3
WipeOut|AutoCAD Express Tool|expresstools@autodesk.com
 90
      127
280
               0
281
               1
  0
CLASS
  1
WIPEOUTVARIABLES
  2
AcDbWipeoutVariables
  3
WipeOut|AutoCAD Express Tool|expresstools@autodesk.com
 90
        0
280
               0
281
               0
  0
CLASS
  1
RTEXT
  2
RText
  3
RText|AutoCAD Express Tool|expresstools@autodesk.com
 90
        0
280
               0
281
               1
  0
CLASS
  1
ARCALIGNEDTEXT
  2
AcDbArcAlignedText
  3
ATEXT|AutoCAD Express Tool|expresstools@autodesk.com
 90
        0
280
               0
281
               1
  0
ENDSEC
  0
SECTION
  2
TABLES
  0
TABLE
  2
VPORT
  5
7
100
AcDbSymbolTable
 70
               1
  0
VPORT
  5
15
100
AcDbSymbolTableRecord
100
AcDbViewportTableRecord
  2
*ACTIVE
 70
               0
 10
0.0
 20
0.0
 11
1.0
 21
1.0
 12
-2.0028182101597167
 22
5.7790919243112171
 13
0.0
 23
0.0
 14
1.0
 24
1.0
 15
0.0
 25
0.0
 16
0.0
 26
0.0
 36
1.0
 17
0.0
 27
0.0
 37
0.0
 40
294.26522384862244
 41
0.688564
 42
50.0
 43
0.0
 44
0.0
 50
0.0
 51
0.0
 71
               0
 72
            2000
 73
               1
 74
               1
 75
               0
 76
               0
 77
               0
 78
               0
281
               0
 65
               0
110
0.0
120
0.0
130
0.0
111
1.0
121
0.0
131
0.0
112
0.0
122
1.0
132
0.0
345
0
346
0
 79
               0
146
0.0
  0
ENDTAB
  0
TABLE
  2
LTYPE
  5
4
100
AcDbSymbolTable
 70
              27
  0
LTYPE
  5
11
100
AcDbSymbolTableRecord
100
AcDbLinetypeTableRecord
  2
ByBlock
 70
              64
  3

 72
              65
 73
               0
 40
0.0
  0
LTYPE
  5
12
100
AcDbSymbolTableRecord
100
AcDbLinetypeTableRecord
  2
ByLayer
 70
              64
  3

 72
              65
 73
               0
 40
0.0
  0
LTYPE
  5
13
100
AcDbSymbolTableRecord
100
AcDbLinetypeTableRecord
  2
Continuous
 70
              64
  3
Solid line
 72
              65
 73
               0
 40
0.0
  0
LTYPE
  5
3D
100
AcDbSymbolTableRecord
100
AcDbLinetypeTableRecord
  2
STYLE_01
 70
               0
  3

 72
              65
 73
               2
 40
0.166656494140625
 49
0.08331298828125
 74
               0
 49
-0.083343505859375
 74
               0
  0
LTYPE
  5
3E
100
AcDbSymbolTableRecord
100
AcDbLinetypeTableRecord
  2
STYLE_02
 70
               0
  3

 72
              65
 73
               2
 40
0.27777099609375
 49
0.194427490234375
 74
               0
 49
-0.083343505859375
 74
               0
  0
LTYPE
  5
3F
100
AcDbSymbolTableRecord
100
AcDbLinetypeTableRecord
  2
STYLE_03
 70
               0
  3

 72
              65
 73
               2
 40
0.5
 49
0.416656494140625
 74
               0
 49
-0.083343505859375
 74
               0
  0
LTYPE
  5
40
100
AcDbSymbolTableRecord
100
AcDbLinetypeTableRecord
  2
STYLE_04
 70
               0
  3

 72
              65
 73
               2
 40
0.611083984375
 49
0.52777099609375
 74
               0
 49
-0.08331298828125
 74
               0
  0
LTYPE
  5
41
100
AcDbSymbolTableRecord
100
AcDbLinetypeTableRecord
  2
STYLE_05
 70
               0
  3

 72
              65
 73
               2
 40
0.08331298828125
 49
0.02777099609375
 74
               0
 49
-0.0555419921875
 74
               0
  0
LTYPE
  5
42
100
AcDbSymbolTableRecord
100
AcDbLinetypeTableRecord
  2
STYLE_06
 70
               0
  3

 72
              65
 73
               4
 40
0.3055419921875
 49
0.166656494140625
 74
               0
 49
-0.055572509765625
 74
               0
 49
0.02777099609375
 74
               0
 49
-0.0555419921875
 74
               0
  0
LTYPE
  5
43
100
AcDbSymbolTableRecord
100
AcDbLinetypeTableRecord
  2
STYLE_07
 70
               0
  3

 72
              65
 73
               6
 40
0.75
 49
0.25
 74
               0
 49
-0.08331298828125
 74
               0
 49
0.25
 74
               0
 49
-0.083343505859375
 74
               0
 49
0.02777099609375
 74
               0
 49
-0.055572509765625
 74
               0
  0
LTYPE
  5
44
100
AcDbSymbolTableRecord
100
AcDbLinetypeTableRecord
  2
STYLE_08
 70
               0
  3

 72
              65
 73
               6
 40
0.5
 49
0.25
 74
               0
 49
-0.08331298828125
 74
               0
 49
0.02777099609375
 74
               0
 49
-0.055572509765625
 74
               0
 49
0.02777099609375
 74
               0
 49
-0.055572509765625
 74
               0
  0
LTYPE
  5
45
100
AcDbSymbolTableRecord
100
AcDbLinetypeTableRecord
  2
STYLE_09
 70
               0
  3

 72
              65
 73
               4
 40
0.3055419921875
 49
0.138885498046875
 74
               0
 49
-0.055572509765625
 74
               0
 49
0.0555419921875
 74
               0
 49
-0.0555419921875
 74
               0
  0
LTYPE
  5
46
100
AcDbSymbolTableRecord
100
AcDbLinetypeTableRecord
  2
STYLE_10
 70
               0
  3

 72
              65
 73
               6
 40
2.375
 49
1.5
 74
               0
 49
-0.111114501953125
 74
               0
 49
0.27777099609375
 74
               0
 49
-0.111114501953125
 74
               0
 49
0.25
 74
               0
 49
-0.125
 74
               0
  0
LTYPE
  5
47
100
AcDbSymbolTableRecord
100
AcDbLinetypeTableRecord
  2
STYLE_11
 70
               0
  3

 72
              65
 73
               2
 40
0.403472900390625
 49
0.26898193359375
 74
               0
 49
-0.134490966796875
 74
               0
  0
LTYPE
  5
48
100
AcDbSymbolTableRecord
100
AcDbLinetypeTableRecord
  2
STYLE_12
 70
               0
  3

 72
              65
 73
               2
 40
0.20172119140625
 49
0.134490966796875
 74
               0
 49
-0.067230224609375
 74
               0
  0
LTYPE
  5
49
100
AcDbSymbolTableRecord
100
AcDbLinetypeTableRecord
  2
STYLE_13
 70
               0
  3

 72
              65
 73
               4
 40
1.075927734375
 49
0.672454833984375
 74
               0
 49
-0.134490966796875
 74
               0
 49
0.134490966796875
 74
               0
 49
-0.134490966796875
 74
               0
  0
LTYPE
  5
4A
100
AcDbSymbolTableRecord
100
AcDbLinetypeTableRecord
  2
STYLE_14
 70
               0
  3

 72
              65
 73
               6
 40
1.34490966796875
 49
0.672454833984375
 74
               0
 49
-0.134490966796875
 74
               0
 49
0.134490966796875
 74
               0
 49
-0.134490966796875
 74
               0
 49
0.134490966796875
 74
               0
 49
-0.134490966796875
 74
               0
  0
LTYPE
  5
4B
100
AcDbSymbolTableRecord
100
AcDbLinetypeTableRecord
  2
STYLE_15
 70
               0
  3

 72
              65
 73
               4
 40
0.5
 49
0.25
 74
               0
 49
-0.083343505859375
 74
               0
 49
0.08331298828125
 74
               0
 49
-0.083343505859375
 74
               0
  0
LTYPE
  5
4C
100
AcDbSymbolTableRecord
100
AcDbLinetypeTableRecord
  2
STYLE_16
 70
               0
  3

 72
              65
 73
               6
 40
0.52777099609375
 49
0.22222900390625
 74
               0
 49
-0.08331298828125
 74
               0
 49
0.0555419921875
 74
               0
 49
-0.055572509765625
 74
               0
 49
0.055572509765625
 74
               0
 49
-0.0555419921875
 74
               0
  0
LTYPE
  5
4D
100
AcDbSymbolTableRecord
100
AcDbLinetypeTableRecord
  2
STYLE_17
 70
               0
  3

 72
              65
 73
               2
 40
0.40191650390625
 49
0.2679443359375
 74
               0
 49
-0.13397216796875
 74
               0
  0
LTYPE
  5
4E
100
AcDbSymbolTableRecord
100
AcDbLinetypeTableRecord
  2
STYLE_18
 70
               0
  3

 72
              65
 73
               4
 40
2.14361572265625
 49
1.33978271484375
 74
               0
 49
-0.2679443359375
 74
               0
 49
0.2679443359375
 74
               0
 49
-0.2679443359375
 74
               0
  0
LTYPE
  5
4F
100
AcDbSymbolTableRecord
100
AcDbLinetypeTableRecord
  2
STYLE_19
 70
               0
  3

 72
              65
 73
               2
 40
0.803863525390625
 49
0.535919189453125
 74
               0
 49
-0.2679443359375
 74
               0
  0
LTYPE
  5
50
100
AcDbSymbolTableRecord
100
AcDbLinetypeTableRecord
  2
STYLE_20
 70
               0
  3

 72
              65
 73
               4
 40
2.0
 49
1.5
 74
               0
 49
-0.111114501953125
 74
               0
 49
0.27777099609375
 74
               0
 49
-0.111114501953125
 74
               0
  0
LTYPE
  5
51
100
AcDbSymbolTableRecord
100
AcDbLinetypeTableRecord
  2
STYLE_21
 70
               0
  3

 72
              65
 73
               4
 40
0.52777099609375
 49
0.27777099609375
 74
               0
 49
-0.083343505859375
 74
               0
 49
0.083343505859375
 74
               0
 49
-0.08331298828125
 74
               0
  0
LTYPE
  5
52
100
AcDbSymbolTableRecord
100
AcDbLinetypeTableRecord
  2
STYLE_22
 70
               0
  3

 72
              65
 73
               4
 40
1.27984619140625
 49
0.7999267578125
 74
               0
 49
-0.15997314453125
 74
               0
 49
0.15997314453125
 74
               0
 49
-0.15997314453125
 74
               0
  0
LTYPE
  5
53
100
AcDbSymbolTableRecord
100
AcDbLinetypeTableRecord
  2
STYLE_23
 70
               0
  3

 72
              65
 73
               6
 40
1.59979248046875
 49
0.7999267578125
 74
               0
 49
-0.15997314453125
 74
               0
 49
0.15997314453125
 74
               0
 49
-0.15997314453125
 74
               0
 49
0.15997314453125
 74
               0
 49
-0.15997314453125
 74
               0
  0
LTYPE
  5
54
100
AcDbSymbolTableRecord
100
AcDbLinetypeTableRecord
  2
STYLE_24
 70
               0
  3

 72
              65
 73
               2
 40
0.479949951171875
 49
0.319976806640625
 74
               0
 49
-0.15997314453125
 74
               0
  0
ENDTAB
  0
TABLE
  2
LAYER
  5
2
100
AcDbSymbolTable
 70
               7
  0
LAYER
  5
14
100
AcDbSymbolTableRecord
100
AcDbLayerTableRecord
  2
0
 70
               0
 62
               7
  6
Continuous
290
               1
370
              15
390
1D
  0
LAYER
  5
55
100
AcDbSymbolTableRecord
100
AcDbLayerTableRecord
  2
Defpoints
 70
               0
 62
               7
  6
Continuous
290
               0
370
              -3
390
1D
  0
LAYER
  5
56
100
AcDbSymbolTableRecord
100
AcDbLayerTableRecord
  2
一般
 70
               0
 62
               7
  6
Continuous
290
               1
370
               5
390
1D
  0
LAYER
  5
57
100
AcDbSymbolTableRecord
100
AcDbLayerTableRecord
  2
寸法
 70
               0
 62
               7
  6
Continuous
290
               1
370
               5
390
1D
  0
LAYER
  5
58
100
AcDbSymbolTableRecord
100
AcDbLayerTableRecord
  2
001
 70
               0
 62
               7
  6
Continuous
290
               1
370
              15
390
1D
  0
LAYER
  5
59
100
AcDbSymbolTableRecord
100
AcDbLayerTableRecord
  2
255
 70
               0
 62
               7
  6
Continuous
290
               1
370
              15
390
1D
  0
LAYER
  5
5A
100
AcDbSymbolTableRecord
100
AcDbLayerTableRecord
  2
003
 70
               0
 62
               7
  6
Continuous
290
               1
370
              15
390
1D
  0
ENDTAB
  0
TABLE
  2
STYLE
  5
3
100
AcDbSymbolTable
 70
               3
  0
STYLE
  5
17
100
AcDbSymbolTableRecord
100
AcDbTextStyleTableRecord
  2
Standard
 70
               0
 40
0.0
 41
1.0
 50
0.0
 71
               0
 42
0.0
  3
txt
  4
BIGFONT.SHX
  0
STYLE
  5
3B
100
AcDbSymbolTableRecord
100
AcDbTextStyleTableRecord
  2
ＭＳ Ｐゴシック
 70
               0
 40
0.0
 41
1.0
 50
0.0
 71
               0
 42
0.0
  3

  4
ＭＳ Ｐゴシック
1001
ACAD
1000
ＭＳ Ｐゴシック
1071
        0
  0
STYLE
  5
3C
100
AcDbSymbolTableRecord
100
AcDbTextStyleTableRecord
  2
ＭＳ Ｐゴシック (bold)
 70
               0
 40
0.0
 41
1.0
 50
0.0
 71
               0
 42
0.0
  3

  4
ＭＳ Ｐゴシック
1001
ACAD
1000
ＭＳ Ｐゴシック
1071
 33554432
  0
ENDTAB
  0
TABLE
  2
VIEW
  5
5
100
AcDbSymbolTable
 70
               0
  0
ENDTAB
  0
TABLE
  2
UCS
  5
6
100
AcDbSymbolTable
 70
               0
  0
ENDTAB
  0
TABLE
  2
APPID
  5
8
100
AcDbSymbolTable
 70
               1
  0
APPID
  5
16
100
AcDbSymbolTableRecord
100
AcDbRegAppTableRecord
  2
ACAD
 70
               0
  0
ENDTAB
  0
TABLE
  2
DIMSTYLE
  5
9
100
AcDbSymbolTable
 70
               2
100
AcDbDimStyleTable
 71
               0
  0
DIMSTYLE
105
18
100
AcDbSymbolTableRecord
100
AcDbDimStyleTableRecord
  2
Standard
 70
               0
  3

  4

 40
1.0
 41
0.18
 42
0.0625
 43
0.38
 44
0.18
 45
0.0
 46
0.0
 47
0.0
 48
0.0
 71
               0
 72
               0
 73
               1
 74
               1
 75
               0
 76
               0
 77
               0
 78
               0
 79
               0
140
0.18
141
0.09
142
0.0
143
25.399999999999999
144
1.0
145
0.0
146
1.0
147
0.09
148
0.0
170
               0
171
               2
172
               0
173
               0
174
               0
175
               0
176
               0
177
               0
178
               0
179
               0
271
               4
272
               4
273
               2
274
               2
275
               0
276
               0
277
               2
278
              46
279
               0
280
               0
281
               0
282
               0
283
               1
284
               0
285
               0
286
               0
288
               0
289
               3
340
17
341
0
342
0
343
0
344
0
371
              -2
372
              -2
  0
DIMSTYLE
105
5F
100
AcDbSymbolTableRecord
100
AcDbDimStyleTableRecord
  2
中谷
 70
               0
  3
<>
  4
[]
 40
1.0
 41
6.0027343749999993
 42
3.9999999999999996
 43
7.0
 44
3.9999999999999996
 45
0.0
 46
0.0
 47
0.0
 48
0.0
 71
               0
 72
               0
 73
               0
 74
               0
 75
               0
 76
               0
 77
               1
 78
              11
 79
               0
140
8.7312499999999993
141
0.0
142
0.0
143
1.0
144
1.0
145
0.0
146
1.0
147
0.0099999999627471
148
0.0
170
               0
171
               2
172
               1
173
               0
174
               1
175
               0
176
               0
177
               0
178
               0
179
               0
271
               2
272
               2
273
               2
274
               2
275
               0
276
               2
277
               2
278
              46
279
               0
280
               0
281
               0
282
               0
283
               1
284
              11
285
              11
286
              11
288
               0
289
               0
340
3B
341
5B
342
5B
343
0
344
0
371
              -2
372
              -2
  0
ENDTAB
  0
TABLE
  2
BLOCK_RECORD
  5
1
100
AcDbSymbolTable
 70
              24
  0
BLOCK_RECORD
  5
A
100
AcDbSymbolTableRecord
100
AcDbBlockTableRecord
  2
*MODEL_SPACE
340
20
  0
BLOCK_RECORD
  5
B
100
AcDbSymbolTableRecord
100
AcDbBlockTableRecord
  2
*PAPER_SPACE
340
21
  0
BLOCK_RECORD
  5
5B
100
AcDbSymbolTableRecord
100
AcDbBlockTableRecord
  2
VW_FILLEDARROW
340
0
  0
BLOCK_RECORD
  5
24
100
AcDbSymbolTableRecord
100
AcDbBlockTableRecord
  2
*D1
340
0
  0
BLOCK_RECORD
  5
25
100
AcDbSymbolTableRecord
100
AcDbBlockTableRecord
  2
*D2
340
0
  0
BLOCK_RECORD
  5
26
100
AcDbSymbolTableRecord
100
AcDbBlockTableRecord
  2
*D3
340
0
  0
BLOCK_RECORD
  5
27
100
AcDbSymbolTableRecord
100
AcDbBlockTableRecord
  2
*D4
340
0
  0
BLOCK_RECORD
  5
28
100
AcDbSymbolTableRecord
100
AcDbBlockTableRecord
  2
*D5
340
0
  0
BLOCK_RECORD
  5
29
100
AcDbSymbolTableRecord
100
AcDbBlockTableRecord
  2
*D6
340
0
  0
BLOCK_RECORD
  5
2A
100
AcDbSymbolTableRecord
100
AcDbBlockTableRecord
  2
*D7
340
0
  0
BLOCK_RECORD
  5
2B
100
AcDbSymbolTableRecord
100
AcDbBlockTableRecord
  2
*D8
340
0
  0
BLOCK_RECORD
  5
2C
100
AcDbSymbolTableRecord
100
AcDbBlockTableRecord
  2
*D9
340
0
  0
BLOCK_RECORD
  5
2D
100
AcDbSymbolTableRecord
100
AcDbBlockTableRecord
  2
*D10
340
0
  0
BLOCK_RECORD
  5
2E
100
AcDbSymbolTableRecord
100
AcDbBlockTableRecord
  2
*D11
340
0
  0
BLOCK_RECORD
  5
2F
100
AcDbSymbolTableRecord
100
AcDbBlockTableRecord
  2
*D12
340
0
  0
BLOCK_RECORD
  5
30
100
AcDbSymbolTableRecord
100
AcDbBlockTableRecord
  2
*D13
340
0
  0
BLOCK_RECORD
  5
31
100
AcDbSymbolTableRecord
100
AcDbBlockTableRecord
  2
*D14
340
0
  0
BLOCK_RECORD
  5
32
100
AcDbSymbolTableRecord
100
AcDbBlockTableRecord
  2
*D15
340
0
  0
BLOCK_RECORD
  5
33
100
AcDbSymbolTableRecord
100
AcDbBlockTableRecord
  2
*D16
340
0
  0
BLOCK_RECORD
  5
34
100
AcDbSymbolTableRecord
100
AcDbBlockTableRecord
  2
*D17
340
0
  0
BLOCK_RECORD
  5
35
100
AcDbSymbolTableRecord
100
AcDbBlockTableRecord
  2
*D18
340
0
  0
BLOCK_RECORD
  5
36
100
AcDbSymbolTableRecord
100
AcDbBlockTableRecord
  2
*D19
340
0
  0
BLOCK_RECORD
  5
37
100
AcDbSymbolTableRecord
100
AcDbBlockTableRecord
  2
*D20
340
0
  0
BLOCK_RECORD
  5
38
100
AcDbSymbolTableRecord
100
AcDbBlockTableRecord
  2
*D21
340
0
  0
BLOCK_RECORD
  5
39
100
AcDbSymbolTableRecord
100
AcDbBlockTableRecord
  2
*D22
340
0
  0
BLOCK_RECORD
  5
3A
100
AcDbSymbolTableRecord
100
AcDbBlockTableRecord
  2
グループ
340
0
102
{BLKREFS
331
353
102
}
  0
ENDTAB
  0
ENDSEC
  0
SECTION
  2
BLOCKS
  0
BLOCK
  5
D
100
AcDbEntity
  8
0
390
0
100
AcDbBlockBegin
  2
*MODEL_SPACE
 70
               0
 10
0.0
 20
0.0
 30
0.0
  3
*MODEL_SPACE
  1

  0
ENDBLK
  5
E
100
AcDbEntity
  8
0
390
0
100
AcDbBlockEnd
  0
BLOCK
  5
F
100
AcDbEntity
 67
               1
  8
0
390
0
100
AcDbBlockBegin
  2
*PAPER_SPACE
 70
               0
 10
0.0
 20
0.0
 30
0.0
  3
*PAPER_SPACE
  1

  0
ENDBLK
  5
10
100
AcDbEntity
 67
               1
  8
0
390
0
100
AcDbBlockEnd
  0
BLOCK
  5
5C
100
AcDbEntity
  8
0
370
              -2
390
0
  6
ByBlock
 62
               0
100
AcDbBlockBegin
  2
VW_FILLEDARROW
 70
               0
 10
0.0
 20
0.0
 30
0.0
  3
VW_FILLEDARROW
  1

  0
SOLID
  5
5D
100
AcDbEntity
  8
0
370
              -2
390
0
 62
               0
100
AcDbTrace
 10
0.0
 20
0.0
 30
0.0
 11
-0.998388671875
 21
-0.2122140633040501
 31
0.0
 12
-0.998388671875
 22
0.2122140633040499
 32
0.0
 13
-0.998388671875
 23
0.2122140633040499
 33
0.0
  0
ENDBLK
  5
5E
100
AcDbEntity
  8
0
390
0
100
AcDbBlockEnd
  0
BLOCK
  5
60
100
AcDbEntity
  8
寸法
390
0
100
AcDbBlockBegin
  2
*D1
 70
               1
 10
0.0
 20
0.0
 30
0.0
  3
*D1
  1

  0
LINE
  5
61
100
AcDbEntity
  8
寸法
370
              -2
390
0
  6
Continuous
 62
               0
100
AcDbLine
 10
-248.94880000000012
 20
56.0
 30
0.0
 11
-248.94880000000012
 21
126.64652
 31
0.0
  0
LINE
  5
62
100
AcDbEntity
  8
寸法
370
              -2
390
0
  6
Continuous
 62
               0
100
AcDbLine
 10
-138.94880000000012
 20
56.0
 30
0.0
 11
-138.94880000000012
 21
126.64652
 31
0.0
  0
LINE
  5
63
100
AcDbEntity
  8
寸法
370
              -2
390
0
  6
Continuous
 62
               0
100
AcDbLine
 10
-248.94880000000012
 20
122.64652
 30
0.0
 11
-138.94880000000012
 21
122.64652
 31
0.0
  0
SOLID
  5
64
100
AcDbEntity
  8
寸法
370
              -2
390
0
 62
               0
100
AcDbTrace
 10
-248.94880000000012
 20
122.64652
 30
0.0
 11
-242.94606562500013
 21
123.92244057936844
 31
0.0
 12
-242.94606562500013
 22
121.37059942063155
 32
0.0
 13
-242.94606562500013
 23
121.37059942063155
 33
0.0
  0
SOLID
  5
65
100
AcDbEntity
  8
寸法
370
              -2
390
0
 62
               0
100
AcDbTrace
 10
-138.94880000000012
 20
122.64652
 30
0.0
 11
-144.95153437500011
 21
121.37059942063155
 31
0.0
 12
-144.95153437500011
 22
123.92244057936844
 32
0.0
 13
-144.95153437500011
 23
123.92244057936844
 33
0.0
  0
MTEXT
  5
66
100
AcDbEntity
  8
寸法
390
0
 62
               0
100
AcDbMText
 10
-202.67652894435471
 20
133.19576999985097
 30
0.0
 40
8.7312499999999993
 41
0.0
 71
               1
 72
               1
  1
110
  7
ＭＳ Ｐゴシック
 73
               1
 44
0.8762322015334064
  0
POINT
  5
67
100
AcDbEntity
  8
Defpoints
370
               0
390
0
 62
               0
100
AcDbPoint
 10
-138.94880000000012
 20
52.0
 30
0.0
  0
POINT
  5
68
100
AcDbEntity
  8
Defpoints
370
               0
390
0
 62
               0
100
AcDbPoint
 10
-248.94880000000012
 20
52.0
 30
0.0
  0
POINT
  5
69
100
AcDbEntity
  8
Defpoints
370
               0
390
0
 62
               0
100
AcDbPoint
 10
-248.94880000000012
 20
122.64652
 30
0.0
  0
ENDBLK
  5
6A
100
AcDbEntity
  8
寸法
390
0
100
AcDbBlockEnd
  0
BLOCK
  5
6B
100
AcDbEntity
  8
寸法
390
0
100
AcDbBlockBegin
  2
*D2
 70
               1
 10
0.0
 20
0.0
 30
0.0
  3
*D2
  1

  0
LINE
  5
6C
100
AcDbEntity
  8
寸法
370
              -2
390
0
  6
Continuous
 62
               0
100
AcDbLine
 10
-248.94880000000012
 20
-106.35348000000022
 30
0.0
 11
-248.94880000000012
 21
-121.35348000000022
 31
0.0
  0
LINE
  5
6D
100
AcDbEntity
  8
寸法
370
              -2
390
0
  6
Continuous
 62
               0
100
AcDbLine
 10
-138.94880000000012
 20
-106.35348000000022
 30
0.0
 11
-138.94880000000012
 21
-121.35348000000022
 31
0.0
  0
LINE
  5
6E
100
AcDbEntity
  8
寸法
370
              -2
390
0
  6
Continuous
 62
               0
100
AcDbLine
 10
-248.94880000000012
 20
-117.35348000000022
 30
0.0
 11
-138.94880000000012
 21
-117.35348000000022
 31
0.0
  0
SOLID
  5
6F
100
AcDbEntity
  8
寸法
370
              -2
390
0
 62
               0
100
AcDbTrace
 10
-248.94880000000012
 20
-117.35348000000022
 30
0.0
 11
-242.94606562500013
 21
-116.07755942063177
 31
0.0
 12
-242.94606562500013
 22
-118.62940057936866
 32
0.0
 13
-242.94606562500013
 23
-118.62940057936866
 33
0.0
  0
SOLID
  5
70
100
AcDbEntity
  8
寸法
370
              -2
390
0
 62
               0
100
AcDbTrace
 10
-138.94880000000012
 20
-117.35348000000022
 30
0.0
 11
-144.95153437500011
 21
-118.62940057936866
 31
0.0
 12
-144.95153437500011
 22
-116.07755942063177
 32
0.0
 13
-144.95153437500011
 23
-116.07755942063177
 33
0.0
  0
MTEXT
  5
71
100
AcDbEntity
  8
寸法
390
0
 62
               0
100
AcDbMText
 10
-206.90290833888596
 20
-106.80423000014922
 30
0.0
 40
8.7312499999999993
 41
0.0
 71
               1
 72
               1
  1
110
  7
ＭＳ Ｐゴシック
 73
               1
 44
0.8762322015334064
  0
POINT
  5
72
100
AcDbEntity
  8
Defpoints
370
               0
390
0
 62
               0
100
AcDbPoint
 10
-138.94880000000012
 20
-102.35348000000022
 30
0.0
  0
POINT
  5
73
100
AcDbEntity
  8
Defpoints
370
               0
390
0
 62
               0
100
AcDbPoint
 10
-248.94880000000012
 20
-102.35348000000022
 30
0.0
  0
POINT
  5
74
100
AcDbEntity
  8
Defpoints
370
               0
390
0
 62
               0
100
AcDbPoint
 10
-248.94880000000012
 20
-117.35348000000022
 30
0.0
  0
ENDBLK
  5
75
100
AcDbEntity
  8
寸法
390
0
100
AcDbBlockEnd
  0
BLOCK
  5
76
100
AcDbEntity
  8
寸法
390
0
100
AcDbBlockBegin
  2
*D3
 70
               1
 10
0.0
 20
0.0
 30
0.0
  3
*D3
  1

  0
LINE
  5
77
100
AcDbEntity
  8
寸法
370
              -2
390
0
  6
Continuous
 62
               0
100
AcDbLine
 10
-258.94880000000012
 20
-96.0
 30
0.0
 11
-258.94880000000012
 21
-141.35352
 31
0.0
  0
LINE
  5
78
100
AcDbEntity
  8
寸法
370
              -2
390
0
  6
Continuous
 62
               0
100
AcDbLine
 10
-128.94880000000012
 20
-96.0
 30
0.0
 11
-128.94880000000012
 21
-141.35352
 31
0.0
  0
LINE
  5
79
100
AcDbEntity
  8
寸法
370
              -2
390
0
  6
Continuous
 62
               0
100
AcDbLine
 10
-258.94880000000012
 20
-137.35352
 30
0.0
 11
-128.94880000000012
 21
-137.35352
 31
0.0
  0
SOLID
  5
7A
100
AcDbEntity
  8
寸法
370
              -2
390
0
 62
               0
100
AcDbTrace
 10
-258.94880000000012
 20
-137.35352
 30
0.0
 11
-252.94606562500013
 21
-136.07759942063154
 31
0.0
 12
-252.94606562500013
 22
-138.62944057936846
 32
0.0
 13
-252.94606562500013
 23
-138.62944057936846
 33
0.0
  0
SOLID
  5
7B
100
AcDbEntity
  8
寸法
370
              -2
390
0
 62
               0
100
AcDbTrace
 10
-128.94880000000012
 20
-137.35352
 30
0.0
 11
-134.95153437500011
 21
-138.62944057936846
 31
0.0
 12
-134.95153437500011
 22
-136.07759942063154
 32
0.0
 13
-134.95153437500011
 23
-136.07759942063154
 33
0.0
  0
MTEXT
  5
7C
100
AcDbEntity
  8
寸法
390
0
 62
               0
100
AcDbMText
 10
-206.90351869044846
 20
-126.80427000014899
 30
0.0
 40
8.7312499999999993
 41
0.0
 71
               1
 72
               1
  1
130
  7
ＭＳ Ｐゴシック
 73
               1
 44
0.8762322015334064
  0
POINT
  5
7D
100
AcDbEntity
  8
Defpoints
370
               0
390
0
 62
               0
100
AcDbPoint
 10
-128.94880000000012
 20
-92.0
 30
0.0
  0
POINT
  5
7E
100
AcDbEntity
  8
Defpoints
370
               0
390
0
 62
               0
100
AcDbPoint
 10
-258.94880000000012
 20
-92.0
 30
0.0
  0
POINT
  5
7F
100
AcDbEntity
  8
Defpoints
370
               0
390
0
 62
               0
100
AcDbPoint
 10
-258.94880000000012
 20
-137.35352
 30
0.0
  0
ENDBLK
  5
80
100
AcDbEntity
  8
寸法
390
0
100
AcDbBlockEnd
  0
BLOCK
  5
81
100
AcDbEntity
  8
寸法
390
0
100
AcDbBlockBegin
  2
*D4
 70
               1
 10
0.0
 20
0.0
 30
0.0
  3
*D4
  1

  0
LINE
  5
82
100
AcDbEntity
  8
寸法
370
              -2
390
0
  6
Continuous
 62
               0
100
AcDbLine
 10
-262.94880000000012
 20
-89.700000000000273
 30
0.0
 11
-287.27952000000806
 21
-89.700000000000273
 31
0.0
  0
LINE
  5
83
100
AcDbEntity
  8
寸法
370
              -2
390
0
  6
Continuous
 62
               0
100
AcDbLine
 10
-262.94880000000012
 20
-92.0
 30
0.0
 11
-287.27952000000806
 21
-92.0
 31
0.0
  0
LINE
  5
84
100
AcDbEntity
  8
寸法
370
              -2
390
0
  6
Continuous
 62
               0
100
AcDbLine
 10
-283.27952000000806
 20
-92.0
 30
0.0
 11
-283.27952000000806
 21
-89.700000000000273
 31
0.0
  0
LINE
  5
85
100
AcDbEntity
  8
寸法
370
              -2
390
0
  6
Continuous
 62
               0
100
AcDbLine
 10
-283.27952000000806
 20
-89.700000000000273
 30
0.0
 11
-283.27952000000806
 21
-50.129279730852168
 31
0.0
  0
SOLID
  5
86
100
AcDbEntity
  8
寸法
370
              -2
390
0
 62
               0
100
AcDbTrace
 10
-283.27952000000806
 20
-89.700000000000273
 30
0.0
 11
-284.55544057937652
 21
-83.69726562500027
 31
0.0
 12
-282.0035994206396
 22
-83.69726562500027
 32
0.0
 13
-282.0035994206396
 23
-83.69726562500027
 33
0.0
  0
LINE
  5
87
100
AcDbEntity
  8
寸法
370
              -2
390
0
  6
Continuous
 62
               0
100
AcDbLine
 10
-283.27952000000806
 20
-92.0
 30
0.0
 11
-283.27952000000806
 21
-100.0
 31
0.0
  0
SOLID
  5
88
100
AcDbEntity
  8
寸法
370
              -2
390
0
 62
               0
100
AcDbTrace
 10
-283.27952000000806
 20
-92.0
 30
0.0
 11
-282.0035994206396
 21
-98.002734375000003
 31
0.0
 12
-284.55544057937652
 22
-98.002734375000003
 32
0.0
 13
-284.55544057937652
 23
-98.002734375000003
 33
0.0
  0
MTEXT
  5
89
100
AcDbEntity
  8
寸法
390
0
 62
               0
100
AcDbMText
 10
-293.82876999985911
 20
-65.369280000000259
 30
0.0
 40
8.7312499999999993
 41
0.0
 71
               1
 72
               1
  1
2.3
  7
ＭＳ Ｐゴシック
 11
0.0
 21
1.0
 31
0.0
 73
               1
 44
0.8762322015334064
  0
POINT
  5
8A
100
AcDbEntity
  8
Defpoints
370
               0
390
0
 62
               0
100
AcDbPoint
 10
-258.94880000000012
 20
-92.0
 30
0.0
  0
POINT
  5
8B
100
AcDbEntity
  8
Defpoints
370
               0
390
0
 62
               0
100
AcDbPoint
 10
-258.94880000000012
 20
-89.700000000000273
 30
0.0
  0
POINT
  5
8C
100
AcDbEntity
  8
Defpoints
370
               0
390
0
 62
               0
100
AcDbPoint
 10
-283.27952000000806
 20
-89.700000000000273
 30
0.0
  0
ENDBLK
  5
8D
100
AcDbEntity
  8
寸法
390
0
100
AcDbBlockEnd
  0
BLOCK
  5
8E
100
AcDbEntity
  8
寸法
390
0
100
AcDbBlockBegin
  2
*D5
 70
               1
 10
0.0
 20
0.0
 30
0.0
  3
*D5
  1

  0
LINE
  5
8F
100
AcDbEntity
  8
寸法
370
              -2
390
0
  6
Continuous
 62
               0
100
AcDbLine
 10
-134.94880000000012
 20
-30.0
 30
0.0
 11
-110.37760000000011
 21
-30.0
 31
0.0
  0
LINE
  5
90
100
AcDbEntity
  8
寸法
370
              -2
390
0
  6
Continuous
 62
               0
100
AcDbLine
 10
-124.94880000000012
 20
-92.0
 30
0.0
 11
-110.37760000000011
 21
-92.0
 31
0.0
  0
LINE
  5
91
100
AcDbEntity
  8
寸法
370
              -2
390
0
  6
Continuous
 62
               0
100
AcDbLine
 10
-114.37760000000011
 20
-30.0
 30
0.0
 11
-114.37760000000011
 21
-92.0
 31
0.0
  0
SOLID
  5
92
100
AcDbEntity
  8
寸法
370
              -2
390
0
 62
               0
100
AcDbTrace
 10
-114.37760000000011
 20
-30.0
 30
0.0
 11
-113.10167942063167
 21
-36.002734375000003
 31
0.0
 12
-115.65352057936856
 22
-36.002734374999996
 32
0.0
 13
-115.65352057936856
 23
-36.002734374999996
 33
0.0
  0
SOLID
  5
93
100
AcDbEntity
  8
寸法
370
              -2
390
0
 62
               0
100
AcDbTrace
 10
-114.37760000000011
 20
-92.0
 30
0.0
 11
-115.65352057936856
 21
-85.997265624999997
 31
0.0
 12
-113.10167942063167
 22
-85.997265624999997
 32
0.0
 13
-113.10167942063167
 23
-85.997265624999997
 33
0.0
  0
MTEXT
  5
94
100
AcDbEntity
  8
寸法
390
0
 62
               0
100
AcDbMText
 10
-124.9268499998511
 20
-67.349999999999994
 30
0.0
 40
8.7312499999999993
 41
0.0
 71
               1
 72
               1
  1
62
  7
ＭＳ Ｐゴシック
 11
0.0
 21
1.0
 31
0.0
 73
               1
 44
0.8762322015334064
  0
POINT
  5
95
100
AcDbEntity
  8
Defpoints
370
               0
390
0
 62
               0
100
AcDbPoint
 10
-128.94880000000012
 20
-92.0
 30
0.0
  0
POINT
  5
96
100
AcDbEntity
  8
Defpoints
370
               0
390
0
 62
               0
100
AcDbPoint
 10
-138.94880000000012
 20
-30.0
 30
0.0
  0
POINT
  5
97
100
AcDbEntity
  8
Defpoints
370
               0
390
0
 62
               0
100
AcDbPoint
 10
-114.37760000000011
 20
-30.0
 30
0.0
  0
ENDBLK
  5
98
100
AcDbEntity
  8
寸法
390
0
100
AcDbBlockEnd
  0
BLOCK
  5
99
100
AcDbEntity
  8
寸法
390
0
100
AcDbBlockBegin
  2
*D6
 70
               1
 10
0.0
 20
0.0
 30
0.0
  3
*D6
  1

  0
LINE
  5
9A
100
AcDbEntity
  8
寸法
370
              -2
390
0
  6
Continuous
 62
               0
100
AcDbLine
 10
-124.94880000000012
 20
-92.0
 30
0.0
 11
-93.377600000000115
 21
-92.0
 31
0.0
  0
LINE
  5
9B
100
AcDbEntity
  8
寸法
370
              -2
390
0
  6
Continuous
 62
               0
100
AcDbLine
 10
-137.94880000000012
 20
55.0
 30
0.0
 11
-93.377600000000115
 21
55.0
 31
0.0
  0
LINE
  5
9C
100
AcDbEntity
  8
寸法
370
              -2
390
0
  6
Continuous
 62
               0
100
AcDbLine
 10
-97.377600000000115
 20
-92.0
 30
0.0
 11
-97.377600000000115
 21
55.0
 31
0.0
  0
SOLID
  5
9D
100
AcDbEntity
  8
寸法
370
              -2
390
0
 62
               0
100
AcDbTrace
 10
-97.377600000000115
 20
-92.0
 30
0.0
 11
-98.653520579368561
 21
-85.997265624999997
 31
0.0
 12
-96.101679420631669
 22
-85.997265624999997
 32
0.0
 13
-96.101679420631669
 23
-85.997265624999997
 33
0.0
  0
SOLID
  5
9E
100
AcDbEntity
  8
寸法
370
              -2
390
0
 62
               0
100
AcDbTrace
 10
-97.377600000000115
 20
55.0
 30
0.0
 11
-96.101679420631669
 21
48.997265624999997
 31
0.0
 12
-98.653520579368561
 22
48.997265625000004
 32
0.0
 13
-98.653520579368561
 23
48.997265625000004
 33
0.0
  0
MTEXT
  5
9F
100
AcDbEntity
  8
寸法
390
0
 62
               0
100
AcDbMText
 10
-107.9268499998511
 20
-28.025000672870213
 30
0.0
 40
8.7312499999999993
 41
0.0
 71
               1
 72
               1
  1
147
  7
ＭＳ Ｐゴシック
 11
0.0
 21
1.0
 31
0.0
 73
               1
 44
0.8762322015334064
  0
POINT
  5
A0
100
AcDbEntity
  8
Defpoints
370
               0
390
0
 62
               0
100
AcDbPoint
 10
-141.94880000000012
 20
55.0
 30
0.0
  0
POINT
  5
A1
100
AcDbEntity
  8
Defpoints
370
               0
390
0
 62
               0
100
AcDbPoint
 10
-128.94880000000012
 20
-92.0
 30
0.0
  0
POINT
  5
A2
100
AcDbEntity
  8
Defpoints
370
               0
390
0
 62
               0
100
AcDbPoint
 10
-97.377600000000115
 20
-92.0
 30
0.0
  0
ENDBLK
  5
A3
100
AcDbEntity
  8
寸法
390
0
100
AcDbBlockEnd
  0
BLOCK
  5
A4
100
AcDbEntity
  8
寸法
390
0
100
AcDbBlockBegin
  2
*D7
 70
               1
 10
0.0
 20
0.0
 30
0.0
  3
*D7
  1

  0
LINE
  5
A5
100
AcDbEntity
  8
寸法
370
              -2
390
0
  6
Continuous
 62
               0
100
AcDbLine
 10
125.48420000000078
 20
-80.090280000000348
 30
0.0
 11
125.48420000000078
 21
-141.35348000000033
 31
0.0
  0
LINE
  5
A6
100
AcDbEntity
  8
寸法
370
              -2
390
0
  6
Continuous
 62
               0
100
AcDbLine
 10
144.48420000000078
 20
-96.0
 30
0.0
 11
144.48420000000078
 21
-141.35348000000033
 31
0.0
  0
LINE
  5
A7
100
AcDbEntity
  8
寸法
370
              -2
390
0
  6
Continuous
 62
               0
100
AcDbLine
 10
144.48420000000078
 20
-137.35348000000033
 30
0.0
 11
125.48420000000078
 21
-137.35348000000033
 31
0.0
  0
LINE
  5
A8
100
AcDbEntity
  8
寸法
370
              -2
390
0
  6
Continuous
 62
               0
100
AcDbLine
 10
125.48420000000078
 20
-137.35348000000033
 30
0.0
 11
117.48420000000078
 21
-137.35348000000033
 31
0.0
  0
SOLID
  5
A9
100
AcDbEntity
  8
寸法
370
              -2
390
0
 62
               0
100
AcDbTrace
 10
125.48420000000078
 20
-137.35348000000033
 30
0.0
 11
119.48146562500078
 21
-138.62940057936879
 31
0.0
 12
119.48146562500078
 22
-136.07755942063187
 32
0.0
 13
119.48146562500078
 23
-136.07755942063187
 33
0.0
  0
LINE
  5
AA
100
AcDbEntity
  8
寸法
370
              -2
390
0
  6
Continuous
 62
               0
100
AcDbLine
 10
144.48420000000078
 20
-137.35348000000033
 30
0.0
 11
152.48420000000078
 21
-137.35348000000033
 31
0.0
  0
SOLID
  5
AB
100
AcDbEntity
  8
寸法
370
              -2
390
0
 62
               0
100
AcDbTrace
 10
144.48420000000078
 20
-137.35348000000033
 30
0.0
 11
150.48693437500077
 21
-136.07755942063187
 31
0.0
 12
150.48693437500077
 22
-138.62940057936879
 32
0.0
 13
150.48693437500077
 23
-138.62940057936879
 33
0.0
  0
MTEXT
  5
AC
100
AcDbEntity
  8
寸法
390
0
 62
               0
100
AcDbMText
 10
128.63420000000079
 20
-126.80423000014932
 30
0.0
 40
8.7312499999999993
 41
0.0
 71
               1
 72
               1
  1
19
  7
ＭＳ Ｐゴシック
 73
               1
 44
0.8762322015334064
  0
POINT
  5
AD
100
AcDbEntity
  8
Defpoints
370
               0
390
0
 62
               0
100
AcDbPoint
 10
144.48420000000078
 20
-92.0
 30
0.0
  0
POINT
  5
AE
100
AcDbEntity
  8
Defpoints
370
               0
390
0
 62
               0
100
AcDbPoint
 10
125.48420000000078
 20
-76.090280000000348
 30
0.0
  0
POINT
  5
AF
100
AcDbEntity
  8
Defpoints
370
               0
390
0
 62
               0
100
AcDbPoint
 10
125.48420000000078
 20
-137.35348000000033
 30
0.0
  0
ENDBLK
  5
B0
100
AcDbEntity
  8
寸法
390
0
100
AcDbBlockEnd
  0
BLOCK
  5
B1
100
AcDbEntity
  8
寸法
390
0
100
AcDbBlockBegin
  2
*D8
 70
               1
 10
0.0
 20
0.0
 30
0.0
  3
*D8
  1

  0
LINE
  5
B2
100
AcDbEntity
  8
寸法
370
              -2
390
0
  6
Continuous
 62
               0
100
AcDbLine
 10
144.48420000000078
 20
-96.0
 30
0.0
 11
144.48420000000078
 21
-141.35352
 31
0.0
  0
LINE
  5
B3
100
AcDbEntity
  8
寸法
370
              -2
390
0
  6
Continuous
 62
               0
100
AcDbLine
 10
210.48420000000078
 20
-96.0
 30
0.0
 11
210.48420000000078
 21
-141.35352
 31
0.0
  0
LINE
  5
B4
100
AcDbEntity
  8
寸法
370
              -2
390
0
  6
Continuous
 62
               0
100
AcDbLine
 10
144.48420000000078
 20
-137.35352
 30
0.0
 11
210.48420000000078
 21
-137.35352
 31
0.0
  0
SOLID
  5
B5
100
AcDbEntity
  8
寸法
370
              -2
390
0
 62
               0
100
AcDbTrace
 10
144.48420000000078
 20
-137.35352
 30
0.0
 11
150.48693437500077
 21
-136.07759942063154
 31
0.0
 12
150.48693437500077
 22
-138.62944057936846
 32
0.0
 13
150.48693437500077
 23
-138.62944057936846
 33
0.0
  0
SOLID
  5
B6
100
AcDbEntity
  8
寸法
370
              -2
390
0
 62
               0
100
AcDbTrace
 10
210.48420000000078
 20
-137.35352
 30
0.0
 11
204.48146562500079
 21
-138.62944057936846
 31
0.0
 12
204.48146562500079
 22
-136.07759942063154
 32
0.0
 13
204.48146562500079
 23
-136.07759942063154
 33
0.0
  0
MTEXT
  5
B7
100
AcDbEntity
  8
寸法
390
0
 62
               0
100
AcDbMText
 10
171.13420000000079
 20
-126.80427000014899
 30
0.0
 40
8.7312499999999993
 41
0.0
 71
               1
 72
               1
  1
66
  7
ＭＳ Ｐゴシック
 73
               1
 44
0.8762322015334064
  0
POINT
  5
B8
100
AcDbEntity
  8
Defpoints
370
               0
390
0
 62
               0
100
AcDbPoint
 10
210.48420000000078
 20
-92.0
 30
0.0
  0
POINT
  5
B9
100
AcDbEntity
  8
Defpoints
370
               0
390
0
 62
               0
100
AcDbPoint
 10
144.48420000000078
 20
-92.0
 30
0.0
  0
POINT
  5
BA
100
AcDbEntity
  8
Defpoints
370
               0
390
0
 62
               0
100
AcDbPoint
 10
144.48420000000078
 20
-137.35352
 30
0.0
  0
ENDBLK
  5
BB
100
AcDbEntity
  8
寸法
390
0
100
AcDbBlockEnd
  0
BLOCK
  5
BC
100
AcDbEntity
  8
寸法
390
0
100
AcDbBlockBegin
  2
*D9
 70
               1
 10
0.0
 20
0.0
 30
0.0
  3
*D9
  1

  0
LINE
  5
BD
100
AcDbEntity
  8
寸法
370
              -2
390
0
  6
Continuous
 62
               0
100
AcDbLine
 10
144.48420000000078
 20
-96.0
 30
0.0
 11
144.48420000000078
 21
-121.35348000000067
 31
0.0
  0
LINE
  5
BE
100
AcDbEntity
  8
寸法
370
              -2
390
0
  6
Continuous
 62
               0
100
AcDbLine
 10
157.48420000000078
 20
-103.50560000000041
 30
0.0
 11
157.48420000000078
 21
-121.35348000000067
 31
0.0
  0
LINE
  5
BF
100
AcDbEntity
  8
寸法
370
              -2
390
0
  6
Continuous
 62
               0
100
AcDbLine
 10
157.48420000000078
 20
-117.35348000000067
 30
0.0
 11
144.48420000000078
 21
-117.35348000000067
 31
0.0
  0
LINE
  5
C0
100
AcDbEntity
  8
寸法
370
              -2
390
0
  6
Continuous
 62
               0
100
AcDbLine
 10
144.48420000000078
 20
-117.35348000000067
 30
0.0
 11
136.48420000000078
 21
-117.35348000000067
 31
0.0
  0
SOLID
  5
C1
100
AcDbEntity
  8
寸法
370
              -2
390
0
 62
               0
100
AcDbTrace
 10
144.48420000000078
 20
-117.35348000000067
 30
0.0
 11
138.48146562500079
 21
-118.62940057936912
 31
0.0
 12
138.48146562500079
 22
-116.07755942063223
 32
0.0
 13
138.48146562500079
 23
-116.07755942063223
 33
0.0
  0
LINE
  5
C2
100
AcDbEntity
  8
寸法
370
              -2
390
0
  6
Continuous
 62
               0
100
AcDbLine
 10
157.48420000000078
 20
-117.35348000000067
 30
0.0
 11
165.48420000000078
 21
-117.35348000000067
 31
0.0
  0
SOLID
  5
C3
100
AcDbEntity
  8
寸法
370
              -2
390
0
 62
               0
100
AcDbTrace
 10
157.48420000000078
 20
-117.35348000000067
 30
0.0
 11
163.48693437500077
 21
-116.07755942063223
 31
0.0
 12
163.48693437500077
 22
-118.62940057936912
 32
0.0
 13
163.48693437500077
 23
-118.62940057936912
 33
0.0
  0
MTEXT
  5
C4
100
AcDbEntity
  8
寸法
390
0
 62
               0
100
AcDbMText
 10
143.05923561299861
 20
-106.80423000014967
 30
0.0
 40
8.7312499999999993
 41
0.0
 71
               1
 72
               1
  1
13
  7
ＭＳ Ｐゴシック
 73
               1
 44
0.8762322015334064
  0
POINT
  5
C5
100
AcDbEntity
  8
Defpoints
370
               0
390
0
 62
               0
100
AcDbPoint
 10
157.48420000000078
 20
-99.505600000000413
 30
0.0
  0
POINT
  5
C6
100
AcDbEntity
  8
Defpoints
370
               0
390
0
 62
               0
100
AcDbPoint
 10
144.48420000000078
 20
-92.0
 30
0.0
  0
POINT
  5
C7
100
AcDbEntity
  8
Defpoints
370
               0
390
0
 62
               0
100
AcDbPoint
 10
144.48420000000078
 20
-117.35348000000067
 30
0.0
  0
ENDBLK
  5
C8
100
AcDbEntity
  8
寸法
390
0
100
AcDbBlockEnd
  0
BLOCK
  5
C9
100
AcDbEntity
  8
寸法
390
0
100
AcDbBlockBegin
  2
*D10
 70
               1
 10
0.0
 20
0.0
 30
0.0
  3
*D10
  1

  0
LINE
  5
CA
100
AcDbEntity
  8
寸法
370
              -2
390
0
  6
Continuous
 62
               0
100
AcDbLine
 10
157.48420000000078
 20
-101.35348000000022
 30
0.0
 11
157.48420000000078
 21
-121.35348000000067
 31
0.0
  0
LINE
  5
CB
100
AcDbEntity
  8
寸法
370
              -2
390
0
  6
Continuous
 62
               0
100
AcDbLine
 10
197.48420000000078
 20
-101.35348000000022
 30
0.0
 11
197.48420000000078
 21
-121.35348000000067
 31
0.0
  0
LINE
  5
CC
100
AcDbEntity
  8
寸法
370
              -2
390
0
  6
Continuous
 62
               0
100
AcDbLine
 10
157.48420000000078
 20
-117.35348000000067
 30
0.0
 11
197.48420000000078
 21
-117.35348000000067
 31
0.0
  0
SOLID
  5
CD
100
AcDbEntity
  8
寸法
370
              -2
390
0
 62
               0
100
AcDbTrace
 10
157.48420000000078
 20
-117.35348000000067
 30
0.0
 11
163.48693437500077
 21
-116.07755942063223
 31
0.0
 12
163.48693437500077
 22
-118.62940057936912
 32
0.0
 13
163.48693437500077
 23
-118.62940057936912
 33
0.0
  0
SOLID
  5
CE
100
AcDbEntity
  8
寸法
370
              -2
390
0
 62
               0
100
AcDbTrace
 10
197.48420000000078
 20
-117.35348000000067
 30
0.0
 11
191.48146562500079
 21
-118.62940057936912
 31
0.0
 12
191.48146562500079
 22
-116.07755942063223
 32
0.0
 13
191.48146562500079
 23
-116.07755942063223
 33
0.0
  0
MTEXT
  5
CF
100
AcDbEntity
  8
寸法
390
0
 62
               0
100
AcDbMText
 10
173.05923561299861
 20
-106.80423000014967
 30
0.0
 40
8.7312499999999993
 41
0.0
 71
               1
 72
               1
  1
40
  7
ＭＳ Ｐゴシック
 73
               1
 44
0.8762322015334064
  0
POINT
  5
D0
100
AcDbEntity
  8
Defpoints
370
               0
390
0
 62
               0
100
AcDbPoint
 10
197.48420000000078
 20
-97.353480000000218
 30
0.0
  0
POINT
  5
D1
100
AcDbEntity
  8
Defpoints
370
               0
390
0
 62
               0
100
AcDbPoint
 10
157.48420000000078
 20
-97.353480000000218
 30
0.0
  0
POINT
  5
D2
100
AcDbEntity
  8
Defpoints
370
               0
390
0
 62
               0
100
AcDbPoint
 10
157.48420000000078
 20
-117.35348000000067
 30
0.0
  0
ENDBLK
  5
D3
100
AcDbEntity
  8
寸法
390
0
100
AcDbBlockEnd
  0
BLOCK
  5
D4
100
AcDbEntity
  8
寸法
390
0
100
AcDbBlockBegin
  2
*D11
 70
               1
 10
0.0
 20
0.0
 30
0.0
  3
*D11
  1

  0
LINE
  5
D5
100
AcDbEntity
  8
寸法
370
              -2
390
0
  6
Continuous
 62
               0
100
AcDbLine
 10
197.48420000000078
 20
-100.74148000000059
 30
0.0
 11
197.48420000000078
 21
-121.35348000000067
 31
0.0
  0
LINE
  5
D6
100
AcDbEntity
  8
寸法
370
              -2
390
0
  6
Continuous
 62
               0
100
AcDbLine
 10
210.48420000000078
 20
-111.35348000000022
 30
0.0
 11
210.48420000000078
 21
-121.35348000000067
 31
0.0
  0
LINE
  5
D7
100
AcDbEntity
  8
寸法
370
              -2
390
0
  6
Continuous
 62
               0
100
AcDbLine
 10
210.48420000000078
 20
-117.35348000000067
 30
0.0
 11
197.48420000000078
 21
-117.35348000000067
 31
0.0
  0
LINE
  5
D8
100
AcDbEntity
  8
寸法
370
              -2
390
0
  6
Continuous
 62
               0
100
AcDbLine
 10
197.48420000000078
 20
-117.35348000000067
 30
0.0
 11
189.48420000000078
 21
-117.35348000000067
 31
0.0
  0
SOLID
  5
D9
100
AcDbEntity
  8
寸法
370
              -2
390
0
 62
               0
100
AcDbTrace
 10
197.48420000000078
 20
-117.35348000000067
 30
0.0
 11
191.48146562500079
 21
-118.62940057936912
 31
0.0
 12
191.48146562500079
 22
-116.07755942063223
 32
0.0
 13
191.48146562500079
 23
-116.07755942063223
 33
0.0
  0
LINE
  5
DA
100
AcDbEntity
  8
寸法
370
              -2
390
0
  6
Continuous
 62
               0
100
AcDbLine
 10
210.48420000000078
 20
-117.35348000000067
 30
0.0
 11
218.48420000000078
 21
-117.35348000000067
 31
0.0
  0
SOLID
  5
DB
100
AcDbEntity
  8
寸法
370
              -2
390
0
 62
               0
100
AcDbTrace
 10
210.48420000000078
 20
-117.35348000000067
 30
0.0
 11
216.48693437500077
 21
-116.07755942063223
 31
0.0
 12
216.48693437500077
 22
-118.62940057936912
 32
0.0
 13
216.48693437500077
 23
-118.62940057936912
 33
0.0
  0
MTEXT
  5
DC
100
AcDbEntity
  8
寸法
390
0
 62
               0
100
AcDbMText
 10
196.77292000000088
 20
-106.80423000014967
 30
0.0
 40
8.7312499999999993
 41
0.0
 71
               1
 72
               1
  1
13
  7
ＭＳ Ｐゴシック
 73
               1
 44
0.8762322015334064
  0
POINT
  5
DD
100
AcDbEntity
  8
Defpoints
370
               0
390
0
 62
               0
100
AcDbPoint
 10
210.48420000000078
 20
-107.35348000000022
 30
0.0
  0
POINT
  5
DE
100
AcDbEntity
  8
Defpoints
370
               0
390
0
 62
               0
100
AcDbPoint
 10
197.48420000000078
 20
-96.741480000000593
 30
0.0
  0
POINT
  5
DF
100
AcDbEntity
  8
Defpoints
370
               0
390
0
 62
               0
100
AcDbPoint
 10
197.48420000000078
 20
-117.35348000000067
 30
0.0
  0
ENDBLK
  5
E0
100
AcDbEntity
  8
寸法
390
0
100
AcDbBlockEnd
  0
BLOCK
  5
E1
100
AcDbEntity
  8
寸法
390
0
100
AcDbBlockBegin
  2
*D12
 70
               1
 10
0.0
 20
0.0
 30
0.0
  3
*D12
  1

  0
LINE
  5
E2
100
AcDbEntity
  8
寸法
370
              -2
390
0
  6
Continuous
 62
               0
100
AcDbLine
 10
125.48420000000078
 20
22.630719999999656
 30
0.0
 11
125.48420000000078
 21
86.646519999999654
 31
0.0
  0
LINE
  5
E3
100
AcDbEntity
  8
寸法
370
              -2
390
0
  6
Continuous
 62
               0
100
AcDbLine
 10
173.48420000000078
 20
46.0
 30
0.0
 11
173.48420000000078
 21
86.646519999999654
 31
0.0
  0
LINE
  5
E4
100
AcDbEntity
  8
寸法
370
              -2
390
0
  6
Continuous
 62
               0
100
AcDbLine
 10
125.48420000000078
 20
82.646519999999654
 30
0.0
 11
173.48420000000078
 21
82.646519999999654
 31
0.0
  0
SOLID
  5
E5
100
AcDbEntity
  8
寸法
370
              -2
390
0
 62
               0
100
AcDbTrace
 10
125.48420000000078
 20
82.646519999999654
 30
0.0
 11
131.48693437500077
 21
83.9224405793681
 31
0.0
 12
131.48693437500077
 22
81.370599420631208
 32
0.0
 13
131.48693437500077
 23
81.370599420631208
 33
0.0
  0
SOLID
  5
E6
100
AcDbEntity
  8
寸法
370
              -2
390
0
 62
               0
100
AcDbTrace
 10
173.48420000000078
 20
82.646519999999654
 30
0.0
 11
167.48146562500079
 21
81.370599420631208
 31
0.0
 12
167.48146562500079
 22
83.9224405793681
 32
0.0
 13
167.48146562500079
 23
83.9224405793681
 33
0.0
  0
MTEXT
  5
E7
100
AcDbEntity
  8
寸法
390
0
 62
               0
100
AcDbMText
 10
142.27213945312579
 20
93.195769999850654
 30
0.0
 40
8.7312499999999993
 41
0.0
 71
               1
 72
               1
  1
48
  7
ＭＳ Ｐゴシック
 73
               1
 44
0.8762322015334064
  0
POINT
  5
E8
100
AcDbEntity
  8
Defpoints
370
               0
390
0
 62
               0
100
AcDbPoint
 10
173.48420000000078
 20
42.0
 30
0.0
  0
POINT
  5
E9
100
AcDbEntity
  8
Defpoints
370
               0
390
0
 62
               0
100
AcDbPoint
 10
125.48420000000078
 20
18.630719999999656
 30
0.0
  0
POINT
  5
EA
100
AcDbEntity
  8
Defpoints
370
               0
390
0
 62
               0
100
AcDbPoint
 10
125.48420000000078
 20
82.646519999999654
 30
0.0
  0
ENDBLK
  5
EB
100
AcDbEntity
  8
寸法
390
0
100
AcDbBlockEnd
  0
BLOCK
  5
EC
100
AcDbEntity
  8
寸法
390
0
100
AcDbBlockBegin
  2
*D13
 70
               1
 10
0.0
 20
0.0
 30
0.0
  3
*D13
  1

  0
LINE
  5
ED
100
AcDbEntity
  8
寸法
370
              -2
390
0
  6
Continuous
 62
               0
100
AcDbLine
 10
125.48420000000078
 20
24.630719999999656
 30
0.0
 11
125.48420000000078
 21
106.64651999999965
 31
0.0
  0
LINE
  5
EE
100
AcDbEntity
  8
寸法
370
              -2
390
0
  6
Continuous
 62
               0
100
AcDbLine
 10
278.48400000000038
 20
9.7075999999997293
 30
0.0
 11
278.48400000000038
 21
106.64651999999965
 31
0.0
  0
LINE
  5
EF
100
AcDbEntity
  8
寸法
370
              -2
390
0
  6
Continuous
 62
               0
100
AcDbLine
 10
125.48420000000078
 20
102.64651999999965
 30
0.0
 11
278.48400000000038
 21
102.64651999999965
 31
0.0
  0
SOLID
  5
F0
100
AcDbEntity
  8
寸法
370
              -2
390
0
 62
               0
100
AcDbTrace
 10
125.48420000000078
 20
102.64651999999965
 30
0.0
 11
131.48693437500077
 21
103.9224405793681
 31
0.0
 12
131.48693437500077
 22
101.37059942063121
 32
0.0
 13
131.48693437500077
 23
101.37059942063121
 33
0.0
  0
SOLID
  5
F1
100
AcDbEntity
  8
寸法
370
              -2
390
0
 62
               0
100
AcDbTrace
 10
278.48400000000038
 20
102.64651999999965
 30
0.0
 11
272.48126562500039
 21
101.37059942063121
 31
0.0
 12
272.48126562500039
 22
103.9224405793681
 32
0.0
 13
272.48126562500039
 23
103.9224405793681
 33
0.0
  0
MTEXT
  5
F2
100
AcDbEntity
  8
寸法
390
0
 62
               0
100
AcDbMText
 10
192.09723761753563
 20
113.19576999985065
 30
0.0
 40
8.7312499999999993
 41
0.0
 71
               1
 72
               1
  1
153
  7
ＭＳ Ｐゴシック
 73
               1
 44
0.8762322015334064
  0
POINT
  5
F3
100
AcDbEntity
  8
Defpoints
370
               0
390
0
 62
               0
100
AcDbPoint
 10
278.48400000000038
 20
5.7075999999997293
 30
0.0
  0
POINT
  5
F4
100
AcDbEntity
  8
Defpoints
370
               0
390
0
 62
               0
100
AcDbPoint
 10
125.48420000000078
 20
20.630719999999656
 30
0.0
  0
POINT
  5
F5
100
AcDbEntity
  8
Defpoints
370
               0
390
0
 62
               0
100
AcDbPoint
 10
125.48420000000078
 20
102.64651999999965
 30
0.0
  0
ENDBLK
  5
F6
100
AcDbEntity
  8
寸法
390
0
100
AcDbBlockEnd
  0
BLOCK
  5
F7
100
AcDbEntity
  8
寸法
390
0
100
AcDbBlockBegin
  2
*D14
 70
               1
 10
0.0
 20
0.0
 30
0.0
  3
*D14
  1

  0
LINE
  5
F8
100
AcDbEntity
  8
寸法
370
              -2
390
0
  6
Continuous
 62
               0
100
AcDbLine
 10
87.39411999999993
 20
94.0
 30
0.0
 11
87.39411999999993
 21
106.64651999999978
 31
0.0
  0
LINE
  5
F9
100
AcDbEntity
  8
寸法
370
              -2
390
0
  6
Continuous
 62
               0
100
AcDbLine
 10
125.48420000000078
 20
22.630719999999656
 30
0.0
 11
125.48420000000078
 21
106.64651999999978
 31
0.0
  0
LINE
  5
FA
100
AcDbEntity
  8
寸法
370
              -2
390
0
  6
Continuous
 62
               0
100
AcDbLine
 10
87.39411999999993
 20
102.64651999999978
 30
0.0
 11
125.48420000000078
 21
102.64651999999978
 31
0.0
  0
SOLID
  5
FB
100
AcDbEntity
  8
寸法
370
              -2
390
0
 62
               0
100
AcDbTrace
 10
87.39411999999993
 20
102.64651999999978
 30
0.0
 11
93.396854374999933
 21
103.92244057936823
 31
0.0
 12
93.396854374999933
 22
101.37059942063134
 32
0.0
 13
93.396854374999933
 23
101.37059942063134
 33
0.0
  0
SOLID
  5
FC
100
AcDbEntity
  8
寸法
370
              -2
390
0
 62
               0
100
AcDbTrace
 10
125.48420000000078
 20
102.64651999999978
 30
0.0
 11
119.48146562500078
 21
101.37059942063134
 31
0.0
 12
119.48146562500078
 22
103.92244057936823
 32
0.0
 13
119.48146562500078
 23
103.92244057936823
 33
0.0
  0
MTEXT
  5
FD
100
AcDbEntity
  8
寸法
390
0
 62
               0
100
AcDbMText
 10
100.08916000000036
 20
113.19576999985078
 30
0.0
 40
8.7312499999999993
 41
0.0
 71
               1
 72
               1
  1
38
  7
ＭＳ Ｐゴシック
 73
               1
 44
0.8762322015334064
  0
POINT
  5
FE
100
AcDbEntity
  8
Defpoints
370
               0
390
0
 62
               0
100
AcDbPoint
 10
125.48420000000078
 20
18.630719999999656
 30
0.0
  0
POINT
  5
FF
100
AcDbEntity
  8
Defpoints
370
               0
390
0
 62
               0
100
AcDbPoint
 10
87.39411999999993
 20
90.0
 30
0.0
  0
POINT
  5
100
100
AcDbEntity
  8
Defpoints
370
               0
390
0
 62
               0
100
AcDbPoint
 10
87.39411999999993
 20
102.64651999999978
 30
0.0
  0
ENDBLK
  5
101
100
AcDbEntity
  8
寸法
390
0
100
AcDbBlockEnd
  0
BLOCK
  5
102
100
AcDbEntity
  8
寸法
390
0
100
AcDbBlockBegin
  2
*D15
 70
               1
 10
0.0
 20
0.0
 30
0.0
  3
*D15
  1

  0
LINE
  5
103
100
AcDbEntity
  8
寸法
370
              -2
390
0
  6
Continuous
 62
               0
100
AcDbLine
 10
78.89411999999993
 20
75.786599999999453
 30
0.0
 11
78.89411999999993
 21
106.64651999999941
 31
0.0
  0
LINE
  5
104
100
AcDbEntity
  8
寸法
370
              -2
390
0
  6
Continuous
 62
               0
100
AcDbLine
 10
87.39411999999993
 20
94.0
 30
0.0
 11
87.39411999999993
 21
106.64651999999941
 31
0.0
  0
LINE
  5
105
100
AcDbEntity
  8
寸法
370
              -2
390
0
  6
Continuous
 62
               0
100
AcDbLine
 10
87.39411999999993
 20
102.64651999999941
 30
0.0
 11
78.89411999999993
 21
102.64651999999941
 31
0.0
  0
LINE
  5
106
100
AcDbEntity
  8
寸法
370
              -2
390
0
  6
Continuous
 62
               0
100
AcDbLine
 10
78.89411999999993
 20
102.64651999999941
 30
0.0
 11
69.572919999999982
 21
102.64651999999941
 31
0.0
  0
SOLID
  5
107
100
AcDbEntity
  8
寸法
370
              -2
390
0
 62
               0
100
AcDbTrace
 10
78.89411999999993
 20
102.64651999999941
 30
0.0
 11
72.891385624999927
 21
101.37059942063097
 31
0.0
 12
72.891385624999927
 22
103.92244057936786
 32
0.0
 13
72.891385624999927
 23
103.92244057936786
 33
0.0
  0
LINE
  5
108
100
AcDbEntity
  8
寸法
370
              -2
390
0
  6
Continuous
 62
               0
100
AcDbLine
 10
87.39411999999993
 20
102.64651999999941
 30
0.0
 11
95.39411999999993
 21
102.64651999999941
 31
0.0
  0
SOLID
  5
109
100
AcDbEntity
  8
寸法
370
              -2
390
0
 62
               0
100
AcDbTrace
 10
87.39411999999993
 20
102.64651999999941
 30
0.0
 11
93.396854374999933
 21
103.92244057936786
 31
0.0
 12
93.396854374999933
 22
101.37059942063097
 32
0.0
 13
93.396854374999933
 23
101.37059942063097
 33
0.0
  0
MTEXT
  5
10A
100
AcDbEntity
  8
寸法
390
0
 62
               0
100
AcDbMText
 10
69.572919999999982
 20
113.19576999985041
 30
0.0
 40
8.7312499999999993
 41
0.0
 71
               1
 72
               1
  1
9
  7
ＭＳ Ｐゴシック
 73
               1
 44
0.8762322015334064
  0
POINT
  5
10B
100
AcDbEntity
  8
Defpoints
370
               0
390
0
 62
               0
100
AcDbPoint
 10
87.39411999999993
 20
90.0
 30
0.0
  0
POINT
  5
10C
100
AcDbEntity
  8
Defpoints
370
               0
390
0
 62
               0
100
AcDbPoint
 10
78.89411999999993
 20
71.786599999999453
 30
0.0
  0
POINT
  5
10D
100
AcDbEntity
  8
Defpoints
370
               0
390
0
 62
               0
100
AcDbPoint
 10
78.89411999999993
 20
102.64651999999941
 30
0.0
  0
ENDBLK
  5
10E
100
AcDbEntity
  8
寸法
390
0
100
AcDbBlockEnd
  0
BLOCK
  5
10F
100
AcDbEntity
  8
寸法
390
0
100
AcDbBlockBegin
  2
*D16
 70
               1
 10
0.0
 20
0.0
 30
0.0
  3
*D16
  1

  0
LINE
  5
110
100
AcDbEntity
  8
寸法
370
              -2
390
0
  6
Continuous
 62
               0
100
AcDbLine
 10
55.39411999999993
 20
78.208728599999631
 30
0.0
 11
55.39411999999993
 21
126.64651999999933
 31
0.0
  0
LINE
  5
111
100
AcDbEntity
  8
寸法
370
              -2
390
0
  6
Continuous
 62
               0
100
AcDbLine
 10
278.48400000000038
 20
9.7075999999997293
 30
0.0
 11
278.48400000000038
 21
126.64651999999933
 31
0.0
  0
LINE
  5
112
100
AcDbEntity
  8
寸法
370
              -2
390
0
  6
Continuous
 62
               0
100
AcDbLine
 10
55.39411999999993
 20
122.64651999999933
 30
0.0
 11
278.48400000000038
 21
122.64651999999933
 31
0.0
  0
SOLID
  5
113
100
AcDbEntity
  8
寸法
370
              -2
390
0
 62
               0
100
AcDbTrace
 10
55.39411999999993
 20
122.64651999999933
 30
0.0
 11
61.396854374999933
 21
123.92244057936777
 31
0.0
 12
61.396854374999933
 22
121.37059942063088
 32
0.0
 13
61.396854374999933
 23
121.37059942063088
 33
0.0
  0
SOLID
  5
114
100
AcDbEntity
  8
寸法
370
              -2
390
0
 62
               0
100
AcDbTrace
 10
278.48400000000038
 20
122.64651999999933
 30
0.0
 11
272.48126562500039
 21
121.37059942063088
 31
0.0
 12
272.48126562500039
 22
123.92244057936777
 32
0.0
 13
272.48126562500039
 23
123.92244057936777
 33
0.0
  0
MTEXT
  5
115
100
AcDbEntity
  8
寸法
390
0
 62
               0
100
AcDbMText
 10
157.41405932712993
 20
133.19576999985031
 30
0.0
 40
8.7312499999999993
 41
0.0
 71
               1
 72
               1
  1
223
  7
ＭＳ Ｐゴシック
 73
               1
 44
0.8762322015334064
  0
POINT
  5
116
100
AcDbEntity
  8
Defpoints
370
               0
390
0
 62
               0
100
AcDbPoint
 10
278.48400000000038
 20
5.7075999999997293
 30
0.0
  0
POINT
  5
117
100
AcDbEntity
  8
Defpoints
370
               0
390
0
 62
               0
100
AcDbPoint
 10
55.39411999999993
 20
74.208728599999631
 30
0.0
  0
POINT
  5
118
100
AcDbEntity
  8
Defpoints
370
               0
390
0
 62
               0
100
AcDbPoint
 10
55.39411999999993
 20
122.64651999999933
 30
0.0
  0
ENDBLK
  5
119
100
AcDbEntity
  8
寸法
390
0
100
AcDbBlockEnd
  0
BLOCK
  5
11A
100
AcDbEntity
  8
寸法
390
0
100
AcDbBlockBegin
  2
*D17
 70
               1
 10
0.0
 20
0.0
 30
0.0
  3
*D17
  1

  0
LINE
  5
11B
100
AcDbEntity
  8
寸法
370
              -2
390
0
  6
Continuous
 62
               0
100
AcDbLine
 10
85.39411999999993
 20
90.0
 30
0.0
 11
-14.5907643870014
 21
90.0
 31
0.0
  0
LINE
  5
11C
100
AcDbEntity
  8
寸法
370
              -2
390
0
  6
Continuous
 62
               0
100
AcDbLine
 10
37.111119999999573
 20
-29.999880000000303
 30
0.0
 11
-14.5907643870014
 21
-29.999880000000303
 31
0.0
  0
LINE
  5
11D
100
AcDbEntity
  8
寸法
370
              -2
390
0
  6
Continuous
 62
               0
100
AcDbLine
 10
-10.5907643870014
 20
90.0
 30
0.0
 11
-10.5907643870014
 21
-29.999880000000303
 31
0.0
  0
SOLID
  5
11E
100
AcDbEntity
  8
寸法
370
              -2
390
0
 62
               0
100
AcDbTrace
 10
-10.5907643870014
 20
90.0
 30
0.0
 11
-9.3148438076329505
 21
83.997265624999997
 31
0.0
 12
-11.866684966369851
 22
83.997265624999997
 32
0.0
 13
-11.866684966369851
 23
83.997265624999997
 33
0.0
  0
SOLID
  5
11F
100
AcDbEntity
  8
寸法
370
              -2
390
0
 62
               0
100
AcDbTrace
 10
-10.5907643870014
 20
-29.999880000000303
 30
0.0
 11
-11.866684966369849
 21
-23.997145625000304
 31
0.0
 12
-9.3148438076329505
 22
-23.997145625000304
 32
0.0
 13
-9.3148438076329505
 23
-23.997145625000304
 33
0.0
  0
MTEXT
  5
120
100
AcDbEntity
  8
寸法
390
0
 62
               0
100
AcDbMText
 10
-21.140014386852389
 20
20.475059327129635
 30
0.0
 40
8.7312499999999993
 41
0.0
 71
               1
 72
               1
  1
120
  7
ＭＳ Ｐゴシック
 11
0.0
 21
1.0
 31
0.0
 73
               1
 44
0.8762322015334064
  0
POINT
  5
121
100
AcDbEntity
  8
Defpoints
370
               0
390
0
 62
               0
100
AcDbPoint
 10
41.111119999999573
 20
-29.999880000000303
 30
0.0
  0
POINT
  5
122
100
AcDbEntity
  8
Defpoints
370
               0
390
0
 62
               0
100
AcDbPoint
 10
89.39411999999993
 20
90.0
 30
0.0
  0
POINT
  5
123
100
AcDbEntity
  8
Defpoints
370
               0
390
0
 62
               0
100
AcDbPoint
 10
-10.5907643870014
 20
90.0
 30
0.0
  0
ENDBLK
  5
124
100
AcDbEntity
  8
寸法
390
0
100
AcDbBlockEnd
  0
BLOCK
  5
125
100
AcDbEntity
  8
寸法
390
0
100
AcDbBlockBegin
  2
*D18
 70
               1
 10
0.0
 20
0.0
 30
0.0
  3
*D18
  1

  0
LINE
  5
126
100
AcDbEntity
  8
寸法
370
              -2
390
0
  6
Continuous
 62
               0
100
AcDbLine
 10
44.546000000000276
 20
69.996599999999489
 30
0.0
 11
5.4092356129986001
 21
69.996599999999489
 31
0.0
  0
LINE
  5
127
100
AcDbEntity
  8
寸法
370
              -2
390
0
  6
Continuous
 62
               0
100
AcDbLine
 10
45.622400000000198
 20
-30.0
 30
0.0
 11
5.4092356129986001
 21
-30.0
 31
0.0
  0
LINE
  5
128
100
AcDbEntity
  8
寸法
370
              -2
390
0
  6
Continuous
 62
               0
100
AcDbLine
 10
9.4092356129986001
 20
69.996599999999489
 30
0.0
 11
9.4092356129986001
 21
-30.0
 31
0.0
  0
SOLID
  5
129
100
AcDbEntity
  8
寸法
370
              -2
390
0
 62
               0
100
AcDbTrace
 10
9.4092356129986001
 20
69.996599999999489
 30
0.0
 11
10.685156192367049
 21
63.993865624999486
 31
0.0
 12
8.133315033630149
 22
63.993865624999493
 32
0.0
 13
8.133315033630149
 23
63.993865624999493
 33
0.0
  0
SOLID
  5
12A
100
AcDbEntity
  8
寸法
370
              -2
390
0
 62
               0
100
AcDbTrace
 10
9.4092356129986001
 20
-30.0
 30
0.0
 11
8.1333150336301507
 21
-23.997265625000001
 31
0.0
 12
10.685156192367049
 22
-23.997265625000001
 32
0.0
 13
10.685156192367049
 23
-23.997265625000001
 33
0.0
  0
MTEXT
  5
12B
100
AcDbEntity
  8
寸法
390
0
 62
               0
100
AcDbMText
 10
-1.1400143868523891
 20
-3.3062018302072271
 30
0.0
 40
8.7312499999999993
 41
0.0
 71
               1
 72
               1
  1
MAX.100
  7
ＭＳ Ｐゴシック
 11
0.0
 21
1.0
 31
0.0
 73
               1
 44
0.8762322015334064
  0
POINT
  5
12C
100
AcDbEntity
  8
Defpoints
370
               0
390
0
 62
               0
100
AcDbPoint
 10
49.622400000000198
 20
-30.0
 30
0.0
  0
POINT
  5
12D
100
AcDbEntity
  8
Defpoints
370
               0
390
0
 62
               0
100
AcDbPoint
 10
48.546000000000276
 20
69.996599999999489
 30
0.0
  0
POINT
  5
12E
100
AcDbEntity
  8
Defpoints
370
               0
390
0
 62
               0
100
AcDbPoint
 10
9.4092356129986001
 20
69.996599999999489
 30
0.0
  0
ENDBLK
  5
12F
100
AcDbEntity
  8
寸法
390
0
100
AcDbBlockEnd
  0
BLOCK
  5
130
100
AcDbEntity
  8
寸法
390
0
100
AcDbBlockBegin
  2
*D19
 70
               1
 10
0.0
 20
0.0
 30
0.0
  3
*D19
  1

  0
LINE
  5
131
100
AcDbEntity
  8
寸法
370
              -2
390
0
  6
Continuous
 62
               0
100
AcDbLine
 10
-139.03920000000016
 20
-92.091480000000502
 30
0.0
 11
-116.73969036139117
 21
-117.35342795253848
 31
0.0
  0
SOLID
  5
132
100
AcDbEntity
  8
寸法
370
              -2
390
0
 62
               0
100
AcDbTrace
 10
-139.03920000000016
 20
-92.091480000000502
 30
0.0
 11
-134.13810242979696
 21
-95.784721923976079
 31
0.0
 12
-136.06400139950247
 22
-97.458880356715028
 32
0.0
 13
-136.06400139950247
 23
-97.458880356715028
 33
0.0
  0
LINE
  5
133
100
AcDbEntity
  8
寸法
370
              -2
390
0
  6
Continuous
 62
               0
100
AcDbLine
 10
-116.73969036139117
 20
-117.35342795253848
 30
0.0
 11
-42.889684978429472
 21
-117.35342795253848
 31
0.0
  0
MTEXT
  5
134
100
AcDbEntity
  8
寸法
390
0
 62
               0
100
AcDbMText
 10
-112.73969036139115
 20
-106.80417795268748
 30
0.0
 40
8.7312499999999993
 41
0.0
 71
               1
 72
               1
  1
4-φ7取付穴
  7
ＭＳ Ｐゴシック
 73
               1
 44
0.8762322015334064
  0
POINT
  5
135
100
AcDbEntity
  8
Defpoints
370
               0
390
0
 62
               0
100
AcDbPoint
 10
-140.28719999999976
 20
-90.677800000000389
 30
0.0
  0
POINT
  5
136
100
AcDbEntity
  8
Defpoints
370
               0
390
0
 62
               0
100
AcDbPoint
 10
-139.03920000000016
 20
-92.091480000000502
 30
0.0
  0
ENDBLK
  5
137
100
AcDbEntity
  8
寸法
390
0
100
AcDbBlockEnd
  0
BLOCK
  5
138
100
AcDbEntity
  8
寸法
390
0
100
AcDbBlockBegin
  2
*D20
 70
               1
 10
0.0
 20
0.0
 30
0.0
  3
*D20
  1

  0
LINE
  5
139
100
AcDbEntity
  8
寸法
370
              -2
390
0
  6
Continuous
 62
               0
100
AcDbLine
 10
97.964730677324042
 20
-46.250977953765414
 30
0.0
 11
75.878883033039273
 21
-97.681891833615879
 31
0.0
  0
SOLID
  5
13A
100
AcDbEntity
  8
寸法
370
              -2
390
0
 62
               0
100
AcDbTrace
 10
97.964730677324042
 20
-46.250977953765414
 30
0.0
 11
96.688810097955596
 21
-52.25371232876541
 31
0.0
 12
94.357587198766069
 22
-51.215785022198105
 32
0.0
 13
94.357587198766069
 23
-51.215785022198105
 33
0.0
  0
LINE
  5
13B
100
AcDbEntity
  8
寸法
370
              -2
390
0
  6
Continuous
 62
               0
100
AcDbLine
 10
75.878883033039273
 20
-97.681891833615879
 30
0.0
 11
21.078883033039276
 21
-97.681891833615879
 31
0.0
  0
MTEXT
  5
13C
100
AcDbEntity
  8
寸法
390
0
 62
               0
100
AcDbMText
 10
21.078883033039276
 20
-87.132641833764879
 30
0.0
 40
8.7312499999999993
 41
0.0
 71
               1
 72
               1
  1
歯数30枚
  7
ＭＳ Ｐゴシック
 73
               1
 44
0.8762322015334064
  0
POINT
  5
13D
100
AcDbEntity
  8
Defpoints
370
               0
390
0
 62
               0
100
AcDbPoint
 10
98.708789322676239
 20
-44.518302046235476
 30
0.0
  0
POINT
  5
13E
100
AcDbEntity
  8
Defpoints
370
               0
390
0
 62
               0
100
AcDbPoint
 10
97.964730677324042
 20
-46.250977953765414
 30
0.0
  0
ENDBLK
  5
13F
100
AcDbEntity
  8
寸法
390
0
100
AcDbBlockEnd
  0
BLOCK
  5
140
100
AcDbEntity
  8
寸法
390
0
100
AcDbBlockBegin
  2
*D21
 70
               1
 10
0.0
 20
0.0
 30
0.0
  3
*D21
  1

  0
LINE
  5
141
100
AcDbEntity
  8
寸法
370
              -2
390
0
  6
Continuous
 62
               0
100
AcDbLine
 10
78.799687929980792
 20
65.897687842264531
 30
0.0
 11
77.922920000000332
 21
27.840757321018096
 31
0.0
  0
SOLID
  5
142
100
AcDbEntity
  8
寸法
370
              -2
390
0
 62
               0
100
AcDbTrace
 10
78.799687929980792
 20
65.897687842264531
 30
0.0
 11
79.865338844480206
 21
59.854081184805004
 31
0.0
 12
77.315052198428774
 22
59.943139156909652
 32
0.0
 13
77.315052198428774
 23
59.943139156909652
 33
0.0
  0
LINE
  5
143
100
AcDbEntity
  8
寸法
370
              -2
390
0
  6
Continuous
 62
               0
100
AcDbLine
 10
77.922920000000332
 20
27.840757321018096
 30
0.0
 11
45.982918385111823
 21
27.840757321018096
 31
0.0
  0
MTEXT
  5
144
100
AcDbEntity
  8
寸法
390
0
 62
               0
100
AcDbMText
 10
45.98291838511183
 20
38.390007320869088
 30
0.0
 40
8.7312499999999993
 41
0.0
 71
               1
 72
               1
  1
φ8.2
  7
ＭＳ Ｐゴシック
 73
               1
 44
0.8762322015334064
  0
POINT
  5
145
100
AcDbEntity
  8
Defpoints
370
               0
390
0
 62
               0
100
AcDbPoint
 10
78.988552070020887
 20
74.095512157758094
 30
0.0
  0
POINT
  5
146
100
AcDbEntity
  8
Defpoints
370
               0
390
0
 62
               0
100
AcDbPoint
 10
78.799687929980792
 20
65.897687842264531
 30
0.0
  0
ENDBLK
  5
147
100
AcDbEntity
  8
寸法
390
0
100
AcDbBlockEnd
  0
BLOCK
  5
148
100
AcDbEntity
  8
寸法
390
0
100
AcDbBlockBegin
  2
*D22
 70
               1
 10
0.0
 20
0.0
 30
0.0
  3
*D22
  1

  0
LINE
  5
149
100
AcDbEntity
  8
寸法
370
              -2
390
0
  6
Continuous
 62
               0
100
AcDbLine
 10
176.89152000000013
 20
34.931799999999839
 30
0.0
 11
193.39415755076354
 21
83.035199330909208
 31
0.0
  0
SOLID
  5
14A
100
AcDbEntity
  8
寸法
370
              -2
390
0
 62
               0
100
AcDbTrace
 10
176.89152000000013
 20
34.931799999999839
 30
0.0
 11
177.63941254338309
 21
41.022895964209788
 31
0.0
 12
180.05222576094772
 22
40.192097747692003
 32
0.0
 13
180.05222576094772
 23
40.192097747692003
 33
0.0
  0
LINE
  5
14B
100
AcDbEntity
  8
寸法
370
              -2
390
0
  6
Continuous
 62
               0
100
AcDbLine
 10
193.39415755076354
 20
83.035199330909208
 30
0.0
 11
302.55016357968066
 21
83.035199330909208
 31
0.0
  0
MTEXT
  5
14C
100
AcDbEntity
  8
寸法
390
0
 62
               0
100
AcDbMText
 10
197.39415755076354
 20
93.584449330760208
 30
0.0
 40
8.7312499999999993
 41
0.0
 71
               1
 72
               1
  1
2-φ21電線口×2ヶ
  7
ＭＳ Ｐゴシック
 73
               1
 44
0.8762322015334064
  0
POINT
  5
14D
100
AcDbEntity
  8
Defpoints
370
               0
390
0
 62
               0
100
AcDbPoint
 10
170.07692000000043
 20
15.068199999999706
 30
0.0
  0
POINT
  5
14E
100
AcDbEntity
  8
Defpoints
370
               0
390
0
 62
               0
100
AcDbPoint
 10
176.89152000000013
 20
34.931799999999839
 30
0.0
  0
ENDBLK
  5
14F
100
AcDbEntity
  8
寸法
390
0
100
AcDbBlockEnd
  0
BLOCK
  5
150
100
AcDbEntity
  8
寸法
390
0
100
AcDbBlockBegin
  2
グループ
 70
               0
 10
0.0
 20
0.0
 30
0.0
  3
グループ
  1

  0
LINE
  5
151
100
AcDbEntity
  8
一般
370
               5
390
0
  6
Continuous
 62
               7
100
AcDbLine
 10
158.48420000000078
 20
25.0
 30
0.0
 11
188.48420000000078
 21
25.0
 31
0.0
  0
LINE
  5
152
100
AcDbEntity
  8
一般
370
               5
390
0
  6
Continuous
 62
               7
100
AcDbLine
 10
173.48420000000078
 20
10.0
 30
0.0
 11
173.48420000000078
 21
40.0
 31
0.0
  0
ENDBLK
  5
153
100
AcDbEntity
  8
寸法
390
0
100
AcDbBlockEnd
  0
ENDSEC
  0
SECTION
  2
ENTITIES
  0
LINE
  5
154
100
AcDbEntity
  8
001
370
               5
390
0
 62
               7
100
AcDbLine
 10
-193.94880000000012
 20
-15.0
 30
0.0
 11
-193.94880000000012
 21
-10.0
 31
0.0
  0
LINE
  5
155
100
AcDbEntity
  8
001
370
               5
390
0
  6
STYLE_13
 62
               7
100
AcDbLine
 10
-232.94880000000012
 20
-92.401400000000194
 30
0.0
 11
-232.94880000000012
 21
-75.484879999999976
 31
0.0
  0
LINE
  5
156
100
AcDbEntity
  8
001
370
               5
390
0
  6
STYLE_13
 62
               7
100
AcDbLine
 10
-154.94880000000012
 20
-92.220000000000255
 30
0.0
 11
-154.94880000000012
 21
-78.495480000000043
 31
0.0
  0
LINE
  5
157
100
AcDbEntity
  8
001
370
               5
390
0
  6
STYLE_13
 62
               7
100
AcDbLine
 10
207.61131999999998
 20
15.0
 30
0.0
 11
227.32000000000062
 21
15.0
 31
0.0
  0
LINE
  5
158
100
AcDbEntity
  8
001
370
               5
390
0
 62
               7
100
AcDbLine
 10
-160.94880000000012
 20
-85.0
 30
0.0
 11
-160.94880000000012
 21
-74.0
 31
0.0
  0
LINE
  5
159
100
AcDbEntity
  8
001
370
               5
390
0
 62
               7
100
AcDbLine
 10
-148.94880000000012
 20
-84.999880000000303
 30
0.0
 11
-148.94880000000012
 21
-61.622600000000148
 31
0.0
  0
LINE
  5
15A
100
AcDbEntity
  8
001
370
               5
390
0
 62
               7
100
AcDbLine
 10
-238.94880000000012
 20
-84.999880000000303
 30
0.0
 11
-238.94880000000012
 21
-61.622600000000148
 31
0.0
  0
LINE
  5
15B
100
AcDbEntity
  8
001
370
               5
390
0
 62
               7
100
AcDbLine
 10
-226.94880000000012
 20
-85.0
 30
0.0
 11
-226.94880000000012
 21
-74.0
 31
0.0
  0
ARC
  5
15C
100
AcDbEntity
  8
001
370
               5
390
0
 62
               7
100
AcDbCircle
 10
-193.94880000000012
 20
-30.0
 30
0.0
 40
55.0
100
AcDbArc
 50
233.13010235415598
 51
306.86989764584405
  0
LINE
  5
15D
100
AcDbEntity
  8
001
370
               5
390
0
 62
               7
100
AcDbLine
 10
-248.94880000000012
 20
8.0
 30
0.0
 11
-248.94880000000012
 21
52.0
 31
0.0
  0
ARC
  5
15E
100
AcDbEntity
  8
001
370
               5
390
0
 62
               7
100
AcDbCircle
 10
-243.94880000000012
 20
8.0
 30
0.0
 40
5.0
100
AcDbArc
 50
180.0
 51
260.40656018952672
  0
ARC
  5
15F
100
AcDbEntity
  8
001
370
               5
390
0
 62
               7
100
AcDbCircle
 10
-244.94880000000012
 20
2.0839999999998327
 30
0.0
 40
1.0
100
AcDbArc
 50
0.0
 51
80.402791746447576
  0
LINE
  5
160
100
AcDbEntity
  8
001
370
               5
390
0
 62
               7
100
AcDbLine
 10
-243.94880000000012
 20
-9.1192800000003444
 30
0.0
 11
-243.94880000000012
 21
2.0839999999998327
 31
0.0
  0
LINE
  5
161
100
AcDbEntity
  8
001
370
               5
390
0
 62
               7
100
AcDbLine
 10
-138.94880000000012
 20
8.0
 30
0.0
 11
-138.94880000000012
 21
52.0
 31
0.0
  0
ARC
  5
162
100
AcDbEntity
  8
001
370
               5
390
0
 62
               7
100
AcDbCircle
 10
-143.94880000000012
 20
8.0
 30
0.0
 40
4.9999911046323318
100
AcDbArc
 50
279.59253589680014
 51
0.0
  0
ARC
  5
163
100
AcDbEntity
  8
001
370
               5
390
0
 62
               7
100
AcDbCircle
 10
-142.94880000000012
 20
2.0839999999998327
 30
0.0
 40
1.000127439079511
100
AcDbArc
 50
99.60058104671937
 51
180.0
  0
ARC
  5
164
100
AcDbEntity
  8
001
370
               5
390
0
 62
               7
100
AcDbCircle
 10
-193.94880000000012
 20
-30.0
 30
0.0
 40
55.000050627249429
100
AcDbArc
 50
155.37990758248591
 51
215.0966811090878
  0
ARC
  5
165
100
AcDbEntity
  8
001
370
               5
390
0
 62
               7
100
AcDbCircle
 10
-193.94880000000012
 20
-30.0
 30
0.0
 40
55.000013453089316
100
AcDbArc
 50
324.90317882924182
 51
24.620109777072628
  0
LINE
  5
166
100
AcDbEntity
  8
001
370
               5
390
0
 62
               7
100
AcDbLine
 10
-143.94880000000012
 20
-9.1192800000003444
 30
0.0
 11
-143.94880000000012
 21
2.0839999999998327
 31
0.0
  0
LINE
  5
167
100
AcDbEntity
  8
001
370
               5
390
0
  6
STYLE_13
 62
               7
100
AcDbLine
 10
209.83272000000034
 20
-76.0
 30
0.0
 11
281.5025999999998
 21
-76.0
 31
0.0
  0
LINE
  5
168
100
AcDbEntity
  8
001
370
               5
390
0
 62
               7
100
AcDbLine
 10
138.48420000000078
 20
42.0
 30
0.0
 11
208.48420000000078
 21
42.0
 31
0.0
  0
ARC
  5
169
100
AcDbEntity
  8
001
370
               5
390
0
 62
               7
100
AcDbCircle
 10
209.48420000000078
 20
41.0
 30
0.0
 40
1.0
100
AcDbArc
 50
180.0
 51
270.0
  0
LINE
  5
16A
100
AcDbEntity
  8
001
370
               5
390
0
 62
               7
100
AcDbLine
 10
209.48420000000078
 20
40.0
 30
0.0
 11
213.48420000000078
 21
40.0
 31
0.0
  0
CIRCLE
  5
16B
100
AcDbEntity
  8
001
370
               5
390
0
 62
               7
100
AcDbCircle
 10
173.48420000000078
 20
25.0
 30
0.0
 40
10.5
  0
ARC
  5
16C
100
AcDbEntity
  8
001
370
               5
390
0
 62
               7
100
AcDbCircle
 10
136.48420000000078
 20
26.125319999999647
 30
0.0
 40
2.0001299557778607
100
AcDbArc
 50
270.65314359321547
 51
0.0
  0
LINE
  5
16D
100
AcDbEntity
  8
001
370
               5
390
0
 62
               7
100
AcDbLine
 10
136.50699999999961
 20
24.125319999999647
 30
0.0
 11
133.39320000000043
 21
24.089919999999893
 31
0.0
  0
ARC
  5
16E
100
AcDbEntity
  8
001
370
               5
390
0
 62
               7
100
AcDbCircle
 10
133.48420000000078
 20
16.09039999999959
 30
0.0
 40
8.0000375768120549
100
AcDbArc
 50
90.651750486142035
 51
180.0
  0
LINE
  5
16F
100
AcDbEntity
  8
001
370
               5
390
0
 62
               7
100
AcDbLine
 10
125.48420000000078
 20
16.09039999999959
 30
0.0
 11
125.48420000000078
 21
-76.090280000000348
 31
0.0
  0
LINE
  5
170
100
AcDbEntity
  8
001
370
               5
390
0
 62
               7
100
AcDbLine
 10
123.48420000000078
 20
-9.0
 30
0.0
 11
125.48420000000078
 21
-8.0
 31
0.0
  0
ARC
  5
171
100
AcDbEntity
  8
001
370
               5
390
0
 62
               7
100
AcDbCircle
 10
143.48420000000078
 20
8.0
 30
0.0
 40
5.0
100
AcDbArc
 50
180.0
 51
270.0
  0
LINE
  5
172
100
AcDbEntity
  8
001
370
               5
390
0
 62
               7
100
AcDbLine
 10
203.48420000000078
 20
3.0
 30
0.0
 11
143.48420000000078
 21
3.0
 31
0.0
  0
ARC
  5
173
100
AcDbEntity
  8
001
370
               5
390
0
 62
               7
100
AcDbCircle
 10
203.48420000000078
 20
8.0
 30
0.0
 40
5.0
100
AcDbArc
 50
270.0
 51
0.0
  0
LINE
  5
174
100
AcDbEntity
  8
001
370
               5
390
0
 62
               7
100
AcDbLine
 10
213.48420000000078
 20
40.0
 30
0.0
 11
213.48420000000078
 21
-85.0
 31
0.0
  0
LINE
  5
175
100
AcDbEntity
  8
001
370
               5
390
0
 62
               7
100
AcDbLine
 10
217.48420000000078
 20
40.0
 30
0.0
 11
213.48420000000078
 21
40.0
 31
0.0
  0
ARC
  5
176
100
AcDbEntity
  8
001
370
               5
390
0
 62
               7
100
AcDbCircle
 10
217.48420000000078
 20
39.0
 30
0.0
 40
1.0
100
AcDbArc
 50
0.0
 51
90.0
  0
LINE
  5
177
100
AcDbEntity
  8
001
370
               5
390
0
 62
               7
100
AcDbLine
 10
251.32032000000072
 20
34.548800000000028
 30
0.0
 11
218.48420000000078
 21
38.0
 31
0.0
  0
ARC
  5
178
100
AcDbEntity
  8
001
370
               5
390
0
 62
               7
100
AcDbCircle
 10
250.48400000000038
 20
26.592719999999645
 30
0.0
 40
8.0
100
AcDbArc
 50
0.0
 51
83.999331263099748
  0
ARC
  5
179
100
AcDbEntity
  8
001
370
               5
390
0
 62
               7
100
AcDbCircle
 10
260.48400000000038
 20
17.625319999999647
 30
0.0
 40
2.0
100
AcDbArc
 50
180.0
 51
260.00396879536703
  0
LINE
  5
17A
100
AcDbEntity
  8
001
370
               5
390
0
 62
               7
100
AcDbLine
 10
271.8733200000006
 20
13.586119999999937
 30
0.0
 11
260.13680000000022
 21
15.655519999999797
 31
0.0
  0
ARC
  5
17B
100
AcDbEntity
  8
001
370
               5
390
0
 62
               7
100
AcDbCircle
 10
270.48400000000038
 20
5.7075999999997293
 30
0.0
 40
8.0
100
AcDbArc
 50
0.0
 51
79.999023403983315
  0
LINE
  5
17C
100
AcDbEntity
  8
001
370
               5
390
0
 62
               7
100
AcDbLine
 10
278.48400000000038
 20
5.7075999999997293
 30
0.0
 11
278.48400000000038
 21
-65.707480000000032
 31
0.0
  0
LINE
  5
17D
100
AcDbEntity
  8
001
370
               5
390
0
 62
               7
100
AcDbLine
 10
275.48400000000038
 20
-79.508680000000368
 30
0.0
 11
275.48400000000038
 21
-71.952479999999923
 31
0.0
  0
LINE
  5
17E
100
AcDbEntity
  8
001
370
               5
390
0
 62
               7
100
AcDbLine
 10
274.99272000000019
 20
-80.008480000000418
 30
0.0
 11
231.07971999999972
 21
-80.779000000000451
 31
0.0
  0
ARC
  5
17F
100
AcDbEntity
  8
001
370
               5
390
0
 62
               7
100
AcDbCircle
 10
274.98400000000038
 20
-79.508680000000368
 30
0.0
 40
0.4998795919019277
100
AcDbArc
 50
271.02245718413428
 51
0.0
  0
ARC
  5
180
100
AcDbEntity
  8
001
370
               5
390
0
 62
               7
100
AcDbCircle
 10
217.48420000000078
 20
-84.0
 30
0.0
 40
1.0
100
AcDbArc
 50
270.0
 51
0.0
  0
LINE
  5
181
100
AcDbEntity
  8
001
370
               5
390
0
 62
               7
100
AcDbLine
 10
217.48420000000078
 20
-85.0
 30
0.0
 11
143.48420000000078
 21
-85.0
 31
0.0
  0
LINE
  5
182
100
AcDbEntity
  8
001
370
               5
390
0
 62
               7
100
AcDbLine
 10
143.48420000000078
 20
-64.622600000000148
 30
0.0
 11
143.48420000000078
 21
-84.999880000000303
 31
0.0
  0
ARC
  5
183
100
AcDbEntity
  8
001
370
               5
390
0
 62
               7
100
AcDbCircle
 10
146.48420000000078
 20
-64.622600000000148
 30
0.0
 40
3.0
100
AcDbArc
 50
90.0
 51
180.0
  0
LINE
  5
184
100
AcDbEntity
  8
001
370
               5
390
0
 62
               7
100
AcDbLine
 10
146.48420000000078
 20
-61.622600000000148
 30
0.0
 11
213.48420000000078
 21
-61.622600000000148
 31
0.0
  0
LINE
  5
185
100
AcDbEntity
  8
001
370
               5
390
0
 62
               7
100
AcDbLine
 10
133.39320000000043
 20
-84.089800000000196
 30
0.0
 11
143.48420000000078
 21
-84.204480000000331
 31
0.0
  0
ARC
  5
186
100
AcDbEntity
  8
001
370
               5
390
0
 62
               7
100
AcDbCircle
 10
133.48420000000078
 20
-76.090280000000348
 30
0.0
 40
8.0
100
AcDbArc
 50
180.0
 51
269.34910563666631
  0
LINE
  5
187
100
AcDbEntity
  8
001
370
               5
390
0
  6
STYLE_13
 62
               7
100
AcDbLine
 10
-228.81819999999971
 20
-50.131800000000112
 30
0.0
 11
-238.42100000000028
 21
-55.675880000000234
 31
0.0
  0
LINE
  5
188
100
AcDbEntity
  8
001
370
               5
390
0
  6
STYLE_13
 62
               7
100
AcDbLine
 10
-160.0
 20
-49.600400000000263
 30
0.0
 11
-147.18347999999969
 21
-57.0
 31
0.0
  0
LINE
  5
189
100
AcDbEntity
  8
001
370
               5
390
0
 62
               7
100
AcDbLine
 10
123.48420000000078
 20
-9.0
 30
0.0
 11
123.48420000000078
 21
-51.0
 31
0.0
  0
LINE
  5
18A
100
AcDbEntity
  8
001
370
               5
390
0
 62
               7
100
AcDbLine
 10
123.48420000000078
 20
-51.0
 30
0.0
 11
125.48420000000078
 21
-52.0
 31
0.0
  0
LINE
  5
18B
100
AcDbEntity
  8
001
370
               5
390
0
  6
STYLE_13
 62
               7
100
AcDbLine
 10
-243.94880000000012
 20
63.249519999999848
 30
0.0
 11
-243.94880000000012
 21
38.918519999999717
 31
0.0
  0
LINE
  5
18C
100
AcDbEntity
  8
001
370
               5
390
0
  6
STYLE_13
 62
               7
100
AcDbLine
 10
203.48420000000078
 20
63.366519999999582
 30
0.0
 11
203.48420000000078
 21
39.03919999999971
 31
0.0
  0
LINE
  5
18D
100
AcDbEntity
  8
001
370
               5
390
0
 62
               7
100
AcDbLine
 10
123.23420000000078
 20
-22.5
 30
0.0
 11
123.48420000000078
 21
-22.5
 31
0.0
  0
LINE
  5
18E
100
AcDbEntity
  8
001
370
               5
390
0
 62
               7
100
AcDbLine
 10
123.23420000000078
 20
-37.5
 30
0.0
 11
123.48420000000078
 21
-37.5
 31
0.0
  0
LINE
  5
18F
100
AcDbEntity
  8
001
370
               5
390
0
 62
               7
100
AcDbLine
 10
123.23420000000078
 20
-22.5
 30
0.0
 11
123.23420000000078
 21
-37.5
 31
0.0
  0
LINE
  5
190
100
AcDbEntity
  8
001
370
               5
390
0
 62
               7
100
AcDbLine
 10
122.23420000000078
 20
-23.0
 30
0.0
 11
123.23420000000078
 21
-22.5
 31
0.0
  0
LINE
  5
191
100
AcDbEntity
  8
001
370
               5
390
0
 62
               7
100
AcDbLine
 10
122.23420000000078
 20
-37.0
 30
0.0
 11
123.23420000000078
 21
-37.5
 31
0.0
  0
LINE
  5
192
100
AcDbEntity
  8
001
370
               5
390
0
 62
               7
100
AcDbLine
 10
-258.94880000000012
 20
-89.700000000000273
 30
0.0
 11
-258.94880000000012
 21
-92.0
 31
0.0
  0
LINE
  5
193
100
AcDbEntity
  8
001
370
               5
390
0
 62
               7
100
AcDbLine
 10
-128.94880000000012
 20
-90.100000000000364
 30
0.0
 11
-128.94880000000012
 21
-92.0
 31
0.0
  0
LINE
  5
194
100
AcDbEntity
  8
001
370
               5
390
0
 62
               7
100
AcDbLine
 10
144.48420000000078
 20
-92.0
 30
0.0
 11
210.48420000000078
 21
-92.0
 31
0.0
  0
LINE
  5
195
100
AcDbEntity
  8
001
370
               5
390
0
 62
               7
100
AcDbLine
 10
210.48420000000078
 20
-85.0
 30
0.0
 11
210.48420000000078
 21
-92.0
 31
0.0
  0
LINE
  5
196
100
AcDbEntity
  8
001
370
               5
390
0
 62
               7
100
AcDbLine
 10
144.48420000000078
 20
-92.0
 30
0.0
 11
144.48420000000078
 21
-85.0
 31
0.0
  0
LINE
  5
197
100
AcDbEntity
  8
001
370
               5
390
0
 62
               7
100
AcDbLine
 10
-181.72547999999915
 20
42.0
 30
0.0
 11
-138.94880000000012
 21
42.0
 31
0.0
  0
LINE
  5
198
100
AcDbEntity
  8
001
370
               5
390
0
 62
               7
100
AcDbLine
 10
-248.94880000000012
 20
42.0
 30
0.0
 11
-206.17219999999998
 21
42.0
 31
0.0
  0
LINE
  5
199
100
AcDbEntity
  8
001
370
               5
390
0
 62
               7
100
AcDbLine
 10
-197.94880000000012
 20
42.0
 30
0.0
 11
-189.94880000000012
 21
42.0
 31
0.0
  0
LINE
  5
19A
100
AcDbEntity
  8
001
370
               5
390
0
 62
               7
100
AcDbLine
 10
84.794120000000476
 20
-17.5
 30
0.0
 11
84.794120000000476
 21
-42.5
 31
0.0
  0
LINE
  5
19B
100
AcDbEntity
  8
001
370
               5
390
0
 62
               7
100
AcDbLine
 10
81.284920000000056
 20
-35.75
 30
0.0
 11
84.794120000000476
 21
-35.75
 31
0.0
  0
LINE
  5
19C
100
AcDbEntity
  8
001
370
               5
390
0
 62
               7
100
AcDbLine
 10
80.794120000000476
 20
-34.900000000000091
 30
0.0
 11
81.284920000000056
 21
-35.75
 31
0.0
  0
LINE
  5
19D
100
AcDbEntity
  8
001
370
               5
390
0
 62
               7
100
AcDbLine
 10
80.794120000000476
 20
-25.100000000000364
 30
0.0
 11
80.794120000000476
 21
-34.900000000000091
 31
0.0
  0
LINE
  5
19E
100
AcDbEntity
  8
001
370
               5
390
0
 62
               7
100
AcDbLine
 10
81.284920000000056
 20
-24.25
 30
0.0
 11
84.794120000000476
 21
-24.25
 31
0.0
  0
LINE
  5
19F
100
AcDbEntity
  8
001
370
               5
390
0
 62
               7
100
AcDbLine
 10
84.794120000000476
 20
-17.5
 30
0.0
 11
87.39411999999993
 21
-17.5
 31
0.0
  0
LINE
  5
1A0
100
AcDbEntity
  8
001
370
               5
390
0
 62
               7
100
AcDbLine
 10
84.794120000000476
 20
-42.5
 30
0.0
 11
87.39411999999993
 21
-42.5
 31
0.0
  0
LINE
  5
1A1
100
AcDbEntity
  8
001
370
               5
390
0
 62
               7
100
AcDbLine
 10
87.39411999999993
 20
-56.0
 30
0.0
 11
89.994120000000294
 21
-56.0
 31
0.0
  0
ARC
  5
1A2
100
AcDbEntity
  8
001
370
               5
390
0
 62
               7
100
AcDbCircle
 10
102.23420000000078
 20
-44.25
 30
0.0
 40
1.0
100
AcDbArc
 50
270.0
 51
0.0
  0
ARC
  5
1A3
100
AcDbEntity
  8
001
370
               5
390
0
 62
               7
100
AcDbCircle
 10
104.23420000000078
 20
-43.942880000000514
 30
0.0
 40
1.0001229436428902
100
AcDbArc
 50
93.363634810726651
 51
180.00229155616529
  0
LINE
  5
1A4
100
AcDbEntity
  8
001
370
               5
390
0
 62
               7
100
AcDbLine
 10
119.29291999999987
 20
-42.055400000000191
 30
0.0
 11
104.17551999999978
 21
-42.944480000000112
 31
0.0
  0
ARC
  5
1A5
100
AcDbEntity
  8
001
370
               5
390
0
 62
               7
100
AcDbCircle
 10
119.23420000000078
 20
-41.057000000000244
 30
0.0
 40
1.000125291350932
100
AcDbArc
 50
273.36592240697297
 51
0.0
  0
LINE
  5
1A6
100
AcDbEntity
  8
001
370
               5
390
0
 62
               7
100
AcDbLine
 10
120.23420000000078
 20
-16.5
 30
0.0
 11
120.23420000000078
 21
-41.057000000000244
 31
0.0
  0
ARC
  5
1A7
100
AcDbEntity
  8
001
370
               5
390
0
 62
               7
100
AcDbCircle
 10
119.73420000000078
 20
-16.5
 30
0.0
 40
0.5
100
AcDbArc
 50
0.0
 51
90.0
  0
LINE
  5
1A8
100
AcDbEntity
  8
001
370
               5
390
0
 62
               7
100
AcDbLine
 10
119.73420000000078
 20
-16.0
 30
0.0
 11
103.20252000000073
 21
-16.0
 31
0.0
  0
ARC
  5
1A9
100
AcDbEntity
  8
001
370
               5
390
0
 62
               7
100
AcDbCircle
 10
102.23420000000078
 20
-15.75
 30
0.0
 40
1.0
100
AcDbArc
 50
0.0
 51
90.0
  0
LINE
  5
1AA
100
AcDbEntity
  8
001
370
               5
390
0
 62
               7
100
AcDbLine
 10
102.23420000000078
 20
-14.75
 30
0.0
 11
89.994120000000294
 21
-14.75
 31
0.0
  0
LINE
  5
1AB
100
AcDbEntity
  8
001
370
               5
390
0
 62
               7
100
AcDbLine
 10
84.794120000000476
 20
-32.875
 30
0.0
 11
81.284920000000056
 21
-32.875
 31
0.0
  0
LINE
  5
1AC
100
AcDbEntity
  8
001
370
               5
390
0
 62
               7
100
AcDbLine
 10
81.284920000000056
 20
-27.125
 30
0.0
 11
84.794120000000476
 21
-27.125
 31
0.0
  0
ARC
  5
1AD
100
AcDbEntity
  8
001
370
               5
390
0
 62
               7
100
AcDbCircle
 10
83.144800000000032
 20
-25.687480000000505
 30
0.0
 40
2.3506387142224479
100
AcDbArc
 50
142.29997336665912
 51
217.70079805397873
  0
ARC
  5
1AE
100
AcDbEntity
  8
001
370
               5
390
0
 62
               7
100
AcDbCircle
 10
89.46100000000024
 20
-30.0
 30
0.0
 40
8.6668280914301636
100
AcDbArc
 50
160.62651541363886
 51
199.37348458636114
  0
ARC
  5
1AF
100
AcDbEntity
  8
001
370
               5
390
0
 62
               7
100
AcDbCircle
 10
83.144800000000032
 20
-34.312480000000505
 30
0.0
 40
2.3506387142224479
100
AcDbArc
 50
142.29997336665912
 51
217.70079805397873
  0
LINE
  5
1B0
100
AcDbEntity
  8
001
370
               5
390
0
 62
               7
100
AcDbLine
 10
102.23420000000078
 20
-45.25
 30
0.0
 11
89.994120000000294
 21
-45.25
 31
0.0
  0
LINE
  5
1B1
100
AcDbEntity
  8
001
370
               5
390
0
 62
               7
100
AcDbLine
 10
103.23420000000078
 20
-15.75
 30
0.0
 11
103.23420000000078
 21
-44.25
 31
0.0
  0
LINE
  5
1B2
100
AcDbEntity
  8
001
370
               5
390
0
  6
STYLE_13
 62
               7
100
AcDbLine
 10
111.23420000000078
 20
-11.978680000000168
 30
0.0
 11
111.23420000000078
 21
-24.118080000000191
 31
0.0
  0
LINE
  5
1B3
100
AcDbEntity
  8
001
370
               5
390
0
 62
               7
100
AcDbLine
 10
80.794120000000476
 20
-25.100000000000364
 30
0.0
 11
81.284920000000056
 21
-24.25
 31
0.0
  0
LINE
  5
1B4
100
AcDbEntity
  8
001
370
               5
390
0
 62
               7
100
AcDbLine
 10
-179.48539999999957
 20
-25.165800000000218
 30
0.0
 11
-182.95479999999952
 21
78.866799999999785
 31
0.0
  0
LINE
  5
1B5
100
AcDbEntity
  8
001
370
               5
390
0
 62
               7
100
AcDbLine
 10
-179.48520000000008
 20
-25.166000000000167
 30
0.0
 11
-178.95728000000054
 21
-41.0
 31
0.0
  0
ARC
  5
1B6
100
AcDbEntity
  8
001
370
               5
390
0
 62
               7
100
AcDbCircle
 10
-193.94880000000012
 20
-30.0
 30
0.0
 40
15.250011952467705
100
AcDbArc
 50
345.33966101979263
 51
18.480571769377381
  0
ARC
  5
1B7
100
AcDbEntity
  8
001
370
               5
390
0
 62
               7
100
AcDbCircle
 10
-193.94880000000012
 20
-41.5
 30
0.0
 40
15.000135574053774
100
AcDbArc
 50
178.08980409955643
 51
1.9101959004435685
  0
LINE
  5
1B8
100
AcDbEntity
  8
001
370
               5
390
0
 62
               7
100
AcDbLine
 10
-204.94268000000011
 20
78.866799999999785
 30
0.0
 11
-208.9405999999999
 21
-40.999880000000303
 31
0.0
  0
ARC
  5
1B9
100
AcDbEntity
  8
001
370
               5
390
0
 62
               7
100
AcDbCircle
 10
-193.94880000000012
 20
-30.0
 30
0.0
 40
15.25010147974084
100
AcDbArc
 50
161.51952350496356
 51
194.66026291039526
  0
ARC
  5
1BA
100
AcDbEntity
  8
001
370
               5
390
0
 62
               7
100
AcDbCircle
 10
-193.94880000000012
 20
-30.0
 30
0.0
 40
12.500000679935644
100
AcDbArc
 50
108.66292383228046
 51
71.336902462218106
  0
ARC
  5
1BB
100
AcDbEntity
  8
001
370
               5
390
0
 62
               7
100
AcDbCircle
 10
-193.94880000000012
 20
-30.0
 30
0.0
 40
12.500000679935644
100
AcDbArc
 50
71.337076167719559
 51
108.66292383228046
  0
LINE
  5
1BC
100
AcDbEntity
  8
001
370
               5
390
0
 62
               7
100
AcDbLine
 10
-193.94880000000012
 20
-35.773480000000291
 30
0.0
 11
-198.94880000000012
 21
-32.886680000000069
 31
0.0
  0
LINE
  5
1BD
100
AcDbEntity
  8
001
370
               5
390
0
 62
               7
100
AcDbLine
 10
-198.94880000000012
 20
-32.886800000000221
 30
0.0
 11
-198.94880000000012
 21
-27.113200000000234
 31
0.0
  0
LINE
  5
1BE
100
AcDbEntity
  8
001
370
               5
390
0
 62
               7
100
AcDbLine
 10
-198.94880000000012
 20
-27.113200000000234
 30
0.0
 11
-193.94880000000012
 21
-24.226400000000012
 31
0.0
  0
LINE
  5
1BF
100
AcDbEntity
  8
001
370
               5
390
0
 62
               7
100
AcDbLine
 10
-193.94880000000012
 20
-24.226400000000012
 30
0.0
 11
-188.94880000000012
 21
-27.113200000000234
 31
0.0
  0
LINE
  5
1C0
100
AcDbEntity
  8
001
370
               5
390
0
 62
               7
100
AcDbLine
 10
-188.94880000000012
 20
-27.113200000000234
 30
0.0
 11
-188.94880000000012
 21
-32.886800000000221
 31
0.0
  0
LINE
  5
1C1
100
AcDbEntity
  8
001
370
               5
390
0
 62
               7
100
AcDbLine
 10
-188.94880000000012
 20
-32.886680000000069
 30
0.0
 11
-193.94880000000012
 21
-35.773480000000291
 31
0.0
  0
ARC
  5
1C2
100
AcDbEntity
  8
001
370
               5
390
0
 62
               7
100
AcDbCircle
 10
-193.94880000000012
 20
-4.5
 30
0.0
 40
4.0
100
AcDbArc
 50
180.0
 51
0.0
  0
ARC
  5
1C3
100
AcDbEntity
  8
001
370
               5
390
0
 62
               7
100
AcDbCircle
 10
-193.94880000000012
 20
74.5
 30
0.0
 40
4.0
100
AcDbArc
 50
0.0
 51
180.0
  0
ARC
  5
1C4
100
AcDbEntity
  8
001
370
               5
390
0
 62
               7
100
AcDbCircle
 10
-193.94880000000012
 20
78.5
 30
0.0
 40
11.000110524899874
100
AcDbArc
 50
1.9098465348094815
 51
178.09015346519033
  0
CIRCLE
  5
1C5
100
AcDbEntity
  8
001
370
               5
390
0
 62
               7
100
AcDbCircle
 10
-193.94880000000012
 20
-30.0
 30
0.0
 40
4.9000000000005457
  0
LINE
  5
1C6
100
AcDbEntity
  8
001
370
               5
390
0
 62
               7
100
AcDbLine
 10
-247.94880000000012
 20
56.000119999999697
 30
0.0
 11
-247.94880000000012
 21
54.236119999999573
 31
0.0
  0
LINE
  5
1C7
100
AcDbEntity
  8
001
370
               5
390
0
 62
               7
100
AcDbLine
 10
-239.94880000000012
 20
56.0
 30
0.0
 11
-239.94880000000012
 21
55.0
 31
0.0
  0
LINE
  5
1C8
100
AcDbEntity
  8
001
370
               5
390
0
 62
               7
100
AcDbLine
 10
199.48420000000078
 20
56.0
 30
0.0
 11
199.48420000000078
 21
55.0
 31
0.0
  0
LINE
  5
1C9
100
AcDbEntity
  8
001
370
               5
390
0
 62
               7
100
AcDbLine
 10
207.48420000000078
 20
56.000119999999697
 30
0.0
 11
207.48420000000078
 21
54.236119999999573
 31
0.0
  0
LINE
  5
1CA
100
AcDbEntity
  8
001
370
               5
390
0
 62
               7
100
AcDbLine
 10
208.48420000000078
 20
52.0
 30
0.0
 11
208.48420000000078
 21
8.0
 31
0.0
  0
LINE
  5
1CB
100
AcDbEntity
  8
001
370
               5
390
0
 62
               7
100
AcDbLine
 10
-189.94880000000012
 20
55.0
 30
0.0
 11
-197.94880000000012
 21
55.0
 31
0.0
  0
LINE
  5
1CC
100
AcDbEntity
  8
001
370
               5
390
0
  6
STYLE_13
 62
               7
100
AcDbLine
 10
143.48420000000078
 20
63.249519999999848
 30
0.0
 11
143.48420000000078
 21
38.918519999999717
 31
0.0
  0
LINE
  5
1CD
100
AcDbEntity
  8
001
370
               5
390
0
 62
               7
100
AcDbLine
 10
139.48420000000078
 20
56.000119999999697
 30
0.0
 11
139.48420000000078
 21
54.236119999999573
 31
0.0
  0
LINE
  5
1CE
100
AcDbEntity
  8
001
370
               5
390
0
 62
               7
100
AcDbLine
 10
147.48420000000078
 20
56.0
 30
0.0
 11
147.48420000000078
 21
55.0
 31
0.0
  0
LINE
  5
1CF
100
AcDbEntity
  8
001
370
               5
390
0
  6
STYLE_13
 62
               7
100
AcDbLine
 10
-143.94880000000012
 20
63.366519999999582
 30
0.0
 11
-143.94880000000012
 21
39.03919999999971
 31
0.0
  0
LINE
  5
1D0
100
AcDbEntity
  8
001
370
               5
390
0
 62
               7
100
AcDbLine
 10
-147.94880000000012
 20
56.0
 30
0.0
 11
-147.94880000000012
 21
55.0
 31
0.0
  0
LINE
  5
1D1
100
AcDbEntity
  8
001
370
               5
390
0
 62
               7
100
AcDbLine
 10
-139.94880000000012
 20
56.000119999999697
 30
0.0
 11
-139.94880000000012
 21
54.236119999999573
 31
0.0
  0
CIRCLE
  5
1D2
100
AcDbEntity
  8
001
370
               5
390
0
 62
               7
100
AcDbCircle
 10
-193.94880000000012
 20
64.786599999999453
 30
0.0
 40
8.0
  0
CIRCLE
  5
1D3
100
AcDbEntity
  8
001
370
               5
390
0
 62
               7
100
AcDbCircle
 10
-193.94880000000012
 20
64.786599999999453
 30
0.0
 40
8.0
  0
LINE
  5
1D4
100
AcDbEntity
  8
001
370
               5
390
0
 62
               7
100
AcDbLine
 10
-187.44880000000012
 20
68.539399999999659
 30
0.0
 11
-187.44880000000012
 21
61.033719999999448
 31
0.0
  0
LINE
  5
1D5
100
AcDbEntity
  8
001
370
               5
390
0
 62
               7
100
AcDbLine
 10
-193.94880000000012
 20
72.292199999999866
 30
0.0
 11
-187.44880000000012
 21
68.539399999999659
 31
0.0
  0
LINE
  5
1D6
100
AcDbEntity
  8
001
370
               5
390
0
 62
               7
100
AcDbLine
 10
-200.44880000000012
 20
68.539399999999659
 30
0.0
 11
-193.94880000000012
 21
72.292199999999866
 31
0.0
  0
LINE
  5
1D7
100
AcDbEntity
  8
001
370
               5
390
0
 62
               7
100
AcDbLine
 10
-200.44880000000012
 20
61.033719999999448
 30
0.0
 11
-200.44880000000012
 21
68.539399999999659
 31
0.0
  0
LINE
  5
1D8
100
AcDbEntity
  8
001
370
               5
390
0
 62
               7
100
AcDbLine
 10
-193.94880000000012
 20
57.280999999999949
 30
0.0
 11
-200.44880000000012
 21
61.033799999999701
 31
0.0
  0
LINE
  5
1D9
100
AcDbEntity
  8
001
370
               5
390
0
 62
               7
100
AcDbLine
 10
-187.44880000000012
 20
61.033799999999701
 30
0.0
 11
-193.94880000000012
 21
57.280999999999949
 31
0.0
  0
CIRCLE
  5
1DA
100
AcDbEntity
  8
001
370
               5
390
0
 62
               7
100
AcDbCircle
 10
-193.94880000000012
 20
64.786599999999453
 30
0.0
 40
8.0
  0
CIRCLE
  5
1DB
100
AcDbEntity
  8
001
370
               5
390
0
 62
               7
100
AcDbCircle
 10
-193.94880000000012
 20
64.786599999999453
 30
0.0
 40
6.3000000000001819
  0
ARC
  5
1DC
100
AcDbEntity
  8
001
370
               5
390
0
 62
               7
100
AcDbCircle
 10
-193.94880000000012
 20
-30.0
 30
0.0
 40
54.184844458575121
100
AcDbArc
 50
85.76649537856251
 51
94.23350462143749
  0
ARC
  5
1DD
100
AcDbEntity
  8
001
370
               5
390
0
 62
               7
100
AcDbCircle
 10
-193.94880000000012
 20
-30.0
 30
0.0
 40
54.000071731048315
100
AcDbArc
 50
85.751982986498973
 51
94.248017013501027
  0
LINE
  5
1DE
100
AcDbEntity
  8
001
370
               5
390
0
 62
               7
100
AcDbLine
 10
-189.94880000000012
 20
-4.5
 30
0.0
 11
-189.94880000000012
 21
57.858519999999771
 31
0.0
  0
LINE
  5
1DF
100
AcDbEntity
  8
001
370
               5
390
0
 62
               7
100
AcDbLine
 10
-189.94880000000012
 20
71.714719999999943
 30
0.0
 11
-189.94880000000012
 21
74.5
 31
0.0
  0
LINE
  5
1E0
100
AcDbEntity
  8
001
370
               5
390
0
 62
               7
100
AcDbLine
 10
-197.94880000000012
 20
-4.5
 30
0.0
 11
-197.94880000000012
 21
57.858519999999771
 31
0.0
  0
LINE
  5
1E1
100
AcDbEntity
  8
001
370
               5
390
0
 62
               7
100
AcDbLine
 10
-197.94880000000012
 20
71.714719999999943
 30
0.0
 11
-197.94880000000012
 21
74.5
 31
0.0
  0
LINE
  5
1E2
100
AcDbEntity
  8
001
370
               5
390
0
 62
               7
100
AcDbLine
 10
95.994120000000294
 20
78.246599999999489
 30
0.0
 11
95.994120000000294
 21
61.746599999999489
 31
0.0
  0
LINE
  5
1E3
100
AcDbEntity
  8
001
370
               5
390
0
 62
               7
100
AcDbLine
 10
98.89411999999993
 20
72.996599999999489
 30
0.0
 11
98.89411999999993
 21
66.996599999999489
 31
0.0
  0
LINE
  5
1E4
100
AcDbEntity
  8
001
370
               5
390
0
 62
               7
100
AcDbLine
 10
60.89411999999993
 20
77.496599999999489
 30
0.0
 11
60.89411999999993
 21
62.496599999999489
 31
0.0
  0
LINE
  5
1E5
100
AcDbEntity
  8
001
370
               5
390
0
 62
               7
100
AcDbLine
 10
55.39411999999993
 20
63.696599999999762
 30
0.0
 11
56.087000000000444
 21
62.496599999999489
 31
0.0
  0
LINE
  5
1E6
100
AcDbEntity
  8
001
370
               5
390
0
  6
STYLE_13
 62
               7
100
AcDbLine
 10
96.89411999999993
 20
74.996599999999489
 30
0.0
 11
95.994120000000294
 21
74.996599999999489
 31
0.0
  0
LINE
  5
1E7
100
AcDbEntity
  8
001
370
               5
390
0
  6
STYLE_13
 62
               7
100
AcDbLine
 10
96.89411999999993
 20
64.996599999999489
 30
0.0
 11
95.994120000000294
 21
64.996599999999489
 31
0.0
  0
LINE
  5
1E8
100
AcDbEntity
  8
001
370
               5
390
0
 62
               7
100
AcDbLine
 10
60.89411999999993
 20
65.996599999999489
 30
0.0
 11
66.89411999999993
 21
65.996599999999489
 31
0.0
  0
LINE
  5
1E9
100
AcDbEntity
  8
001
370
               5
390
0
 62
               7
100
AcDbLine
 10
68.89411999999993
 20
62.996599999999489
 30
0.0
 11
66.89411999999993
 21
64.996599999999489
 31
0.0
  0
LINE
  5
1EA
100
AcDbEntity
  8
001
370
               5
390
0
 62
               7
100
AcDbLine
 10
66.89411999999993
 20
64.996599999999489
 30
0.0
 11
66.89411999999993
 21
74.996599999999489
 31
0.0
  0
LINE
  5
1EB
100
AcDbEntity
  8
001
370
               5
390
0
 62
               7
100
AcDbLine
 10
60.89411999999993
 20
73.996599999999489
 30
0.0
 11
66.89411999999993
 21
73.996599999999489
 31
0.0
  0
LINE
  5
1EC
100
AcDbEntity
  8
001
370
               5
390
0
 62
               7
100
AcDbLine
 10
68.89411999999993
 20
76.996599999999489
 30
0.0
 11
66.89411999999993
 21
74.996599999999489
 31
0.0
  0
LINE
  5
1ED
100
AcDbEntity
  8
001
370
               5
390
0
 62
               7
100
AcDbLine
 10
68.89411999999993
 20
76.996599999999489
 30
0.0
 11
85.89411999999993
 21
76.996599999999489
 31
0.0
  0
LINE
  5
1EE
100
AcDbEntity
  8
001
370
               5
390
0
 62
               7
100
AcDbLine
 10
56.087000000000444
 20
77.496599999999489
 30
0.0
 11
60.89411999999993
 21
77.496599999999489
 31
0.0
  0
LINE
  5
1EF
100
AcDbEntity
  8
001
370
               5
390
0
 62
               7
100
AcDbLine
 10
55.39411999999993
 20
76.296599999999671
 30
0.0
 11
56.087000000000444
 21
77.496599999999489
 31
0.0
  0
LINE
  5
1F0
100
AcDbEntity
  8
001
370
               5
390
0
 62
               7
100
AcDbLine
 10
55.39411999999993
 20
76.296599999999671
 30
0.0
 11
55.39411999999993
 21
63.696599999999762
 31
0.0
  0
LINE
  5
1F1
100
AcDbEntity
  8
001
370
               5
390
0
 62
               7
100
AcDbLine
 10
56.087000000000444
 20
62.496599999999489
 30
0.0
 11
60.89411999999993
 21
62.496599999999489
 31
0.0
  0
CIRCLE
  5
1F2
100
AcDbEntity
  8
001
370
               5
390
0
 62
               7
100
AcDbCircle
 10
78.89411999999993
 20
69.996599999999489
 30
0.0
 40
4.1000000000003638
  0
LINE
  5
1F3
100
AcDbEntity
  8
001
370
               5
390
0
 62
               7
100
AcDbLine
 10
68.89411999999993
 20
62.996599999999489
 30
0.0
 11
85.89411999999993
 21
62.996599999999489
 31
0.0
  0
LINE
  5
1F4
100
AcDbEntity
  8
001
370
               5
390
0
 62
               7
100
AcDbLine
 10
85.89411999999993
 20
77.996599999999489
 30
0.0
 11
85.89411999999993
 21
61.996599999999489
 31
0.0
  0
LINE
  5
1F5
100
AcDbEntity
  8
001
370
               5
390
0
 62
               7
100
AcDbLine
 10
90.889119999999821
 20
79.796599999999671
 30
0.0
 11
95.099320000000262
 21
79.796599999999671
 31
0.0
  0
LINE
  5
1F6
100
AcDbEntity
  8
001
370
               5
390
0
 62
               7
100
AcDbLine
 10
89.994120000000294
 20
78.246599999999489
 30
0.0
 11
90.888919999999416
 21
79.796599999999671
 31
0.0
  0
LINE
  5
1F7
100
AcDbEntity
  8
001
370
               5
390
0
 62
               7
100
AcDbLine
 10
96.89411999999993
 20
75.996599999999489
 30
0.0
 11
95.994120000000294
 21
75.996599999999489
 31
0.0
  0
LINE
  5
1F8
100
AcDbEntity
  8
001
370
               5
390
0
 62
               7
100
AcDbLine
 10
96.89411999999993
 20
75.996599999999489
 30
0.0
 11
96.89411999999993
 21
63.996599999999489
 31
0.0
  0
LINE
  5
1F9
100
AcDbEntity
  8
001
370
               5
390
0
 62
               7
100
AcDbLine
 10
97.89411999999993
 20
74.496599999999489
 30
0.0
 11
96.89411999999993
 21
74.496599999999489
 31
0.0
  0
LINE
  5
1FA
100
AcDbEntity
  8
001
370
               5
390
0
 62
               7
100
AcDbLine
 10
98.89411999999993
 20
72.996599999999489
 30
0.0
 11
97.89411999999993
 21
72.996599999999489
 31
0.0
  0
LINE
  5
1FB
100
AcDbEntity
  8
001
370
               5
390
0
 62
               7
100
AcDbLine
 10
97.89411999999993
 20
74.496599999999489
 30
0.0
 11
97.89411999999993
 21
65.496599999999489
 31
0.0
  0
LINE
  5
1FC
100
AcDbEntity
  8
001
370
               5
390
0
 62
               7
100
AcDbLine
 10
98.89411999999993
 20
66.996599999999489
 30
0.0
 11
97.89411999999993
 21
66.996599999999489
 31
0.0
  0
LINE
  5
1FD
100
AcDbEntity
  8
001
370
               5
390
0
 62
               7
100
AcDbLine
 10
97.89411999999993
 20
65.496599999999489
 30
0.0
 11
96.89411999999993
 21
65.496599999999489
 31
0.0
  0
LINE
  5
1FE
100
AcDbEntity
  8
001
370
               5
390
0
 62
               7
100
AcDbLine
 10
96.89411999999993
 20
63.996599999999489
 30
0.0
 11
95.994120000000294
 21
63.996599999999489
 31
0.0
  0
LINE
  5
1FF
100
AcDbEntity
  8
001
370
               5
390
0
 62
               7
100
AcDbLine
 10
89.994120000000294
 20
61.746599999999489
 30
0.0
 11
90.888919999999416
 21
60.196599999999762
 31
0.0
  0
LINE
  5
200
100
AcDbEntity
  8
001
370
               5
390
0
 62
               7
100
AcDbLine
 10
90.889119999999821
 20
60.196599999999762
 30
0.0
 11
95.099320000000262
 21
60.196599999999762
 31
0.0
  0
LINE
  5
201
100
AcDbEntity
  8
001
370
               5
390
0
 62
               7
100
AcDbLine
 10
85.89411999999993
 20
61.996599999999489
 30
0.0
 11
87.39411999999993
 21
61.996599999999489
 31
0.0
  0
LINE
  5
202
100
AcDbEntity
  8
001
370
               5
390
0
 62
               7
100
AcDbLine
 10
85.89411999999993
 20
77.996599999999489
 30
0.0
 11
87.64411999999993
 21
77.996599999999489
 31
0.0
  0
LINE
  5
203
100
AcDbEntity
  8
001
370
               5
390
0
 62
               7
100
AcDbLine
 10
95.994120000000294
 20
78.246599999999489
 30
0.0
 11
95.099320000000262
 21
79.796599999999671
 31
0.0
  0
LINE
  5
204
100
AcDbEntity
  8
001
370
               5
390
0
 62
               7
100
AcDbLine
 10
95.994120000000294
 20
61.746599999999489
 30
0.0
 11
95.099320000000262
 21
60.196599999999762
 31
0.0
  0
ARC
  5
205
100
AcDbEntity
  8
001
370
               5
390
0
 62
               7
100
AcDbCircle
 10
91.339399999999841
 20
62.64659999999958
 30
0.0
 40
4.4876047107558064
100
AcDbArc
 50
326.91051150089987
 51
33.089488499105016
  0
ARC
  5
206
100
AcDbEntity
  8
001
370
               5
390
0
 62
               7
100
AcDbCircle
 10
78.968200000000252
 20
69.996599999999489
 30
0.0
 40
16.858800698744176
100
AcDbArc
 50
343.10316244580855
 51
16.896837554192928
  0
LINE
  5
207
100
AcDbEntity
  8
001
370
               5
390
0
 62
               7
100
AcDbLine
 10
90.889119999999821
 20
65.096599999999853
 30
0.0
 11
95.099320000000262
 21
65.096599999999853
 31
0.0
  0
ARC
  5
208
100
AcDbEntity
  8
001
370
               5
390
0
 62
               7
100
AcDbCircle
 10
94.648800000000847
 20
62.64659999999958
 30
0.0
 40
4.4875041729684275
100
AcDbArc
 50
146.90967503064815
 51
213.09032496934702
  0
ARC
  5
209
100
AcDbEntity
  8
001
370
               5
390
0
 62
               7
100
AcDbCircle
 10
107.02020000000084
 20
69.996599999999489
 30
0.0
 40
16.858877245132128
100
AcDbArc
 50
163.10324146878344
 51
196.89675853121508
  0
LINE
  5
20A
100
AcDbEntity
  8
001
370
               5
390
0
 62
               7
100
AcDbLine
 10
90.889119999999821
 20
74.89659999999958
 30
0.0
 11
95.099320000000262
 21
74.89659999999958
 31
0.0
  0
ARC
  5
20B
100
AcDbEntity
  8
001
370
               5
390
0
 62
               7
100
AcDbCircle
 10
94.648800000000847
 20
77.346599999999853
 30
0.0
 40
4.4875041729681797
100
AcDbArc
 50
146.90967503065301
 51
213.09032496935185
  0
ARC
  5
20C
100
AcDbEntity
  8
001
370
               5
390
0
 62
               7
100
AcDbCircle
 10
91.339399999999841
 20
77.346599999999853
 30
0.0
 40
4.487604710756055
100
AcDbArc
 50
326.91051150089493
 51
33.089488499100128
  0
ARC
  5
20D
100
AcDbEntity
  8
001
370
               5
390
0
 62
               7
100
AcDbCircle
 10
65.889320000000225
 20
69.996599999999489
 30
0.0
 40
10.495140655674687
100
AcDbArc
 50
159.06502381870433
 51
200.93497618129567
  0
ARC
  5
20E
100
AcDbEntity
  8
001
370
               5
390
0
 62
               7
100
AcDbCircle
 10
58.277799999999843
 20
75.621599999999489
 30
0.0
 40
2.8834839482815844
100
AcDbArc
 50
139.44439644706321
 51
220.56181070197516
  0
LINE
  5
20F
100
AcDbEntity
  8
001
370
               5
390
0
 62
               7
100
AcDbLine
 10
56.087000000000444
 20
73.746599999999489
 30
0.0
 11
60.89411999999993
 21
73.746599999999489
 31
0.0
  0
LINE
  5
210
100
AcDbEntity
  8
001
370
               5
390
0
 62
               7
100
AcDbLine
 10
56.087000000000444
 20
66.246599999999489
 30
0.0
 11
60.89411999999993
 21
66.246599999999489
 31
0.0
  0
ARC
  5
211
100
AcDbEntity
  8
001
370
               5
390
0
 62
               7
100
AcDbCircle
 10
58.277799999999843
 20
64.371599999999489
 30
0.0
 40
2.8836139894232318
100
AcDbArc
 50
139.44137718577622
 51
220.55862281422384
  0
LINE
  5
212
100
AcDbEntity
  8
001
370
               5
390
0
 62
               7
100
AcDbLine
 10
66.89411999999993
 20
66.996599999999489
 30
0.0
 11
63.39411999999993
 21
66.996599999999489
 31
0.0
  0
LINE
  5
213
100
AcDbEntity
  8
001
370
               5
390
0
 62
               7
100
AcDbLine
 10
63.39411999999993
 20
66.996599999999489
 30
0.0
 11
61.662000000000262
 21
65.996599999999489
 31
0.0
  0
LINE
  5
214
100
AcDbEntity
  8
001
370
               5
390
0
 62
               7
100
AcDbLine
 10
63.39411999999993
 20
72.996599999999489
 30
0.0
 11
61.662000000000262
 21
73.996599999999489
 31
0.0
  0
LINE
  5
215
100
AcDbEntity
  8
001
370
               5
390
0
 62
               7
100
AcDbLine
 10
63.39411999999993
 20
72.996599999999489
 30
0.0
 11
66.89411999999993
 21
72.996599999999489
 31
0.0
  0
LINE
  5
216
100
AcDbEntity
  8
001
370
               5
390
0
 62
               7
100
AcDbLine
 10
63.39411999999993
 20
73.996599999999489
 30
0.0
 11
63.39411999999993
 21
65.996599999999489
 31
0.0
  0
LINE
  5
217
100
AcDbEntity
  8
001
370
               5
390
0
 62
               7
100
AcDbLine
 10
68.89411999999993
 20
76.996599999999489
 30
0.0
 11
68.89411999999993
 21
62.996599999999489
 31
0.0
  0
LINE
  5
218
100
AcDbEntity
  8
001
370
               5
390
0
  6
STYLE_13
 62
               7
100
AcDbLine
 10
-177.84199999999964
 20
64.786599999999453
 30
0.0
 11
-214.72008000000005
 21
64.786599999999453
 31
0.0
  0
LINE
  5
219
100
AcDbEntity
  8
001
370
               5
390
0
 62
               7
100
AcDbLine
 10
139.98420000000078
 20
57.979119999999966
 30
0.0
 11
139.98420000000078
 21
57.000119999999697
 31
0.0
  0
ARC
  5
21A
100
AcDbEntity
  8
001
370
               5
390
0
 62
               7
100
AcDbCircle
 10
143.48420000000078
 20
50.599999999999909
 30
0.0
 40
8.9999596110204791
100
AcDbArc
 50
73.398563545166269
 51
106.6006315964799
  0
ARC
  5
21B
100
AcDbEntity
  8
001
370
               5
390
0
 62
               7
100
AcDbCircle
 10
141.28420000000006
 20
57.979119999999966
 30
0.0
 40
1.3000253123687258
100
AcDbArc
 50
106.5943843412656
 51
180.0
  0
ARC
  5
21C
100
AcDbEntity
  8
001
370
               5
390
0
 62
               7
100
AcDbCircle
 10
145.6842000000006
 20
57.979119999999966
 30
0.0
 40
1.3000000000001819
100
AcDbArc
 50
0.0
 51
73.39785056390474
  0
LINE
  5
21D
100
AcDbEntity
  8
001
370
               5
390
0
 62
               7
100
AcDbLine
 10
146.98420000000078
 20
57.979119999999966
 30
0.0
 11
146.98420000000078
 21
57.000119999999697
 31
0.0
  0
LINE
  5
21E
100
AcDbEntity
  8
001
370
               5
390
0
 62
               7
100
AcDbLine
 10
147.28420000000006
 20
57.0
 30
0.0
 11
147.28420000000006
 21
56.0
 31
0.0
  0
LINE
  5
21F
100
AcDbEntity
  8
001
370
               5
390
0
 62
               7
100
AcDbLine
 10
139.6842000000006
 20
57.0
 30
0.0
 11
147.28420000000006
 21
57.0
 31
0.0
  0
LINE
  5
220
100
AcDbEntity
  8
001
370
               5
390
0
 62
               7
100
AcDbLine
 10
139.6842000000006
 20
57.0
 30
0.0
 11
139.6842000000006
 21
56.0
 31
0.0
  0
LINE
  5
221
100
AcDbEntity
  8
001
370
               5
390
0
 62
               7
100
AcDbLine
 10
142.34919999999966
 20
59.000720000000001
 30
0.0
 11
143.48400000000038
 21
59.599999999999909
 31
0.0
  0
LINE
  5
222
100
AcDbEntity
  8
001
370
               5
390
0
 62
               7
100
AcDbLine
 10
144.46911999999975
 20
59.000720000000001
 30
0.0
 11
143.48420000000078
 21
59.599999999999909
 31
0.0
  0
LINE
  5
223
100
AcDbEntity
  8
001
370
               5
390
0
 62
               7
100
AcDbLine
 10
199.98420000000078
 20
57.979119999999966
 30
0.0
 11
199.98420000000078
 21
57.000119999999697
 31
0.0
  0
ARC
  5
224
100
AcDbEntity
  8
001
370
               5
390
0
 62
               7
100
AcDbCircle
 10
203.48420000000078
 20
50.599999999999909
 30
0.0
 40
8.9999596110204791
100
AcDbArc
 50
73.398563545166269
 51
106.6006315964799
  0
ARC
  5
225
100
AcDbEntity
  8
001
370
               5
390
0
 62
               7
100
AcDbCircle
 10
201.28420000000006
 20
57.979119999999966
 30
0.0
 40
1.3000253123687258
100
AcDbArc
 50
106.5943843412656
 51
180.0
  0
ARC
  5
226
100
AcDbEntity
  8
001
370
               5
390
0
 62
               7
100
AcDbCircle
 10
205.6842000000006
 20
57.979119999999966
 30
0.0
 40
1.3000000000001819
100
AcDbArc
 50
0.0
 51
73.397850563943166
  0
LINE
  5
227
100
AcDbEntity
  8
001
370
               5
390
0
 62
               7
100
AcDbLine
 10
206.98420000000078
 20
57.979119999999966
 30
0.0
 11
206.98420000000078
 21
57.000119999999697
 31
0.0
  0
LINE
  5
228
100
AcDbEntity
  8
001
370
               5
390
0
 62
               7
100
AcDbLine
 10
207.28420000000006
 20
57.0
 30
0.0
 11
207.28420000000006
 21
56.0
 31
0.0
  0
LINE
  5
229
100
AcDbEntity
  8
001
370
               5
390
0
 62
               7
100
AcDbLine
 10
199.6842000000006
 20
57.0
 30
0.0
 11
199.6842000000006
 21
56.0
 31
0.0
  0
LINE
  5
22A
100
AcDbEntity
  8
001
370
               5
390
0
 62
               7
100
AcDbLine
 10
202.34919999999966
 20
59.000720000000001
 30
0.0
 11
203.48400000000038
 21
59.599999999999909
 31
0.0
  0
LINE
  5
22B
100
AcDbEntity
  8
001
370
               5
390
0
 62
               7
100
AcDbLine
 10
204.46911999999975
 20
59.000720000000001
 30
0.0
 11
203.48420000000078
 21
59.599999999999909
 31
0.0
  0
LINE
  5
22C
100
AcDbEntity
  8
001
370
               5
390
0
 62
               7
100
AcDbLine
 10
-147.44880000000012
 20
57.979119999999966
 30
0.0
 11
-147.44880000000012
 21
57.000119999999697
 31
0.0
  0
ARC
  5
22D
100
AcDbEntity
  8
001
370
               5
390
0
 62
               7
100
AcDbCircle
 10
-143.94880000000012
 20
50.599999999999909
 30
0.0
 40
8.9999596110207385
100
AcDbArc
 50
73.398563545160712
 51
106.60063159647434
  0
ARC
  5
22E
100
AcDbEntity
  8
001
370
               5
390
0
 62
               7
100
AcDbCircle
 10
-146.14879999999994
 20
57.979119999999966
 30
0.0
 40
1.3000824453855622
100
AcDbArc
 50
106.60283141221842
 51
180.00176283858644
  0
ARC
  5
22F
100
AcDbEntity
  8
001
370
               5
390
0
 62
               7
100
AcDbCircle
 10
-141.74879999999939
 20
57.979119999999966
 30
0.0
 40
1.2999999999992724
100
AcDbArc
 50
0.0
 51
73.39785056390474
  0
LINE
  5
230
100
AcDbEntity
  8
001
370
               5
390
0
 62
               7
100
AcDbLine
 10
-140.44880000000012
 20
57.979119999999966
 30
0.0
 11
-140.44880000000012
 21
57.000119999999697
 31
0.0
  0
LINE
  5
231
100
AcDbEntity
  8
001
370
               5
390
0
 62
               7
100
AcDbLine
 10
-140.14879999999994
 20
57.0
 30
0.0
 11
-140.14879999999994
 21
56.0
 31
0.0
  0
LINE
  5
232
100
AcDbEntity
  8
001
370
               5
390
0
 62
               7
100
AcDbLine
 10
-147.74879999999939
 20
57.0
 30
0.0
 11
-140.14879999999994
 21
57.0
 31
0.0
  0
LINE
  5
233
100
AcDbEntity
  8
001
370
               5
390
0
 62
               7
100
AcDbLine
 10
-147.74879999999939
 20
57.0
 30
0.0
 11
-147.74879999999939
 21
56.0
 31
0.0
  0
LINE
  5
234
100
AcDbEntity
  8
001
370
               5
390
0
 62
               7
100
AcDbLine
 10
-145.08379999999943
 20
59.000720000000001
 30
0.0
 11
-143.94880000000012
 21
59.599999999999909
 31
0.0
  0
LINE
  5
235
100
AcDbEntity
  8
001
370
               5
390
0
 62
               7
100
AcDbLine
 10
-142.96388000000024
 20
59.000720000000001
 30
0.0
 11
-143.94880000000012
 21
59.599999999999909
 31
0.0
  0
LINE
  5
236
100
AcDbEntity
  8
001
370
               5
390
0
 62
               7
100
AcDbLine
 10
-247.44880000000012
 20
57.979119999999966
 30
0.0
 11
-247.44880000000012
 21
57.000119999999697
 31
0.0
  0
ARC
  5
237
100
AcDbEntity
  8
001
370
               5
390
0
 62
               7
100
AcDbCircle
 10
-243.94880000000012
 20
50.599999999999909
 30
0.0
 40
8.9999596110207385
100
AcDbArc
 50
73.398563545160712
 51
106.60063159647434
  0
ARC
  5
238
100
AcDbEntity
  8
001
370
               5
390
0
 62
               7
100
AcDbCircle
 10
-246.14879999999994
 20
57.979119999999966
 30
0.0
 40
1.3000824453855622
100
AcDbArc
 50
106.60283141221842
 51
180.00176283858644
  0
ARC
  5
239
100
AcDbEntity
  8
001
370
               5
390
0
 62
               7
100
AcDbCircle
 10
-241.74879999999939
 20
57.979119999999966
 30
0.0
 40
1.2999999999992724
100
AcDbArc
 50
0.0
 51
73.39785056390474
  0
LINE
  5
23A
100
AcDbEntity
  8
001
370
               5
390
0
 62
               7
100
AcDbLine
 10
-240.44880000000012
 20
57.979119999999966
 30
0.0
 11
-240.44880000000012
 21
57.000119999999697
 31
0.0
  0
LINE
  5
23B
100
AcDbEntity
  8
001
370
               5
390
0
 62
               7
100
AcDbLine
 10
-240.14879999999994
 20
57.0
 30
0.0
 11
-240.14879999999994
 21
56.0
 31
0.0
  0
LINE
  5
23C
100
AcDbEntity
  8
001
370
               5
390
0
 62
               7
100
AcDbLine
 10
-247.74879999999939
 20
57.0
 30
0.0
 11
-240.14879999999994
 21
57.0
 31
0.0
  0
LINE
  5
23D
100
AcDbEntity
  8
001
370
               5
390
0
 62
               7
100
AcDbLine
 10
-247.74879999999939
 20
57.0
 30
0.0
 11
-247.74879999999939
 21
56.0
 31
0.0
  0
LINE
  5
23E
100
AcDbEntity
  8
001
370
               5
390
0
 62
               7
100
AcDbLine
 10
-245.08379999999943
 20
59.000720000000001
 30
0.0
 11
-243.94880000000012
 21
59.599999999999909
 31
0.0
  0
LINE
  5
23F
100
AcDbEntity
  8
001
370
               5
390
0
 62
               7
100
AcDbLine
 10
-242.96388000000024
 20
59.000720000000001
 30
0.0
 11
-243.94880000000012
 21
59.599999999999909
 31
0.0
  0
LINE
  5
240
100
AcDbEntity
  8
001
370
               5
390
0
 62
               7
100
AcDbLine
 10
-159.44880000000012
 20
-88.587400000000343
 30
0.0
 11
-159.44880000000012
 21
-87.300000000000182
 31
0.0
  0
ARC
  5
241
100
AcDbEntity
  8
001
370
               5
390
0
 62
               7
100
AcDbCircle
 10
-157.84879999999976
 20
-88.587480000000141
 30
0.0
 40
1.6000000000003638
100
AcDbArc
 50
180.0
 51
253.80413771728189
  0
ARC
  5
242
100
AcDbEntity
  8
001
370
               5
390
0
 62
               7
100
AcDbCircle
 10
-154.94880000000012
 20
-78.495480000000043
 30
0.0
 40
12.100360687053939
100
AcDbArc
 50
253.9469483778376
 51
286.05383206204408
  0
LINE
  5
243
100
AcDbEntity
  8
001
370
               5
390
0
 62
               7
100
AcDbLine
 10
-156.34559999999965
 20
-90.040280000000166
 30
0.0
 11
-154.94880000000012
 21
-90.600000000000364
 31
0.0
  0
LINE
  5
244
100
AcDbEntity
  8
001
370
               5
390
0
 62
               7
100
AcDbLine
 10
-153.45988000000034
 20
-90.040280000000166
 30
0.0
 11
-154.94880000000012
 21
-90.600000000000364
 31
0.0
  0
ARC
  5
245
100
AcDbEntity
  8
001
370
               5
390
0
 62
               7
100
AcDbCircle
 10
-152.04879999999957
 20
-88.587480000000141
 30
0.0
 40
1.5999962969956549
100
AcDbArc
 50
286.19311117986729
 51
0.0
  0
LINE
  5
246
100
AcDbEntity
  8
001
370
               5
390
0
 62
               7
100
AcDbLine
 10
-150.44880000000012
 20
-88.587400000000343
 30
0.0
 11
-150.44880000000012
 21
-87.300000000000182
 31
0.0
  0
LINE
  5
247
100
AcDbEntity
  8
001
370
               5
390
0
 62
               7
100
AcDbLine
 10
-237.44880000000012
 20
-88.587400000000343
 30
0.0
 11
-237.44880000000012
 21
-87.300000000000182
 31
0.0
  0
ARC
  5
248
100
AcDbEntity
  8
001
370
               5
390
0
 62
               7
100
AcDbCircle
 10
-235.84879999999976
 20
-88.587480000000141
 30
0.0
 40
1.6000000000003638
100
AcDbArc
 50
180.0
 51
253.80413771728189
  0
ARC
  5
249
100
AcDbEntity
  8
001
370
               5
390
0
 62
               7
100
AcDbCircle
 10
-232.94880000000012
 20
-78.600000000000364
 30
0.0
 40
11.999951140166905
100
AcDbArc
 50
253.80894777619847
 51
286.19183912494753
  0
LINE
  5
24A
100
AcDbEntity
  8
001
370
               5
390
0
 62
               7
100
AcDbLine
 10
-234.34559999999965
 20
-90.040280000000166
 30
0.0
 11
-232.94880000000012
 21
-90.600000000000364
 31
0.0
  0
LINE
  5
24B
100
AcDbEntity
  8
001
370
               5
390
0
 62
               7
100
AcDbLine
 10
-231.45988000000034
 20
-90.040280000000166
 30
0.0
 11
-232.94880000000012
 21
-90.600000000000364
 31
0.0
  0
ARC
  5
24C
100
AcDbEntity
  8
001
370
               5
390
0
 62
               7
100
AcDbCircle
 10
-230.04879999999957
 20
-88.587480000000141
 30
0.0
 40
1.5999962969956549
100
AcDbArc
 50
286.19311117986729
 51
0.0
  0
LINE
  5
24D
100
AcDbEntity
  8
001
370
               5
390
0
 62
               7
100
AcDbLine
 10
-228.44880000000012
 20
-88.587400000000343
 30
0.0
 11
-228.44880000000012
 21
-87.300000000000182
 31
0.0
  0
CIRCLE
  5
24E
100
AcDbEntity
  8
001
370
               5
390
0
 62
               7
100
AcDbCircle
 10
-193.94880000000012
 20
16.0
 30
0.0
 40
3.5
  0
LINE
  5
24F
100
AcDbEntity
  8
001
370
               5
390
0
 62
               7
100
AcDbLine
 10
-194.30479999999989
 20
17.75
 30
0.0
 11
-194.30479999999989
 21
16.843719999999848
 31
0.0
  0
LINE
  5
250
100
AcDbEntity
  8
001
370
               5
390
0
 62
               7
100
AcDbLine
 10
-194.30479999999989
 20
17.75
 30
0.0
 11
-193.94880000000012
 21
17.75
 31
0.0
  0
LINE
  5
251
100
AcDbEntity
  8
001
370
               5
390
0
 62
               7
100
AcDbLine
 10
-195.69880000000012
 20
16.436119999999846
 30
0.0
 11
-194.71207999999933
 21
16.436119999999846
 31
0.0
  0
LINE
  5
252
100
AcDbEntity
  8
001
370
               5
390
0
 62
               7
100
AcDbLine
 10
-195.69880000000012
 20
16.436119999999846
 30
0.0
 11
-195.69880000000012
 21
16.0
 31
0.0
  0
LINE
  5
253
100
AcDbEntity
  8
001
370
               5
390
0
 62
               7
100
AcDbLine
 10
-194.71207999999933
 20
16.436119999999846
 30
0.0
 11
-194.30479999999989
 21
16.843519999999899
 31
0.0
  0
LINE
  5
254
100
AcDbEntity
  8
001
370
               5
390
0
 62
               7
100
AcDbLine
 10
-192.19880000000012
 20
16.355999999999767
 30
0.0
 11
-192.19880000000012
 21
16.0
 31
0.0
  0
LINE
  5
255
100
AcDbEntity
  8
001
370
               5
390
0
 62
               7
100
AcDbLine
 10
-192.19880000000012
 20
16.356199999999717
 30
0.0
 11
-193.10519999999997
 21
16.356199999999717
 31
0.0
  0
LINE
  5
256
100
AcDbEntity
  8
001
370
               5
390
0
 62
               7
100
AcDbLine
 10
-193.51267999999982
 20
16.763519999999971
 30
0.0
 11
-193.10539999999946
 21
16.356199999999717
 31
0.0
  0
LINE
  5
257
100
AcDbEntity
  8
001
370
               5
390
0
 62
               7
100
AcDbLine
 10
-193.51279999999952
 20
17.750119999999697
 30
0.0
 11
-193.51279999999952
 21
16.763519999999971
 31
0.0
  0
LINE
  5
258
100
AcDbEntity
  8
001
370
               5
390
0
 62
               7
100
AcDbLine
 10
-193.51279999999952
 20
17.75
 30
0.0
 11
-193.94880000000012
 21
17.75
 31
0.0
  0
LINE
  5
259
100
AcDbEntity
  8
001
370
               5
390
0
 62
               7
100
AcDbLine
 10
-195.69880000000012
 20
15.644119999999475
 30
0.0
 11
-194.79227999999966
 21
15.644119999999475
 31
0.0
  0
LINE
  5
25A
100
AcDbEntity
  8
001
370
               5
390
0
 62
               7
100
AcDbLine
 10
-195.69880000000012
 20
15.644119999999475
 30
0.0
 11
-195.69880000000012
 21
16.0
 31
0.0
  0
LINE
  5
25B
100
AcDbEntity
  8
001
370
               5
390
0
 62
               7
100
AcDbLine
 10
-194.38487999999961
 20
15.236599999999726
 30
0.0
 11
-194.79227999999966
 21
15.644119999999475
 31
0.0
  0
LINE
  5
25C
100
AcDbEntity
  8
001
370
               5
390
0
 62
               7
100
AcDbLine
 10
-194.38487999999961
 20
14.25
 30
0.0
 11
-194.38487999999961
 21
15.236599999999726
 31
0.0
  0
LINE
  5
25D
100
AcDbEntity
  8
001
370
               5
390
0
 62
               7
100
AcDbLine
 10
-194.38487999999961
 20
14.25
 30
0.0
 11
-193.94880000000012
 21
14.25
 31
0.0
  0
LINE
  5
25E
100
AcDbEntity
  8
001
370
               5
390
0
 62
               7
100
AcDbLine
 10
-193.59288000000015
 20
14.25
 30
0.0
 11
-193.94880000000012
 21
14.25
 31
0.0
  0
LINE
  5
25F
100
AcDbEntity
  8
001
370
               5
390
0
 62
               7
100
AcDbLine
 10
-193.59288000000015
 20
14.250119999999697
 30
0.0
 11
-193.59288000000015
 21
15.156599999999798
 31
0.0
  0
LINE
  5
260
100
AcDbEntity
  8
001
370
               5
390
0
 62
               7
100
AcDbLine
 10
-193.1854000000003
 20
15.563999999999851
 30
0.0
 11
-193.59267999999975
 21
15.156599999999798
 31
0.0
  0
LINE
  5
261
100
AcDbEntity
  8
001
370
               5
390
0
 62
               7
100
AcDbLine
 10
-192.19880000000012
 20
15.563999999999851
 30
0.0
 11
-193.1854000000003
 21
15.563999999999851
 31
0.0
  0
LINE
  5
262
100
AcDbEntity
  8
001
370
               5
390
0
 62
               7
100
AcDbLine
 10
-192.19880000000012
 20
15.563999999999851
 30
0.0
 11
-192.19880000000012
 21
16.0
 31
0.0
  0
CIRCLE
  5
263
100
AcDbEntity
  8
001
370
               5
390
0
 62
               7
100
AcDbCircle
 10
-233.78607999999986
 20
-53.0
 30
0.0
 40
3.5
  0
LINE
  5
264
100
AcDbEntity
  8
001
370
               5
390
0
 62
               7
100
AcDbLine
 10
-234.14199999999983
 20
-51.25
 30
0.0
 11
-234.14199999999983
 21
-52.156280000000152
 31
0.0
  0
LINE
  5
265
100
AcDbEntity
  8
001
370
               5
390
0
 62
               7
100
AcDbLine
 10
-234.14199999999983
 20
-51.25
 30
0.0
 11
-233.78607999999986
 21
-51.25
 31
0.0
  0
LINE
  5
266
100
AcDbEntity
  8
001
370
               5
390
0
 62
               7
100
AcDbLine
 10
-235.53607999999986
 20
-52.563880000000154
 30
0.0
 11
-234.54947999999968
 21
-52.563880000000154
 31
0.0
  0
LINE
  5
267
100
AcDbEntity
  8
001
370
               5
390
0
 62
               7
100
AcDbLine
 10
-235.53607999999986
 20
-52.563880000000154
 30
0.0
 11
-235.53607999999986
 21
-53.0
 31
0.0
  0
LINE
  5
268
100
AcDbEntity
  8
001
370
               5
390
0
 62
               7
100
AcDbLine
 10
-234.54947999999968
 20
-52.563880000000154
 30
0.0
 11
-234.14199999999983
 21
-52.156480000000101
 31
0.0
  0
LINE
  5
269
100
AcDbEntity
  8
001
370
               5
390
0
 62
               7
100
AcDbLine
 10
-232.03607999999986
 20
-52.644000000000233
 30
0.0
 11
-232.03607999999986
 21
-53.0
 31
0.0
  0
LINE
  5
26A
100
AcDbEntity
  8
001
370
               5
390
0
 62
               7
100
AcDbLine
 10
-232.03607999999986
 20
-52.643800000000283
 30
0.0
 11
-232.94228000000021
 21
-52.643800000000283
 31
0.0
  0
LINE
  5
26B
100
AcDbEntity
  8
001
370
               5
390
0
 62
               7
100
AcDbLine
 10
-233.35000000000036
 20
-52.236480000000029
 30
0.0
 11
-232.9424799999997
 21
-52.643800000000283
 31
0.0
  0
LINE
  5
26C
100
AcDbEntity
  8
001
370
               5
390
0
 62
               7
100
AcDbLine
 10
-233.35000000000036
 20
-51.249880000000303
 30
0.0
 11
-233.35000000000036
 21
-52.236480000000029
 31
0.0
  0
LINE
  5
26D
100
AcDbEntity
  8
001
370
               5
390
0
 62
               7
100
AcDbLine
 10
-233.35000000000036
 20
-51.25
 30
0.0
 11
-233.78607999999986
 21
-51.25
 31
0.0
  0
LINE
  5
26E
100
AcDbEntity
  8
001
370
               5
390
0
 62
               7
100
AcDbLine
 10
-235.53588000000036
 20
-53.355880000000525
 30
0.0
 11
-234.6294799999996
 21
-53.355880000000525
 31
0.0
  0
LINE
  5
26F
100
AcDbEntity
  8
001
370
               5
390
0
 62
               7
100
AcDbLine
 10
-235.53607999999986
 20
-53.355880000000525
 30
0.0
 11
-235.53607999999986
 21
-53.0
 31
0.0
  0
LINE
  5
270
100
AcDbEntity
  8
001
370
               5
390
0
 62
               7
100
AcDbLine
 10
-234.22199999999975
 20
-53.763400000000274
 30
0.0
 11
-234.6294799999996
 21
-53.355880000000525
 31
0.0
  0
LINE
  5
271
100
AcDbEntity
  8
001
370
               5
390
0
 62
               7
100
AcDbLine
 10
-234.22199999999975
 20
-54.75
 30
0.0
 11
-234.22199999999975
 21
-53.763400000000274
 31
0.0
  0
LINE
  5
272
100
AcDbEntity
  8
001
370
               5
390
0
 62
               7
100
AcDbLine
 10
-234.22199999999975
 20
-54.75
 30
0.0
 11
-233.78607999999986
 21
-54.75
 31
0.0
  0
LINE
  5
273
100
AcDbEntity
  8
001
370
               5
390
0
 62
               7
100
AcDbLine
 10
-233.42999999999938
 20
-54.75
 30
0.0
 11
-233.78607999999986
 21
-54.75
 31
0.0
  0
LINE
  5
274
100
AcDbEntity
  8
001
370
               5
390
0
 62
               7
100
AcDbLine
 10
-233.42979999999989
 20
-54.749880000000303
 30
0.0
 11
-233.42979999999989
 21
-53.843400000000202
 31
0.0
  0
LINE
  5
275
100
AcDbEntity
  8
001
370
               5
390
0
 62
               7
100
AcDbLine
 10
-233.02247999999963
 20
-53.436000000000149
 30
0.0
 11
-233.42979999999989
 21
-53.843400000000202
 31
0.0
  0
LINE
  5
276
100
AcDbEntity
  8
001
370
               5
390
0
 62
               7
100
AcDbLine
 10
-232.03588000000036
 20
-53.436000000000149
 30
0.0
 11
-233.02247999999963
 21
-53.436000000000149
 31
0.0
  0
LINE
  5
277
100
AcDbEntity
  8
001
370
               5
390
0
 62
               7
100
AcDbLine
 10
-232.03607999999986
 20
-53.436000000000149
 30
0.0
 11
-232.03607999999986
 21
-53.0
 31
0.0
  0
CIRCLE
  5
278
100
AcDbEntity
  8
001
370
               5
390
0
 62
               7
100
AcDbCircle
 10
-154.11160000000018
 20
-53.0
 30
0.0
 40
3.5
  0
LINE
  5
279
100
AcDbEntity
  8
001
370
               5
390
0
 62
               7
100
AcDbLine
 10
-154.46767999999975
 20
-51.25
 30
0.0
 11
-154.46767999999975
 21
-52.156280000000152
 31
0.0
  0
LINE
  5
27A
100
AcDbEntity
  8
001
370
               5
390
0
 62
               7
100
AcDbLine
 10
-154.46767999999975
 20
-51.25
 30
0.0
 11
-154.11160000000018
 21
-51.25
 31
0.0
  0
LINE
  5
27B
100
AcDbEntity
  8
001
370
               5
390
0
 62
               7
100
AcDbLine
 10
-155.86179999999968
 20
-52.563880000000154
 30
0.0
 11
-154.8752000000004
 21
-52.563880000000154
 31
0.0
  0
LINE
  5
27C
100
AcDbEntity
  8
001
370
               5
390
0
 62
               7
100
AcDbLine
 10
-155.86160000000018
 20
-52.563880000000154
 30
0.0
 11
-155.86160000000018
 21
-53.0
 31
0.0
  0
LINE
  5
27D
100
AcDbEntity
  8
001
370
               5
390
0
 62
               7
100
AcDbLine
 10
-154.8752000000004
 20
-52.563880000000154
 30
0.0
 11
-154.46767999999975
 21
-52.156480000000101
 31
0.0
  0
LINE
  5
27E
100
AcDbEntity
  8
001
370
               5
390
0
 62
               7
100
AcDbLine
 10
-152.36160000000018
 20
-52.644000000000233
 30
0.0
 11
-152.36160000000018
 21
-53.0
 31
0.0
  0
LINE
  5
27F
100
AcDbEntity
  8
001
370
               5
390
0
 62
               7
100
AcDbLine
 10
-152.36179999999968
 20
-52.643800000000283
 30
0.0
 11
-153.26800000000003
 21
-52.643800000000283
 31
0.0
  0
LINE
  5
280
100
AcDbEntity
  8
001
370
               5
390
0
 62
               7
100
AcDbLine
 10
-153.67567999999937
 20
-52.236480000000029
 30
0.0
 11
-153.26820000000043
 21
-52.643800000000283
 31
0.0
  0
LINE
  5
281
100
AcDbEntity
  8
001
370
               5
390
0
 62
               7
100
AcDbLine
 10
-153.67567999999937
 20
-51.249880000000303
 30
0.0
 11
-153.67567999999937
 21
-52.236480000000029
 31
0.0
  0
LINE
  5
282
100
AcDbEntity
  8
001
370
               5
390
0
 62
               7
100
AcDbLine
 10
-153.67567999999937
 20
-51.25
 30
0.0
 11
-154.11160000000018
 21
-51.25
 31
0.0
  0
LINE
  5
283
100
AcDbEntity
  8
001
370
               5
390
0
 62
               7
100
AcDbLine
 10
-155.86160000000018
 20
-53.355880000000525
 30
0.0
 11
-154.95519999999942
 21
-53.355880000000525
 31
0.0
  0
LINE
  5
284
100
AcDbEntity
  8
001
370
               5
390
0
 62
               7
100
AcDbLine
 10
-155.86160000000018
 20
-53.355880000000525
 30
0.0
 11
-155.86160000000018
 21
-53.0
 31
0.0
  0
LINE
  5
285
100
AcDbEntity
  8
001
370
               5
390
0
 62
               7
100
AcDbLine
 10
-154.54767999999967
 20
-53.763400000000274
 30
0.0
 11
-154.95519999999942
 21
-53.355880000000525
 31
0.0
  0
LINE
  5
286
100
AcDbEntity
  8
001
370
               5
390
0
 62
               7
100
AcDbLine
 10
-154.54747999999927
 20
-54.75
 30
0.0
 11
-154.54747999999927
 21
-53.763400000000274
 31
0.0
  0
LINE
  5
287
100
AcDbEntity
  8
001
370
               5
390
0
 62
               7
100
AcDbLine
 10
-154.54747999999927
 20
-54.75
 30
0.0
 11
-154.11160000000018
 21
-54.75
 31
0.0
  0
LINE
  5
288
100
AcDbEntity
  8
001
370
               5
390
0
 62
               7
100
AcDbLine
 10
-153.75547999999981
 20
-54.75
 30
0.0
 11
-154.11160000000018
 21
-54.75
 31
0.0
  0
LINE
  5
289
100
AcDbEntity
  8
001
370
               5
390
0
 62
               7
100
AcDbLine
 10
-153.75547999999981
 20
-54.749880000000303
 30
0.0
 11
-153.75547999999981
 21
-53.843400000000202
 31
0.0
  0
LINE
  5
28A
100
AcDbEntity
  8
001
370
               5
390
0
 62
               7
100
AcDbLine
 10
-153.34819999999945
 20
-53.436000000000149
 30
0.0
 11
-153.75547999999981
 21
-53.843400000000202
 31
0.0
  0
LINE
  5
28B
100
AcDbEntity
  8
001
370
               5
390
0
 62
               7
100
AcDbLine
 10
-152.36160000000018
 20
-53.436000000000149
 30
0.0
 11
-153.34819999999945
 21
-53.436000000000149
 31
0.0
  0
LINE
  5
28C
100
AcDbEntity
  8
001
370
               5
390
0
 62
               7
100
AcDbLine
 10
-152.36160000000018
 20
-53.436000000000149
 30
0.0
 11
-152.36160000000018
 21
-53.0
 31
0.0
  0
CIRCLE
  5
28D
100
AcDbEntity
  8
001
370
               5
390
0
 62
               7
100
AcDbCircle
 10
-154.11160000000018
 20
-53.0
 30
0.0
 40
4.0
  0
CIRCLE
  5
28E
100
AcDbEntity
  8
001
370
               5
390
0
 62
               7
100
AcDbCircle
 10
-233.78607999999986
 20
-53.0
 30
0.0
 40
4.0
  0
CIRCLE
  5
28F
100
AcDbEntity
  8
001
370
               5
390
0
 62
               7
100
AcDbCircle
 10
-193.94880000000012
 20
16.0
 30
0.0
 40
4.0
  0
ARC
  5
290
100
AcDbEntity
  8
001
370
               5
390
0
 62
               7
100
AcDbCircle
 10
-193.94880000000012
 20
-30.0
 30
0.0
 40
54.184757547693863
100
AcDbArc
 50
103.739383604031
 51
157.33381701708703
  0
ARC
  5
291
100
AcDbEntity
  8
001
370
               5
390
0
 62
               7
100
AcDbCircle
 10
-193.94880000000012
 20
-30.0
 30
0.0
 40
54.184765670435539
100
AcDbArc
 50
215.7046306714023
 51
231.13536430553282
  0
ARC
  5
292
100
AcDbEntity
  8
001
370
               5
390
0
 62
               7
100
AcDbCircle
 10
-193.94880000000012
 20
-30.0
 30
0.0
 40
54.184832748658025
100
AcDbArc
 50
308.86458261377697
 51
324.29530063590795
  0
LINE
  5
293
100
AcDbEntity
  8
001
370
               5
390
0
 62
               7
100
AcDbLine
 10
-149.94880000000012
 20
-61.622600000000148
 30
0.0
 11
-148.94880000000012
 21
-61.622600000000148
 31
0.0
  0
LINE
  5
294
100
AcDbEntity
  8
001
370
               5
390
0
 62
               7
100
AcDbLine
 10
-160.94880000000012
 20
-74.0
 30
0.0
 11
-159.94880000000012
 21
-72.190000000000509
 31
0.0
  0
LINE
  5
295
100
AcDbEntity
  8
001
370
               5
390
0
 62
               7
100
AcDbLine
 10
-226.94880000000012
 20
-74.0
 30
0.0
 11
-227.94880000000012
 21
-72.190000000000509
 31
0.0
  0
LINE
  5
296
100
AcDbEntity
  8
001
370
               5
390
0
 62
               7
100
AcDbLine
 10
-238.94880000000012
 20
-61.622600000000148
 30
0.0
 11
-237.94880000000012
 21
-61.622600000000148
 31
0.0
  0
LINE
  5
297
100
AcDbEntity
  8
001
370
               5
390
0
 62
               7
100
AcDbLine
 10
-237.94880000000012
 20
-84.999880000000303
 30
0.0
 11
-237.94880000000012
 21
-61.622600000000148
 31
0.0
  0
LINE
  5
298
100
AcDbEntity
  8
001
370
               5
390
0
 62
               7
100
AcDbLine
 10
-227.94880000000012
 20
-85.0
 30
0.0
 11
-227.94880000000012
 21
-72.190000000000509
 31
0.0
  0
LINE
  5
299
100
AcDbEntity
  8
001
370
               5
390
0
 62
               7
100
AcDbLine
 10
-159.94880000000012
 20
-84.999880000000303
 30
0.0
 11
-159.94880000000012
 21
-71.952280000000428
 31
0.0
  0
LINE
  5
29A
100
AcDbEntity
  8
001
370
               5
390
0
 62
               7
100
AcDbLine
 10
-149.94880000000012
 20
-84.999880000000303
 30
0.0
 11
-149.94880000000012
 21
-61.622600000000148
 31
0.0
  0
ARC
  5
29B
100
AcDbEntity
  8
001
370
               5
390
0
 62
               7
100
AcDbCircle
 10
-193.94880000000012
 20
-30.0
 30
0.0
 40
54.184836141902338
100
AcDbArc
 50
22.666150383997227
 51
76.260503182806701
  0
ARC
  5
29C
100
AcDbEntity
  8
001
370
               5
390
0
 62
               7
100
AcDbCircle
 10
-193.94880000000012
 20
-30.0
 30
0.0
 40
54.000009624191819
100
AcDbArc
 50
103.79439626729032
 51
76.205562515515282
  0
ARC
  5
29D
100
AcDbEntity
  8
001
370
               5
390
0
  6
STYLE_13
 62
               7
100
AcDbCircle
 10
-193.94880000000012
 20
-30.0
 30
0.0
 40
45.999915400079232
100
AcDbArc
 50
322.96655476533914
 51
337.18985109449011
  0
ARC
  5
29E
100
AcDbEntity
  8
001
370
               5
390
0
  6
STYLE_13
 62
               7
100
AcDbCircle
 10
-193.94880000000012
 20
-30.0
 30
0.0
 40
46.000051126023898
100
AcDbArc
 50
201.98677847952095
 51
217.35798322676638
  0
ARC
  5
29F
100
AcDbEntity
  8
001
370
               5
390
0
  6
STYLE_13
 62
               7
100
AcDbCircle
 10
-193.94880000000012
 20
-30.0
 30
0.0
 40
46.000042887370931
100
AcDbArc
 50
85.011462687215754
 51
94.98853731278426
  0
LINE
  5
2A0
100
AcDbEntity
  8
001
370
               5
390
0
 62
               7
100
AcDbLine
 10
144.48420000000078
 20
-89.700000000000273
 30
0.0
 11
210.48420000000078
 21
-89.700000000000273
 31
0.0
  0
LINE
  5
2A1
100
AcDbEntity
  8
001
370
               5
390
0
  6
STYLE_12
 62
               7
100
AcDbLine
 10
-149.14879999999994
 20
-87.300000000000182
 30
0.0
 11
-148.94880000000012
 21
-87.300000000000182
 31
0.0
  0
LINE
  5
2A2
100
AcDbEntity
  8
001
370
               5
390
0
  6
STYLE_12
 62
               7
100
AcDbLine
 10
-149.14879999999994
 20
-85.0
 30
0.0
 11
-148.94880000000012
 21
-85.0
 31
0.0
  0
LINE
  5
2A3
100
AcDbEntity
  8
001
370
               5
390
0
  6
STYLE_12
 62
               7
100
AcDbLine
 10
-146.54879999999957
 20
-87.600000000000364
 30
0.0
 11
-146.54879999999957
 21
-87.0
 31
0.0
  0
LINE
  5
2A4
100
AcDbEntity
  8
001
370
               5
390
0
  6
STYLE_12
 62
               7
100
AcDbLine
 10
-238.64879999999994
 20
-89.400000000000091
 30
0.0
 11
-238.64879999999994
 21
-90.0
 31
0.0
  0
LINE
  5
2A5
100
AcDbEntity
  8
001
370
               5
390
0
  6
STYLE_12
 62
               7
100
AcDbLine
 10
-241.24879999999939
 20
-92.0
 30
0.0
 11
-241.04879999999957
 21
-92.0
 31
0.0
  0
LINE
  5
2A6
100
AcDbEntity
  8
001
370
               5
390
0
  6
STYLE_12
 62
               7
100
AcDbLine
 10
-238.34879999999976
 20
-85.0
 30
0.0
 11
-238.94880000000012
 21
-85.0
 31
0.0
  0
LINE
  5
2A7
100
AcDbEntity
  8
001
370
               5
390
0
  6
STYLE_12
 62
               7
100
AcDbLine
 10
-135.44880000000012
 20
-89.700000000000273
 30
0.0
 11
-135.44880000000012
 21
-92.0
 31
0.0
  0
LINE
  5
2A8
100
AcDbEntity
  8
001
370
               5
390
0
  6
STYLE_12
 62
               7
100
AcDbLine
 10
-142.44880000000012
 20
-89.700000000000273
 30
0.0
 11
-142.44880000000012
 21
-92.0
 31
0.0
  0
LINE
  5
2A9
100
AcDbEntity
  8
001
370
               5
390
0
  6
STYLE_12
 62
               7
100
AcDbLine
 10
-252.44880000000012
 20
-89.700000000000273
 30
0.0
 11
-252.44880000000012
 21
-92.0
 31
0.0
  0
LINE
  5
2AA
100
AcDbEntity
  8
001
370
               5
390
0
  6
STYLE_12
 62
               7
100
AcDbLine
 10
-245.44880000000012
 20
-89.700000000000273
 30
0.0
 11
-245.44880000000012
 21
-92.0
 31
0.0
  0
LINE
  5
2AB
100
AcDbEntity
  8
001
370
               5
390
0
 62
               7
100
AcDbLine
 10
87.39411999999993
 20
90.0
 30
0.0
 11
89.994120000000294
 21
90.0
 31
0.0
  0
LINE
  5
2AC
100
AcDbEntity
  8
001
370
               5
390
0
 62
               7
100
AcDbLine
 10
-146.24879999999939
 20
-89.700000000000273
 30
0.0
 11
-128.94880000000012
 21
-89.700000000000273
 31
0.0
  0
LINE
  5
2AD
100
AcDbEntity
  8
001
370
               5
390
0
 62
               7
100
AcDbLine
 10
-146.24879999999939
 20
-92.0
 30
0.0
 11
-128.94880000000012
 21
-92.0
 31
0.0
  0
ARC
  5
2AE
100
AcDbEntity
  8
001
370
               5
390
0
 62
               7
100
AcDbCircle
 10
-146.24879999999939
 20
-89.400000000000091
 30
0.0
 40
2.6000000000003638
100
AcDbArc
 50
180.0
 51
270.0
  0
LINE
  5
2AF
100
AcDbEntity
  8
001
370
               5
390
0
 62
               7
100
AcDbLine
 10
-146.54879999999957
 20
-87.600000000000364
 30
0.0
 11
-146.54879999999957
 21
-89.400000000000091
 31
0.0
  0
ARC
  5
2B0
100
AcDbEntity
  8
001
370
               5
390
0
 62
               7
100
AcDbCircle
 10
-149.14879999999994
 20
-87.600000000000364
 30
0.0
 40
2.6000000000003638
100
AcDbArc
 50
0.0
 51
90.0
  0
LINE
  5
2B1
100
AcDbEntity
  8
001
370
               5
390
0
 62
               7
100
AcDbLine
 10
-149.14879999999994
 20
-87.300000000000182
 30
0.0
 11
-238.34879999999976
 21
-87.300000000000182
 31
0.0
  0
LINE
  5
2B2
100
AcDbEntity
  8
001
370
               5
390
0
 62
               7
100
AcDbLine
 10
-148.84879999999976
 20
-89.400000000000091
 30
0.0
 11
-148.84879999999976
 21
-87.600000000000364
 31
0.0
  0
LINE
  5
2B3
100
AcDbEntity
  8
001
370
               5
390
0
 62
               7
100
AcDbLine
 10
-238.64879999999994
 20
-89.400000000000091
 30
0.0
 11
-238.64879999999994
 21
-87.600000000000364
 31
0.0
  0
ARC
  5
2B4
100
AcDbEntity
  8
001
370
               5
390
0
 62
               7
100
AcDbCircle
 10
-241.24879999999939
 20
-89.400000000000091
 30
0.0
 40
2.5999999999999091
100
AcDbArc
 50
270.0
 51
0.0
  0
ARC
  5
2B5
100
AcDbEntity
  8
001
370
               5
390
0
 62
               7
100
AcDbCircle
 10
-238.34879999999976
 20
-87.600000000000364
 30
0.0
 40
0.3000000000001819
100
AcDbArc
 50
90.0
 51
180.0
  0
LINE
  5
2B6
100
AcDbEntity
  8
001
370
               5
390
0
 62
               7
100
AcDbLine
 10
-241.24879999999939
 20
-92.0
 30
0.0
 11
-258.94880000000012
 21
-92.0
 31
0.0
  0
LINE
  5
2B7
100
AcDbEntity
  8
001
370
               5
390
0
 62
               7
100
AcDbLine
 10
-241.94880000000012
 20
-89.700000000000273
 30
0.0
 11
-258.94880000000012
 21
-89.700000000000273
 31
0.0
  0
ARC
  5
2B8
100
AcDbEntity
  8
001
370
               5
390
0
 62
               7
100
AcDbCircle
 10
-241.94880000000012
 20
-88.700000000000273
 30
0.0
 40
1.0
100
AcDbArc
 50
270.0
 51
0.0
  0
LINE
  5
2B9
100
AcDbEntity
  8
001
370
               5
390
0
  6
STYLE_12
 62
               7
100
AcDbLine
 10
-240.94880000000012
 20
-87.600000000000364
 30
0.0
 11
-240.94880000000012
 21
-87.0
 31
0.0
  0
ARC
  5
2BA
100
AcDbEntity
  8
001
370
               5
390
0
 62
               7
100
AcDbCircle
 10
-238.34879999999976
 20
-87.600000000000364
 30
0.0
 40
2.6000000000003638
100
AcDbArc
 50
90.0
 51
180.0
  0
LINE
  5
2BB
100
AcDbEntity
  8
001
370
               5
390
0
 62
               7
100
AcDbLine
 10
-238.34879999999976
 20
-85.0
 30
0.0
 11
-149.14879999999994
 21
-85.0
 31
0.0
  0
ARC
  5
2BC
100
AcDbEntity
  8
001
370
               5
390
0
 62
               7
100
AcDbCircle
 10
-149.14879999999994
 20
-87.600000000000364
 30
0.0
 40
0.3000000000001819
100
AcDbArc
 50
0.0
 51
90.0
  0
ARC
  5
2BD
100
AcDbEntity
  8
001
370
               5
390
0
 62
               7
100
AcDbCircle
 10
-146.24879999999939
 20
-89.400000000000091
 30
0.0
 40
0.3000000000001819
100
AcDbArc
 50
180.0
 51
270.0
  0
LINE
  5
2BE
100
AcDbEntity
  8
001
370
               5
390
0
  6
STYLE_13
 62
               7
100
AcDbLine
 10
-138.94880000000012
 20
-81.789800000000469
 30
0.0
 11
-138.94880000000012
 21
-100.5612799999999
 31
0.0
  0
LINE
  5
2BF
100
AcDbEntity
  8
001
370
               5
390
0
  6
STYLE_13
 62
               7
100
AcDbLine
 10
-193.94880000000012
 20
93.851519999999709
 30
0.0
 11
-193.94880000000012
 21
-95.195000000000164
 31
0.0
  0
LINE
  5
2C0
100
AcDbEntity
  8
001
370
               5
390
0
  6
STYLE_13
 62
               7
100
AcDbLine
 10
-248.94880000000012
 20
-85.827280000000428
 30
0.0
 11
-248.94880000000012
 21
-102.5630000000001
 31
0.0
  0
LINE
  5
2C1
100
AcDbEntity
  8
001
370
               5
390
0
  6
STYLE_13
 62
               7
100
AcDbLine
 10
-306.55580000000009
 20
-30.0
 30
0.0
 11
293.44419999999991
 21
-30.0
 31
0.0
  0
LINE
  5
2C2
100
AcDbEntity
  8
001
370
               5
390
0
  6
STYLE_09
 62
               7
100
AcDbLine
 10
157.48420000000078
 20
-78.604880000000321
 30
0.0
 11
157.48420000000078
 21
-104.60488000000032
 31
0.0
  0
LINE
  5
2C3
100
AcDbEntity
  8
001
370
               5
390
0
  6
STYLE_09
 62
               7
100
AcDbLine
 10
197.48420000000078
 20
-78.241480000000593
 30
0.0
 11
197.48420000000078
 21
-104.24148000000059
 31
0.0
  0
LINE
  5
2C4
100
AcDbEntity
  8
001
370
               5
390
0
  6
STYLE_13
 62
               7
100
AcDbLine
 10
48.546000000000276
 20
69.996599999999489
 30
0.0
 11
103.83460000000014
 21
69.996599999999489
 31
0.0
  0
LINE
  5
2C5
100
AcDbEntity
  8
001
370
               5
390
0
  6
STYLE_13
 62
               7
100
AcDbLine
 10
78.89411999999993
 20
77.856719999999768
 30
0.0
 11
78.89411999999993
 21
62.179799999999886
 31
0.0
  0
LINE
  5
2C6
100
AcDbEntity
  8
001
370
               5
390
0
  6
STYLE_13
 62
               7
100
AcDbLine
 10
-152.85548000000017
 20
25.0
 30
0.0
 11
-128.29947999999968
 21
25.0
 31
0.0
  0
LINE
  5
2C7
100
AcDbEntity
  8
001
370
               5
390
0
  6
STYLE_13
 62
               7
100
AcDbLine
 10
-261.53888000000006
 20
25.0
 30
0.0
 11
-241.24159999999938
 21
25.0
 31
0.0
  0
LINE
  5
2C8
100
AcDbEntity
  8
001
370
               5
390
0
 62
               7
100
AcDbLine
 10
275.48400000000038
 20
-72.0
 30
0.0
 11
275.48400000000038
 21
-80.0
 31
0.0
  0
LINE
  5
2C9
100
AcDbEntity
  8
001
370
               5
390
0
 62
               7
100
AcDbLine
 10
277.46300000000065
 20
-72.5
 30
0.0
 11
276.48400000000038
 21
-72.5
 31
0.0
  0
ARC
  5
2CA
100
AcDbEntity
  8
001
370
               5
390
0
 62
               7
100
AcDbCircle
 10
270.08400000000074
 20
-76.0
 30
0.0
 40
9.0000746089345931
100
AcDbArc
 50
343.39878181154324
 51
16.602023037157721
  0
ARC
  5
2CB
100
AcDbEntity
  8
001
370
               5
390
0
 62
               7
100
AcDbCircle
 10
277.46300000000065
 20
-73.800000000000182
 30
0.0
 40
1.3001322074305532
100
AcDbArc
 50
16.604017001768081
 51
89.998237215699007
  0
LINE
  5
2CC
100
AcDbEntity
  8
001
370
               5
390
0
 62
               7
100
AcDbLine
 10
276.48400000000038
 20
-72.200000000000273
 30
0.0
 11
276.48400000000038
 21
-79.800000000000182
 31
0.0
  0
LINE
  5
2CD
100
AcDbEntity
  8
001
370
               5
390
0
 62
               7
100
AcDbLine
 10
276.48400000000038
 20
-72.200000000000273
 30
0.0
 11
275.48400000000038
 21
-72.200000000000273
 31
0.0
  0
LINE
  5
2CE
100
AcDbEntity
  8
001
370
               5
390
0
 62
               7
100
AcDbLine
 10
278.48472000000038
 20
-74.864800000000287
 30
0.0
 11
279.08400000000074
 21
-75.999880000000303
 31
0.0
  0
ARC
  5
2CF
100
AcDbEntity
  8
001
370
               5
390
0
 62
               7
100
AcDbCircle
 10
277.46300000000065
 20
-78.200000000000273
 30
0.0
 40
1.2999999999997272
100
AcDbArc
 50
270.0
 51
343.39954003916938
  0
LINE
  5
2D0
100
AcDbEntity
  8
001
370
               5
390
0
 62
               7
100
AcDbLine
 10
277.46300000000065
 20
-79.5
 30
0.0
 11
276.48400000000038
 21
-79.5
 31
0.0
  0
LINE
  5
2D1
100
AcDbEntity
  8
001
370
               5
390
0
 62
               7
100
AcDbLine
 10
276.48400000000038
 20
-79.800000000000182
 30
0.0
 11
275.48400000000038
 21
-79.800000000000182
 31
0.0
  0
LINE
  5
2D2
100
AcDbEntity
  8
001
370
               5
390
0
 62
               7
100
AcDbLine
 10
278.48472000000038
 20
-76.984879999999976
 30
0.0
 11
279.08400000000074
 21
-76.0
 31
0.0
  0
ARC
  5
2D3
100
AcDbEntity
  8
001
370
               5
390
0
 62
               7
100
AcDbCircle
 10
213.08420000000024
 20
15.0
 30
0.0
 40
8.9999596110210458
100
AcDbArc
 50
343.39856354516434
 51
16.602241313917489
  0
LINE
  5
2D4
100
AcDbEntity
  8
001
370
               5
390
0
 62
               7
100
AcDbLine
 10
221.48472000000038
 20
16.135199999999713
 30
0.0
 11
222.08420000000024
 21
15.000119999999697
 31
0.0
  0
LINE
  5
2D5
100
AcDbEntity
  8
001
370
               5
390
0
 62
               7
100
AcDbLine
 10
221.48472000000038
 20
14.015120000000024
 30
0.0
 11
222.08420000000024
 21
15.0
 31
0.0
  0
ARC
  5
2D6
100
AcDbEntity
  8
001
370
               5
390
0
 62
               7
100
AcDbCircle
 10
220.46320000000014
 20
12.799999999999727
 30
0.0
 40
1.2999999999997272
100
AcDbArc
 50
270.0
 51
343.39954003916938
  0
LINE
  5
2D7
100
AcDbEntity
  8
001
370
               5
390
0
 62
               7
100
AcDbLine
 10
219.48420000000078
 20
18.799999999999727
 30
0.0
 11
219.48420000000078
 21
11.199999999999818
 31
0.0
  0
LINE
  5
2D8
100
AcDbEntity
  8
001
370
               5
390
0
 62
               7
100
AcDbLine
 10
220.46320000000014
 20
11.5
 30
0.0
 11
219.48420000000078
 21
11.5
 31
0.0
  0
LINE
  5
2D9
100
AcDbEntity
  8
001
370
               5
390
0
 62
               7
100
AcDbLine
 10
219.48420000000078
 20
11.199999999999818
 30
0.0
 11
218.48420000000078
 21
11.199999999999818
 31
0.0
  0
ARC
  5
2DA
100
AcDbEntity
  8
001
370
               5
390
0
 62
               7
100
AcDbCircle
 10
220.46320000000014
 20
17.199999999999818
 30
0.0
 40
1.3000172115788562
100
AcDbArc
 50
16.605528297490213
 51
89.998237052913666
  0
LINE
  5
2DB
100
AcDbEntity
  8
001
370
               5
390
0
 62
               7
100
AcDbLine
 10
220.46320000000014
 20
18.5
 30
0.0
 11
219.48420000000078
 21
18.5
 31
0.0
  0
LINE
  5
2DC
100
AcDbEntity
  8
001
370
               5
390
0
 62
               7
100
AcDbLine
 10
219.48420000000078
 20
18.799999999999727
 30
0.0
 11
218.48420000000078
 21
18.799999999999727
 31
0.0
  0
LINE
  5
2DD
100
AcDbEntity
  8
001
370
               5
390
0
 62
               7
100
AcDbLine
 10
97.994120000000294
 20
-37.624880000000303
 30
0.0
 11
95.234200000000783
 21
-38.963680000000295
 31
0.0
  0
LINE
  5
2DE
100
AcDbEntity
  8
001
370
               5
390
0
 62
               7
100
AcDbLine
 10
95.234200000000783
 20
-36.20260000000053
 30
0.0
 11
97.994120000000294
 21
-37.624880000000303
 31
0.0
  0
LINE
  5
2DF
100
AcDbEntity
  8
001
370
               5
390
0
 62
               7
100
AcDbLine
 10
97.994120000000294
 20
-34.712480000000141
 30
0.0
 11
95.234200000000783
 21
-36.20260000000053
 31
0.0
  0
LINE
  5
2E0
100
AcDbEntity
  8
001
370
               5
390
0
 62
               7
100
AcDbLine
 10
95.234200000000783
 20
-33.170480000000225
 30
0.0
 11
97.994120000000294
 21
-34.712400000000343
 31
0.0
  0
LINE
  5
2E1
100
AcDbEntity
  8
001
370
               5
390
0
 62
               7
100
AcDbLine
 10
97.994120000000294
 20
-31.594000000000051
 30
0.0
 11
95.234200000000783
 21
-33.170480000000225
 31
0.0
  0
LINE
  5
2E2
100
AcDbEntity
  8
001
370
               5
390
0
 62
               7
100
AcDbLine
 10
95.234200000000783
 20
-30.0
 30
0.0
 11
97.994120000000294
 21
-31.594000000000051
 31
0.0
  0
LINE
  5
2E3
100
AcDbEntity
  8
001
370
               5
390
0
 62
               7
100
AcDbLine
 10
95.234200000000783
 20
-29.999880000000303
 30
0.0
 11
97.994120000000294
 21
-28.405880000000252
 31
0.0
  0
LINE
  5
2E4
100
AcDbEntity
  8
001
370
               5
390
0
 62
               7
100
AcDbLine
 10
97.994120000000294
 20
-28.405880000000252
 30
0.0
 11
95.234200000000783
 21
-26.829200000000128
 31
0.0
  0
LINE
  5
2E5
100
AcDbEntity
  8
001
370
               5
390
0
 62
               7
100
AcDbLine
 10
95.234200000000783
 20
-26.829200000000128
 30
0.0
 11
97.994120000000294
 21
-25.287480000000414
 31
0.0
  0
LINE
  5
2E6
100
AcDbEntity
  8
001
370
               5
390
0
 62
               7
100
AcDbLine
 10
97.994120000000294
 20
-25.287400000000162
 30
0.0
 11
95.234200000000783
 21
-23.797080000000278
 31
0.0
  0
LINE
  5
2E7
100
AcDbEntity
  8
001
370
               5
390
0
 62
               7
100
AcDbLine
 10
95.234200000000783
 20
-23.797080000000278
 30
0.0
 11
97.994120000000294
 21
-22.375
 31
0.0
  0
LINE
  5
2E8
100
AcDbEntity
  8
001
370
               5
390
0
 62
               7
100
AcDbLine
 10
97.994120000000294
 20
-22.375
 30
0.0
 11
95.234200000000783
 21
-21.036079999999856
 31
0.0
  0
LINE
  5
2E9
100
AcDbEntity
  8
001
370
               5
390
0
 62
               7
100
AcDbLine
 10
95.234200000000783
 20
-21.036280000000261
 30
0.0
 11
97.994120000000294
 21
-19.795680000000175
 31
0.0
  0
LINE
  5
2EA
100
AcDbEntity
  8
001
370
               5
390
0
 62
               7
100
AcDbLine
 10
97.994120000000294
 20
-19.795680000000175
 30
0.0
 11
95.234200000000783
 21
-18.667000000000371
 31
0.0
  0
LINE
  5
2EB
100
AcDbEntity
  8
001
370
               5
390
0
 62
               7
100
AcDbLine
 10
95.234200000000783
 20
-18.667000000000371
 30
0.0
 11
97.994120000000294
 21
-17.662400000000162
 31
0.0
  0
LINE
  5
2EC
100
AcDbEntity
  8
001
370
               5
390
0
 62
               7
100
AcDbLine
 10
97.994120000000294
 20
-17.662480000000414
 30
0.0
 11
95.234200000000783
 21
-16.793080000000373
 31
0.0
  0
LINE
  5
2ED
100
AcDbEntity
  8
001
370
               5
390
0
 62
               7
100
AcDbLine
 10
95.234200000000783
 20
-16.792880000000423
 30
0.0
 11
97.994120000000294
 21
-16.068400000000111
 31
0.0
  0
LINE
  5
2EE
100
AcDbEntity
  8
001
370
               5
390
0
 62
               7
100
AcDbLine
 10
97.994120000000294
 20
-16.068400000000111
 30
0.0
 11
95.234200000000783
 21
-15.496399999999994
 31
0.0
  0
LINE
  5
2EF
100
AcDbEntity
  8
001
370
               5
390
0
 62
               7
100
AcDbLine
 10
95.234200000000783
 20
-15.496399999999994
 30
0.0
 11
97.994120000000294
 21
-15.083200000000033
 31
0.0
  0
LINE
  5
2F0
100
AcDbEntity
  8
001
370
               5
390
0
 62
               7
100
AcDbLine
 10
97.994120000000294
 20
-15.083200000000033
 30
0.0
 11
95.234200000000783
 21
-14.833480000000236
 31
0.0
  0
LINE
  5
2F1
100
AcDbEntity
  8
001
370
               5
390
0
 62
               7
100
AcDbLine
 10
95.234200000000783
 20
-38.963600000000497
 30
0.0
 11
97.994120000000294
 21
-40.204200000000128
 31
0.0
  0
LINE
  5
2F2
100
AcDbEntity
  8
001
370
               5
390
0
 62
               7
100
AcDbLine
 10
97.994120000000294
 20
-40.204200000000128
 30
0.0
 11
95.234200000000783
 21
-41.333000000000538
 31
0.0
  0
LINE
  5
2F3
100
AcDbEntity
  8
001
370
               5
390
0
 62
               7
100
AcDbLine
 10
95.234200000000783
 20
-41.332800000000134
 30
0.0
 11
97.994120000000294
 21
-42.337480000000141
 31
0.0
  0
LINE
  5
2F4
100
AcDbEntity
  8
001
370
               5
390
0
 62
               7
100
AcDbLine
 10
97.994120000000294
 20
-42.337480000000141
 30
0.0
 11
95.234200000000783
 21
-43.20679999999993
 31
0.0
  0
LINE
  5
2F5
100
AcDbEntity
  8
001
370
               5
390
0
 62
               7
100
AcDbLine
 10
95.234200000000783
 20
-43.20679999999993
 30
0.0
 11
97.994120000000294
 21
-43.931480000000192
 31
0.0
  0
LINE
  5
2F6
100
AcDbEntity
  8
001
370
               5
390
0
 62
               7
100
AcDbLine
 10
97.994120000000294
 20
-43.931600000000344
 30
0.0
 11
95.234200000000783
 21
-44.503480000000309
 31
0.0
  0
LINE
  5
2F7
100
AcDbEntity
  8
001
370
               5
390
0
 62
               7
100
AcDbLine
 10
95.234200000000783
 20
-44.503480000000309
 30
0.0
 11
97.994120000000294
 21
-44.91668000000027
 31
0.0
  0
LINE
  5
2F8
100
AcDbEntity
  8
001
370
               5
390
0
 62
               7
100
AcDbLine
 10
97.994120000000294
 20
-44.91668000000027
 30
0.0
 11
95.234200000000783
 21
-45.16648000000032
 31
0.0
  0
LINE
  5
2F9
100
AcDbEntity
  8
001
370
               5
390
0
 62
               7
100
AcDbLine
 10
95.234200000000783
 20
-14.833480000000236
 30
0.0
 11
97.994120000000294
 21
-14.749880000000303
 31
0.0
  0
LINE
  5
2FA
100
AcDbEntity
  8
001
370
               5
390
0
 62
               7
100
AcDbLine
 10
95.234200000000783
 20
-45.16628000000037
 30
0.0
 11
97.994120000000294
 21
-45.25
 31
0.0
  0
ARC
  5
2FB
100
AcDbEntity
  8
001
370
               5
390
0
 62
               7
100
AcDbCircle
 10
104.23420000000078
 20
-16.057000000000244
 30
0.0
 40
1.0
100
AcDbArc
 50
180.0
 51
266.6359617861894
  0
LINE
  5
2FC
100
AcDbEntity
  8
001
370
               5
390
0
 62
               7
100
AcDbLine
 10
119.29291999999987
 20
-17.944480000000112
 30
0.0
 11
104.17551999999978
 21
-17.055400000000191
 31
0.0
  0
ARC
  5
2FD
100
AcDbEntity
  8
001
370
               5
390
0
 62
               7
100
AcDbCircle
 10
119.23420000000078
 20
-18.942880000000514
 30
0.0
 40
1.0
100
AcDbArc
 50
0.0
 51
86.63367391684227
  0
LINE
  5
2FE
100
AcDbEntity
  8
001
370
               5
390
0
 62
               7
100
AcDbLine
 10
120.23420000000078
 20
-18.0
 30
0.0
 11
115.23420000000078
 21
-16.0
 31
0.0
  0
LINE
  5
2FF
100
AcDbEntity
  8
001
370
               5
390
0
 62
               7
100
AcDbLine
 10
199.6842000000006
 20
57.0
 30
0.0
 11
207.28420000000006
 21
57.0
 31
0.0
  0
LINE
  5
300
100
AcDbEntity
  8
001
370
               5
390
0
 62
               7
100
AcDbLine
 10
-147.94880000000012
 20
55.0
 30
0.0
 11
-182.15899999999965
 21
55.0
 31
0.0
  0
LINE
  5
301
100
AcDbEntity
  8
001
370
               5
390
0
 62
               7
100
AcDbLine
 10
-239.94880000000012
 20
55.0
 30
0.0
 11
-205.73868000000039
 21
55.0
 31
0.0
  0
ARC
  5
302
100
AcDbEntity
  8
001
370
               5
390
0
 62
               7
100
AcDbCircle
 10
-141.94880000000012
 20
52.0
 30
0.0
 40
3.0
100
AcDbArc
 50
0.0
 51
48.189838178992488
  0
ARC
  5
303
100
AcDbEntity
  8
001
370
               5
390
0
 62
               7
100
AcDbCircle
 10
-245.94880000000012
 20
52.0
 30
0.0
 40
3.0000387754824258
100
AcDbArc
 50
131.80965253330032
 51
180.0
  0
LINE
  5
304
100
AcDbEntity
  8
001
370
               5
390
0
 62
               7
100
AcDbLine
 10
-147.94880000000012
 20
55.0
 30
0.0
 11
-141.94880000000012
 21
55.0
 31
0.0
  0
ARC
  5
305
100
AcDbEntity
  8
001
370
               5
390
0
 62
               7
100
AcDbCircle
 10
-141.94880000000012
 20
52.0
 30
0.0
 40
3.0000387754824258
100
AcDbArc
 50
48.190347466699677
 51
89.999236066444325
  0
LINE
  5
306
100
AcDbEntity
  8
001
370
               5
390
0
 62
               7
100
AcDbLine
 10
-239.94880000000012
 20
55.0
 30
0.0
 11
-245.94880000000012
 21
55.0
 31
0.0
  0
ARC
  5
307
100
AcDbEntity
  8
001
370
               5
390
0
 62
               7
100
AcDbCircle
 10
-245.94880000000012
 20
52.0
 30
0.0
 40
3.0
100
AcDbArc
 50
90.0
 51
131.80959240624625
  0
LINE
  5
308
100
AcDbEntity
  8
001
370
               5
390
0
 62
               7
100
AcDbLine
 10
-243.94880000000012
 20
3.0
 30
0.0
 11
-238.94880000000012
 21
8.0
 31
0.0
  0
LINE
  5
309
100
AcDbEntity
  8
001
370
               5
390
0
 62
               7
100
AcDbLine
 10
-148.94880000000012
 20
8.0
 30
0.0
 11
-143.94880000000012
 21
3.0
 31
0.0
  0
ARC
  5
30A
100
AcDbEntity
  8
001
370
               5
390
0
 62
               7
100
AcDbCircle
 10
143.48420000000078
 20
-2.0
 30
0.0
 40
5.0
100
AcDbArc
 50
180.0
 51
270.0
  0
LINE
  5
30B
100
AcDbEntity
  8
001
370
               5
390
0
 62
               7
100
AcDbLine
 10
143.48420000000078
 20
-7.0
 30
0.0
 11
213.48420000000078
 21
-7.0
 31
0.0
  0
LINE
  5
30C
100
AcDbEntity
  8
001
370
               5
390
0
 62
               7
100
AcDbLine
 10
256.21180000000004
 20
4.6153999999996813
 30
0.0
 11
218.48400000000038
 21
9.7995200000000295
 31
0.0
  0
ARC
  5
30D
100
AcDbEntity
  8
001
370
               5
390
0
 62
               7
100
AcDbCircle
 10
256.48400000000038
 20
6.5967199999995501
 30
0.0
 40
1.9999304443904204
100
AcDbArc
 50
262.17749388711917
 51
359.99885403857888
  0
LINE
  5
30E
100
AcDbEntity
  8
001
370
               5
390
0
 62
               7
100
AcDbLine
 10
218.48420000000078
 20
-83.0
 30
0.0
 11
218.48420000000078
 21
38.0
 31
0.0
  0
LINE
  5
30F
100
AcDbEntity
  8
001
370
               5
390
0
 62
               7
100
AcDbLine
 10
138.48420000000078
 20
8.0
 30
0.0
 11
138.48420000000078
 21
52.0
 31
0.0
  0
LINE
  5
310
100
AcDbEntity
  8
001
370
               5
390
0
 62
               7
100
AcDbLine
 10
218.48420000000078
 20
38.0
 30
0.0
 11
218.48420000000078
 21
39.0
 31
0.0
  0
LINE
  5
311
100
AcDbEntity
  8
001
370
               5
390
0
 62
               7
100
AcDbLine
 10
218.48420000000078
 20
-83.0
 30
0.0
 11
218.48420000000078
 21
-84.0
 31
0.0
  0
LINE
  5
312
100
AcDbEntity
  8
001
370
               5
390
0
 62
               7
100
AcDbLine
 10
147.48420000000078
 20
55.0
 30
0.0
 11
199.48420000000078
 21
55.0
 31
0.0
  0
LINE
  5
313
100
AcDbEntity
  8
001
370
               5
390
0
 62
               7
100
AcDbLine
 10
199.48420000000078
 20
55.0
 30
0.0
 11
205.48420000000078
 21
55.0
 31
0.0
  0
LINE
  5
314
100
AcDbEntity
  8
001
370
               5
390
0
 62
               7
100
AcDbLine
 10
147.48420000000078
 20
55.0
 30
0.0
 11
141.48420000000078
 21
55.0
 31
0.0
  0
ARC
  5
315
100
AcDbEntity
  8
001
370
               5
390
0
 62
               7
100
AcDbCircle
 10
205.48420000000078
 20
52.0
 30
0.0
 40
3.0000387754824258
100
AcDbArc
 50
48.190347466699677
 51
89.999236066479071
  0
ARC
  5
316
100
AcDbEntity
  8
001
370
               5
390
0
 62
               7
100
AcDbCircle
 10
141.48420000000078
 20
52.0
 30
0.0
 40
3.0
100
AcDbArc
 50
90.0
 51
131.80959240625918
  0
ARC
  5
317
100
AcDbEntity
  8
001
370
               5
390
0
 62
               7
100
AcDbCircle
 10
141.48420000000078
 20
52.0
 30
0.0
 40
3.0000387754824258
100
AcDbArc
 50
131.80965253330032
 51
180.0
  0
ARC
  5
318
100
AcDbEntity
  8
001
370
               5
390
0
 62
               7
100
AcDbCircle
 10
205.48420000000078
 20
52.0
 30
0.0
 40
3.0
100
AcDbArc
 50
0.0
 51
48.189838178992488
  0
LINE
  5
319
100
AcDbEntity
  8
001
370
               5
390
0
 62
               7
100
AcDbLine
 10
199.48420000000078
 20
56.0
 30
0.0
 11
207.48420000000078
 21
56.0
 31
0.0
  0
LINE
  5
31A
100
AcDbEntity
  8
001
370
               5
390
0
 62
               7
100
AcDbLine
 10
139.48420000000078
 20
56.0
 30
0.0
 11
147.48420000000078
 21
56.0
 31
0.0
  0
LINE
  5
31B
100
AcDbEntity
  8
001
370
               5
390
0
 62
               7
100
AcDbLine
 10
-147.94880000000012
 20
56.0
 30
0.0
 11
-139.94880000000012
 21
56.0
 31
0.0
  0
LINE
  5
31C
100
AcDbEntity
  8
001
370
               5
390
0
 62
               7
100
AcDbLine
 10
-247.94880000000012
 20
56.0
 30
0.0
 11
-239.94880000000012
 21
56.0
 31
0.0
  0
ARC
  5
31D
100
AcDbEntity
  8
001
370
               5
390
0
 62
               7
100
AcDbCircle
 10
-193.94880000000012
 20
64.786599999999453
 30
0.0
 40
6.9999214281306976
100
AcDbArc
 50
38.212393813696316
 51
81.786367925978482
  0
ARC
  5
31E
100
AcDbEntity
  8
001
370
               5
390
0
 62
               7
100
AcDbCircle
 10
-193.94880000000012
 20
64.786599999999453
 30
0.0
 40
6.9999176234014922
100
AcDbArc
 50
98.213308024179156
 51
141.78688915630093
  0
ARC
  5
31F
100
AcDbEntity
  8
001
370
               5
390
0
 62
               7
100
AcDbCircle
 10
-193.94880000000012
 20
64.786599999999453
 30
0.0
 40
7.0000162524384848
100
AcDbArc
 50
158.21287788862509
 51
201.78712211136801
  0
ARC
  5
320
100
AcDbEntity
  8
001
370
               5
390
0
 62
               7
100
AcDbCircle
 10
-193.94880000000012
 20
64.786599999999453
 30
0.0
 40
7.0000451455686292
100
AcDbArc
 50
218.21368005162029
 51
261.78683229293728
  0
ARC
  5
321
100
AcDbEntity
  8
001
370
               5
390
0
 62
               7
100
AcDbCircle
 10
-193.94880000000012
 20
64.786599999999453
 30
0.0
 40
7.0000759823305625
100
AcDbArc
 50
278.21312093574903
 51
321.78698224738008
  0
ARC
  5
322
100
AcDbEntity
  8
001
370
               5
390
0
 62
               7
100
AcDbCircle
 10
-193.94880000000012
 20
64.786599999999453
 30
0.0
 40
7.0000014061711964
100
AcDbArc
 50
338.2131819062862
 51
21.786818093717276
  0
ARC
  5
323
100
AcDbEntity
  8
001
370
               5
390
0
 62
               7
100
AcDbCircle
 10
-193.94880000000012
 20
-30.0
 30
0.0
 40
20.999982709060085
100
AcDbArc
 50
313.86174430482748
 51
47.801154672720202
  0
ARC
  5
324
100
AcDbEntity
  8
001
370
               5
390
0
 62
               7
100
AcDbCircle
 10
-193.94880000000012
 20
-30.0
 30
0.0
 40
21.99989739717908
100
AcDbArc
 50
309.3559092584012
 51
50.274618180303889
  0
ARC
  5
325
100
AcDbEntity
  8
001
370
               5
390
0
 62
               7
100
AcDbCircle
 10
-193.94880000000012
 20
-30.0
 30
0.0
 40
20.999996030208205
100
AcDbArc
 50
132.19908033190174
 51
226.13841000477717
  0
ARC
  5
326
100
AcDbEntity
  8
001
370
               5
390
0
 62
               7
100
AcDbCircle
 10
-193.94880000000012
 20
-30.0
 30
0.0
 40
22.000101577728749
100
AcDbArc
 50
129.72587609320175
 51
230.64425994408538
  0
LINE
  5
327
100
AcDbEntity
  8
001
370
               5
390
0
 62
               7
100
AcDbLine
 10
-197.94880000000012
 20
-15.283880000000408
 30
0.0
 11
-197.94880000000012
 21
-18.157280000000355
 31
0.0
  0
ARC
  5
328
100
AcDbEntity
  8
001
370
               5
390
0
 62
               7
100
AcDbCircle
 10
-193.94880000000012
 20
-30.0
 30
0.0
 40
15.250055339387721
100
AcDbArc
 50
74.793768637658374
 51
105.20623136234164
  0
LINE
  5
329
100
AcDbEntity
  8
001
370
               5
390
0
 62
               7
100
AcDbLine
 10
-189.94880000000012
 20
-15.283880000000408
 30
0.0
 11
-189.94880000000012
 21
-18.157280000000355
 31
0.0
  0
LINE
  5
32A
100
AcDbEntity
  8
001
370
               5
390
0
 62
               7
100
AcDbLine
 10
-189.94880000000012
 20
-41.8426800000002
 30
0.0
 11
-189.94880000000012
 21
-44.716000000000349
 31
0.0
  0
ARC
  5
32B
100
AcDbEntity
  8
001
370
               5
390
0
 62
               7
100
AcDbCircle
 10
-193.94880000000012
 20
-30.0
 30
0.0
 40
15.249939540864098
100
AcDbArc
 50
254.79365038134779
 51
285.20634961865215
  0
LINE
  5
32C
100
AcDbEntity
  8
001
370
               5
390
0
 62
               7
100
AcDbLine
 10
-197.94880000000012
 20
-41.8426800000002
 30
0.0
 11
-197.94880000000012
 21
-44.716000000000349
 31
0.0
  0
LINE
  5
32D
100
AcDbEntity
  8
001
370
               5
390
0
 62
               7
100
AcDbLine
 10
-240.94880000000012
 20
-87.600000000000364
 30
0.0
 11
-240.94880000000012
 21
-88.700000000000273
 31
0.0
  0
LINE
  5
32E
100
AcDbEntity
  8
001
370
               5
390
0
 62
               7
100
AcDbLine
 10
258.48400000000038
 20
17.625119999999697
 30
0.0
 11
258.48400000000038
 21
6.5967199999995501
 31
0.0
  0
LINE
  5
32F
100
AcDbEntity
  8
001
370
               5
390
0
 62
               7
100
AcDbLine
 10
138.48420000000078
 20
8.0
 30
0.0
 11
138.48420000000078
 21
-2.0
 31
0.0
  0
LINE
  5
330
100
AcDbEntity
  8
001
370
               5
390
0
 62
               7
100
AcDbLine
 10
258.48400000000038
 20
17.625319999999647
 30
0.0
 11
258.48400000000038
 21
26.592719999999645
 31
0.0
  0
LINE
  5
331
100
AcDbEntity
  8
001
370
               5
390
0
 62
               7
100
AcDbLine
 10
231.08012000000053
 20
-80.779000000000451
 30
0.0
 11
218.48420000000078
 21
-83.0
 31
0.0
  0
ARC
  5
332
100
AcDbEntity
  8
001
370
               5
390
0
 62
               7
100
AcDbCircle
 10
270.48400000000038
 20
-65.707480000000032
 30
0.0
 40
8.0000015624997616
100
AcDbArc
 50
308.68217849385707
 51
0.0
  0
LINE
  5
333
100
AcDbEntity
  8
001
370
               5
390
0
 62
               7
100
AcDbLine
 10
231.07992000000013
 20
-80.779000000000451
 30
0.0
 11
271.8733200000006
 21
-73.58600000000024
 31
0.0
  0
ARC
  5
334
100
AcDbEntity
  8
001
370
               5
390
0
 62
               7
100
AcDbCircle
 10
270.48400000000038
 20
-65.707480000000032
 30
0.0
 40
8.0000804653955768
100
AcDbArc
 50
280.00087709432705
 51
308.68284938506832
  0
LINE
  5
335
100
AcDbEntity
  8
001
370
               5
390
0
 62
               7
100
AcDbLine
 10
89.994120000000294
 20
90.0
 30
0.0
 11
89.994120000000294
 21
-56.0
 31
0.0
  0
LINE
  5
336
100
AcDbEntity
  8
001
370
               5
390
0
 62
               7
100
AcDbLine
 10
87.39411999999993
 20
90.0
 30
0.0
 11
87.39411999999993
 21
-56.0
 31
0.0
  0
MTEXT
  5
337
100
AcDbEntity
  8
001
390
0
 62
               7
100
AcDbMText
 10
-278.07708000000002
 20
150.7209538486224
 30
0.0
 40
8.7312499999999993
 41
0.0
 71
               1
 72
               1
  1
ＣＭＣ-０１０シリーズ　外形図
  7
ＭＳ Ｐゴシック (bold)
 73
               1
 44
0.8762322015334064
  0
MTEXT
  5
338
100
AcDbEntity
  8
001
390
0
 62
               7
100
AcDbMText
 10
13.868890939692802
 20
-3.3062022855774016
 30
0.0
 40
8.7312499999999993
 41
0.0
 71
               1
 72
               1
  1
MIN.30
  7
ＭＳ Ｐゴシック
 11
-0.0000000521540643
 21
0.9999999999999987
 31
0.0
 73
               1
 44
0.8762322015334064
  0
LINE
  5
339
100
AcDbEntity
  8
255
370
               5
390
0
  6
Continuous
 62
               7
100
AcDbLine
 10
154.13112000000001
 20
-90.126080000000002
 30
0.0
 11
154.13112000000001
 21
-92.0
 31
0.0
  0
LINE
  5
33A
100
AcDbEntity
  8
255
370
               5
390
0
  6
Continuous
 62
               7
100
AcDbLine
 10
160.90192000000025
 20
-90.126080000000002
 30
0.0
 11
160.90192000000025
 21
-92.0
 31
0.0
  0
LINE
  5
33B
100
AcDbEntity
  8
255
370
               5
390
0
  6
Continuous
 62
               7
100
AcDbLine
 10
194.23531999999977
 20
-89.988200000000234
 30
0.0
 11
194.23531999999977
 21
-91.86220000000003
 31
0.0
  0
LINE
  5
33C
100
AcDbEntity
  8
255
370
               5
390
0
  6
Continuous
 62
               7
100
AcDbLine
 10
201.00612000000001
 20
-89.988200000000234
 30
0.0
 11
201.00612000000001
 21
-91.86220000000003
 31
0.0
  0
DIMENSION
  5
33D
100
AcDbEntity
  8
寸法
370
               5
390
0
  6
Continuous
 62
               7
100
AcDbDimension
  2
*D1
 10
-248.94880000000012
 20
122.64652
 30
0.0
 11
-193.15152827148449
 21
122.68651999985099
 31
0.0
 70
             128
 71
               5
 72
               1
 41
1.0
 42
0.0
  3
中谷
100
AcDbAlignedDimension
 13
-138.94880000000012
 23
52.0
 33
0.0
 14
-248.94880000000012
 24
52.0
 34
0.0
100
AcDbRotatedDimension
1001
ACAD
1000
DSTYLE
1002
{
1070
             279
1070
               2
1070
             340
1005
3B
1070
             147
1040
0.0399999998509884
1002
}
  0
DIMENSION
  5
33E
100
AcDbEntity
  8
寸法
370
               5
390
0
  6
Continuous
 62
               7
100
AcDbDimension
  2
*D2
 10
-248.94880000000012
 20
-117.35348000000022
 30
0.0
 11
-197.37790766601574
 21
-117.31348000014923
 31
0.0
 70
             128
 71
               5
 72
               1
 41
1.0
 42
0.0
  3
中谷
100
AcDbAlignedDimension
 13
-138.94880000000012
 23
-102.35348000000022
 33
0.0
 14
-248.94880000000012
 24
-102.35348000000022
 34
0.0
100
AcDbRotatedDimension
1001
ACAD
1000
DSTYLE
1002
{
1070
             279
1070
               2
1070
             340
1005
3B
1070
             147
1040
0.0399999998509884
1002
}
  0
DIMENSION
  5
33F
100
AcDbEntity
  8
寸法
370
               5
390
0
  6
Continuous
 62
               7
100
AcDbDimension
  2
*D3
 10
-258.94880000000012
 20
-137.35352
 30
0.0
 11
-197.37851801757824
 21
-137.31352000014903
 31
0.0
 70
             128
 71
               5
 72
               1
 41
1.0
 42
0.0
  3
中谷
100
AcDbAlignedDimension
 13
-128.94880000000012
 23
-92.0
 33
0.0
 14
-258.94880000000012
 24
-92.0
 34
0.0
100
AcDbRotatedDimension
1001
ACAD
1000
DSTYLE
1002
{
1070
             279
1070
               2
1070
             340
1005
3B
1070
             147
1040
0.0399999998509884
1002
}
  0
DIMENSION
  5
340
100
AcDbEntity
  8
寸法
370
               5
390
0
  6
Continuous
 62
               7
100
AcDbDimension
  2
*D4
 10
-283.27952000000806
 20
-89.700000000000273
 30
0.0
 11
-283.31951999985904
 21
-65.369280000000259
 31
0.0
 70
             128
 71
               5
 72
               1
 41
1.0
 42
0.0
  3
中谷
100
AcDbAlignedDimension
 13
-258.94880000000012
 23
-92.0
 33
0.0
 14
-258.94880000000012
 24
-89.700000000000273
 34
0.0
 50
90.0
100
AcDbRotatedDimension
1001
ACAD
1000
DSTYLE
1002
{
1070
             279
1070
               2
1070
             340
1005
3B
1070
             174
1070
               0
1070
             147
1040
0.0399999998509884
1002
}
  0
DIMENSION
  5
341
100
AcDbEntity
  8
寸法
370
               5
390
0
  6
Continuous
 62
               7
100
AcDbDimension
  2
*D5
 10
-114.37760000000011
 20
-30.0
 30
0.0
 11
-114.37760000000011
 21
-61.0
 31
0.0
 71
               5
 72
               1
 41
1.0
 42
0.0
  3
中谷
100
AcDbAlignedDimension
 13
-128.94880000000012
 23
-92.0
 33
0.0
 14
-138.94880000000012
 24
-30.0
 34
0.0
 50
90.0
100
AcDbRotatedDimension
1001
ACAD
1000
DSTYLE
1002
{
1070
             279
1070
               2
1070
             340
1005
3B
1070
             147
1040
0.0399999998509884
1002
}
  0
DIMENSION
  5
342
100
AcDbEntity
  8
寸法
370
               5
390
0
  6
Continuous
 62
               7
100
AcDbDimension
  2
*D6
 10
-97.377600000000115
 20
-92.0
 30
0.0
 11
-97.377600000000115
 21
-18.5
 31
0.0
 71
               5
 72
               1
 41
1.0
 42
0.0
  3
中谷
100
AcDbAlignedDimension
 13
-141.94880000000012
 23
55.0
 33
0.0
 14
-128.94880000000012
 24
-92.0
 34
0.0
 50
90.0
100
AcDbRotatedDimension
1001
ACAD
1000
DSTYLE
1002
{
1070
             279
1070
               2
1070
             340
1005
3B
1070
             147
1040
0.0399999998509884
1002
}
  0
DIMENSION
  5
343
100
AcDbEntity
  8
寸法
370
               5
390
0
  6
Continuous
 62
               7
100
AcDbDimension
  2
*D7
 10
125.48420000000078
 20
-137.35348000000033
 30
0.0
 11
134.98420000000078
 21
-137.35348000000033
 31
0.0
 71
               5
 72
               1
 41
1.0
 42
0.0
  3
中谷
100
AcDbAlignedDimension
 13
144.48420000000078
 23
-92.0
 33
0.0
 14
125.48420000000078
 24
-76.090280000000348
 34
0.0
100
AcDbRotatedDimension
1001
ACAD
1000
DSTYLE
1002
{
1070
             279
1070
               2
1070
             340
1005
3B
1070
             147
1040
0.0399999998509884
1002
}
  0
DIMENSION
  5
344
100
AcDbEntity
  8
寸法
370
               5
390
0
  6
Continuous
 62
               7
100
AcDbDimension
  2
*D8
 10
144.48420000000078
 20
-137.35352
 30
0.0
 11
177.48420000000078
 21
-137.35352
 31
0.0
 71
               5
 72
               1
 41
1.0
 42
0.0
  3
中谷
100
AcDbAlignedDimension
 13
210.48420000000078
 23
-92.0
 33
0.0
 14
144.48420000000078
 24
-92.0
 34
0.0
100
AcDbRotatedDimension
1001
ACAD
1000
DSTYLE
1002
{
1070
             279
1070
               2
1070
             340
1005
3B
1070
             147
1040
0.0399999998509884
1002
}
  0
DIMENSION
  5
345
100
AcDbEntity
  8
寸法
370
               5
390
0
  6
Continuous
 62
               7
100
AcDbDimension
  2
*D9
 10
144.48420000000078
 20
-117.35348000000067
 30
0.0
 11
149.4092356129986
 21
-117.31348000014968
 31
0.0
 70
             128
 71
               5
 72
               1
 41
1.0
 42
0.0
  3
中谷
100
AcDbAlignedDimension
 13
157.48420000000078
 23
-99.505600000000413
 33
0.0
 14
144.48420000000078
 24
-92.0
 34
0.0
100
AcDbRotatedDimension
1001
ACAD
1000
DSTYLE
1002
{
1070
             279
1070
               2
1070
             340
1005
3B
1070
             147
1040
0.0399999998509884
1002
}
  0
DIMENSION
  5
346
100
AcDbEntity
  8
寸法
370
               5
390
0
  6
Continuous
 62
               7
100
AcDbDimension
  2
*D10
 10
157.48420000000078
 20
-117.35348000000067
 30
0.0
 11
179.4092356129986
 21
-117.31348000014968
 31
0.0
 70
             128
 71
               5
 72
               1
 41
1.0
 42
0.0
  3
中谷
100
AcDbAlignedDimension
 13
197.48420000000078
 23
-97.353480000000218
 33
0.0
 14
157.48420000000078
 24
-97.353480000000218
 34
0.0
100
AcDbRotatedDimension
1001
ACAD
1000
DSTYLE
1002
{
1070
             279
1070
               2
1070
             340
1005
3B
1070
             147
1040
0.0399999998509884
1002
}
  0
DIMENSION
  5
347
100
AcDbEntity
  8
寸法
370
               5
390
0
  6
Continuous
 62
               7
100
AcDbDimension
  2
*D11
 10
197.48420000000078
 20
-117.35348000000067
 30
0.0
 11
203.12292000000087
 21
-117.31348000014968
 31
0.0
 70
             128
 71
               5
 72
               1
 41
1.0
 42
0.0
  3
中谷
100
AcDbAlignedDimension
 13
210.48420000000078
 23
-107.35348000000022
 33
0.0
 14
197.48420000000078
 24
-96.741480000000593
 34
0.0
100
AcDbRotatedDimension
1001
ACAD
1000
DSTYLE
1002
{
1070
             279
1070
               2
1070
             340
1005
3B
1070
             147
1040
0.0399999998509884
1002
}
  0
DIMENSION
  5
348
100
AcDbEntity
  8
寸法
370
               5
390
0
  6
Continuous
 62
               7
100
AcDbDimension
  2
*D12
 10
125.48420000000078
 20
82.646519999999654
 30
0.0
 11
148.62213945312578
 21
82.686519999850645
 31
0.0
 70
             128
 71
               5
 72
               1
 41
1.0
 42
0.0
  3
中谷
100
AcDbAlignedDimension
 13
173.48420000000078
 23
42.0
 33
0.0
 14
125.48420000000078
 24
18.630719999999656
 34
0.0
100
AcDbRotatedDimension
1001
ACAD
1000
DSTYLE
1002
{
1070
             271
1070
               0
1070
             279
1070
               2
1070
             340
1005
3B
1070
             147
1040
0.0399999998509884
1002
}
  0
DIMENSION
  5
349
100
AcDbEntity
  8
寸法
370
               5
390
0
  6
Continuous
 62
               7
100
AcDbDimension
  2
*D13
 10
125.48420000000078
 20
102.64651999999965
 30
0.0
 11
201.62223829040585
 21
102.68651999985065
 31
0.0
 70
             128
 71
               5
 72
               1
 41
1.0
 42
0.0
  3
中谷
100
AcDbAlignedDimension
 13
278.48400000000038
 23
5.7075999999997293
 33
0.0
 14
125.48420000000078
 24
20.630719999999656
 34
0.0
100
AcDbRotatedDimension
1001
ACAD
1000
DSTYLE
1002
{
1070
             271
1070
               0
1070
             279
1070
               2
1070
             340
1005
3B
1070
             147
1040
0.0399999998509884
1002
}
  0
DIMENSION
  5
34A
100
AcDbEntity
  8
寸法
370
               5
390
0
  6
Continuous
 62
               7
100
AcDbDimension
  2
*D14
 10
87.39411999999993
 20
102.64651999999978
 30
0.0
 11
106.43916000000036
 21
102.64651999999978
 31
0.0
 71
               5
 72
               1
 41
1.0
 42
0.0
  3
中谷
100
AcDbAlignedDimension
 13
125.48420000000078
 23
18.630719999999656
 33
0.0
 14
87.39411999999993
 24
90.0
 34
0.0
100
AcDbRotatedDimension
1001
ACAD
1000
DSTYLE
1002
{
1070
             271
1070
               0
1070
             279
1070
               2
1070
             340
1005
3B
1070
             147
1040
0.0399999998509884
1002
}
  0
DIMENSION
  5
34B
100
AcDbEntity
  8
寸法
370
               5
390
0
  6
Continuous
 62
               7
100
AcDbDimension
  2
*D15
 10
78.89411999999993
 20
102.64651999999941
 30
0.0
 11
75.922919999999976
 21
102.6865199998504
 31
0.0
 70
             128
 71
               5
 72
               1
 41
1.0
 42
0.0
  3
中谷
100
AcDbAlignedDimension
 13
87.39411999999993
 23
90.0
 33
0.0
 14
78.89411999999993
 24
71.786599999999453
 34
0.0
100
AcDbRotatedDimension
1001
ACAD
1000
DSTYLE
1002
{
1070
             271
1070
               0
1070
             279
1070
               2
1070
             340
1005
3B
1070
             174
1070
               0
1070
             147
1040
0.0399999998509884
1002
}
  0
DIMENSION
  5
34C
100
AcDbEntity
  8
寸法
370
               5
390
0
  6
Continuous
 62
               7
100
AcDbDimension
  2
*D16
 10
55.39411999999993
 20
122.64651999999933
 30
0.0
 11
166.93906000000015
 21
122.64651999999933
 31
0.0
 71
               5
 72
               1
 41
1.0
 42
0.0
  3
中谷
100
AcDbAlignedDimension
 13
278.48400000000038
 23
5.7075999999997293
 33
0.0
 14
55.39411999999993
 24
74.208728599999631
 34
0.0
100
AcDbRotatedDimension
1001
ACAD
1000
DSTYLE
1002
{
1070
             271
1070
               0
1070
             279
1070
               2
1070
             340
1005
3B
1070
             147
1040
0.0399999998509884
1002
}
  0
DIMENSION
  5
34D
100
AcDbEntity
  8
寸法
370
               5
390
0
  6
Continuous
 62
               7
100
AcDbDimension
  2
*D17
 10
-10.5907643870014
 20
90.0
 30
0.0
 11
-10.5907643870014
 21
30.000059999999849
 31
0.0
 71
               5
 72
               1
 41
1.0
 42
0.0
  3
中谷
100
AcDbAlignedDimension
 13
41.111119999999573
 23
-29.999880000000303
 33
0.0
 14
89.39411999999993
 24
90.0
 34
0.0
 50
90.0
100
AcDbRotatedDimension
1001
ACAD
1000
DSTYLE
1002
{
1070
             279
1070
               2
1070
             340
1005
3B
1070
             147
1040
0.0399999998509884
1002
}
  0
DIMENSION
  5
34E
100
AcDbEntity
  8
寸法
370
               5
390
0
  6
Continuous
 62
               7
100
AcDbDimension
  2
*D18
 10
9.4092356129986001
 20
69.996599999999489
 30
0.0
 11
9.4092356129986001
 21
19.998299999999745
 31
0.0
 71
               5
 72
               1
 41
1.0
 42
0.0
  3
中谷
100
AcDbAlignedDimension
 13
49.622400000000198
 23
-30.0
 33
0.0
 14
48.546000000000276
 24
69.996599999999489
 34
0.0
 50
90.0
100
AcDbRotatedDimension
1001
ACAD
1000
DSTYLE
1002
{
1070
             279
1070
               2
1070
             340
1005
3B
1070
               3
1000
MAX.<>
1070
             147
1040
0.0399999998509884
1002
}
  0
DIMENSION
  5
34F
100
AcDbEntity
  8
寸法
370
               5
390
0
  6
Continuous
 62
               7
100
AcDbDimension
  2
*D19
 10
-140.28719999999976
 20
-90.677800000000389
 30
0.0
 11
-112.73868292330899
 21
-117.35253367066525
 31
0.0
 70
               3
 71
               5
 72
               1
 41
1.0
 42
0.0
  1
4-φ7取付穴
  3
中谷
100
AcDbDiametricDimension
 15
-139.03920000000016
 25
-92.091480000000502
 35
0.0
 40
33.696199999999997
1001
ACAD
1000
DSTYLE
1002
{
1070
             172
1070
               0
1070
             289
1070
               0
1070
             342
1005
5B
1070
             340
1005
3B
1070
              75
1070
               1
1070
              76
1070
               1
1070
             174
1070
               0
1070
             147
1040
0.0399999998509884
1002
}
  0
DIMENSION
  5
350
100
AcDbEntity
  8
寸法
370
               5
390
0
  6
Continuous
 62
               7
100
AcDbDimension
  2
*D20
 10
98.708789322676239
 20
-44.518302046235476
 30
0.0
 11
71.878883033020756
 21
-97.681891833607921
 31
0.0
 70
               3
 71
               5
 72
               1
 41
1.0
 42
0.0
  1
歯数30枚
  3
中谷
100
AcDbDiametricDimension
 15
97.964730677324042
 25
-46.250977953765414
 35
0.0
 40
55.972525123342024
1001
ACAD
1000
DSTYLE
1002
{
1070
             172
1070
               0
1070
             289
1070
               0
1070
             342
1005
5B
1070
             340
1005
3B
1070
              75
1070
               1
1070
              76
1070
               1
1070
             174
1070
               0
1070
             147
1040
0.0399999998509884
1002
}
  0
DIMENSION
  5
351
100
AcDbEntity
  8
寸法
370
               5
390
0
  6
Continuous
 62
               7
100
AcDbDimension
  2
*D21
 10
78.988552070020887
 20
74.095512157758094
 30
0.0
 11
73.922919999997632
 21
27.840757321018152
 31
0.0
 70
               3
 71
               5
 72
               1
 41
1.0
 42
0.0
  1
 
  3
中谷
100
AcDbDiametricDimension
 15
78.799687929980792
 25
65.897687842264531
 35
0.0
 40
38.067028813686271
1001
ACAD
1000
DSTYLE
1002
{
1070
             172
1070
               0
1070
             289
1070
               0
1070
             342
1005
5B
1070
             340
1005
3B
1070
              75
1070
               1
1070
              76
1070
               1
1070
             174
1070
               0
1070
             147
1040
0.0399999998509884
1002
}
  0
DIMENSION
  5
352
100
AcDbEntity
  8
寸法
370
               5
390
0
  6
Continuous
 62
               7
100
AcDbDimension
  2
*D22
 10
170.07692000000043
 20
15.068199999999706
 30
0.0
 11
197.39431368306938
 21
83.035121193177872
 31
0.0
 70
               3
 71
               5
 72
               1
 41
1.0
 42
0.0
  1
2-φ21電線口×2ヶ
  3
中谷
100
AcDbDiametricDimension
 15
176.89152000000013
 25
34.931799999999839
 35
0.0
 40
50.855400000000003
1001
ACAD
1000
DSTYLE
1002
{
1070
             172
1070
               0
1070
             289
1070
               0
1070
             342
1005
5B
1070
             340
1005
3B
1070
              75
1070
               1
1070
              76
1070
               1
1070
             174
1070
               0
1070
             147
1040
0.0399999998509884
1002
}
  0
INSERT
  5
353
100
AcDbEntity
  8
寸法
390
0
 62
               7
100
AcDbBlockReference
  2
グループ
 10
0.0
 20
0.0
 30
0.0
  0
LINE
  5
354
100
AcDbEntity
  8
一般
370
               5
390
0
  6
Continuous
 62
               7
100
AcDbLine
 10
120.23420000000078
 20
-23.0
 30
0.0
 11
123.48420000000078
 21
-23.0
 31
0.0
  0
LINE
  5
355
100
AcDbEntity
  8
一般
370
               5
390
0
  6
Continuous
 62
               7
100
AcDbLine
 10
120.23420000000078
 20
-37.0
 30
0.0
 11
123.48420000000078
 21
-37.0
 31
0.0
  0
ENDSEC
  0
SECTION
  2
OBJECTS
  0
DICTIONARY
  5
19
100
AcDbDictionary
280
               0
281
               1
  3
ACAD_GROUP
350
1A
  3
ACAD_MLINESTYLE
350
1B
  3
ACAD_LAYOUT
350
1E
  3
ACAD_PLOTSETTINGS
350
22
  3
ACAD_PLOTSTYLENAME
350
1F
  3
ACAD_WIPEOUT_VARS
350
23
  0
DICTIONARY
  5
1A
102
{ACAD_REACTORS
330
19
102
}
100
AcDbDictionary
280
               0
281
               1
  0
DICTIONARY
  5
1B
102
{ACAD_REACTORS
330
19
102
}
100
AcDbDictionary
280
               0
281
               1
  3
Standard
350
1C
  0
MLINESTYLE
  5
1C
102
{ACAD_REACTORS
330
1B
102
}
100
AcDbMlineStyle
  2
Standard
 70
               0
  3

 62
               0
 51
90.0
 52
90.0
 71
               2
 49
0.5
 62
             256
  6
ByLayer
 49
-0.5
 62
             256
  6
ByLayer
  0
ACDBDICTIONARYWDFLT
  5
1F
102
{ACAD_REACTORS
330
19
102
}
100
AcDbDictionary
281
               1
  3
Normal
350
1D
100
AcDbDictionaryWithDefault
340
1D
  0
ACDBPLACEHOLDER
  5
1D
102
{ACAD_REACTORS
330
1F
102
}
  0
LAYOUT
  5
20
102
{ACAD_REACTORS
330
1E
102
}
100
AcDbPlotSettings
  1

  2

  4

  6

 40
0.0
 41
0.0
 42
0.0
 43
0.0
 44
0.0
 45
0.0
 46
0.0
 47
0.0
 48
0.0
 49
0.0
140
0.0
141
0.0
142
1.0
143
1.0
 70
            1024
 72
               0
 73
               0
 74
               0
  7

 75
               0
147
1.0
148
0.0
149
0.0
100
AcDbLayout
  1
Model
 70
               0
 71
               0
 10
0.0
 20
0.0
 11
0.0
 21
0.0
 12
0.0
 22
0.0
 32
0.0
 14
0.0
 24
0.0
 34
0.0
 15
0.0
 25
0.0
 35
0.0
146
0.0
 13
0.0
 23
0.0
 33
0.0
 16
0.0
 26
0.0
 36
0.0
 17
0.0
 27
0.0
 37
0.0
 76
               0
330
A
331
0
345
0
346
0
  0
LAYOUT
  5
21
102
{ACAD_REACTORS
330
1E
102
}
100
AcDbPlotSettings
  1

  2

  4

  6

 40
0.0
 41
0.0
 42
0.0
 43
0.0
 44
0.0
 45
0.0
 46
0.0
 47
0.0
 48
0.0
 49
0.0
140
0.0
141
0.0
142
1.0
143
1.0
 70
               0
 72
               0
 73
               0
 74
               0
  7

 75
               0
147
1.0
148
0.0
149
0.0
100
AcDbLayout
  1
Layout1
 70
               0
 71
               0
 10
0.0
 20
0.0
 11
0.0
 21
0.0
 12
0.0
 22
0.0
 32
0.0
 14
0.0
 24
0.0
 34
0.0
 15
0.0
 25
0.0
 35
0.0
146
0.0
 13
0.0
 23
0.0
 33
0.0
 16
0.0
 26
0.0
 36
0.0
 17
0.0
 27
0.0
 37
0.0
 76
               0
330
B
331
0
345
0
346
0
  0
DICTIONARY
  5
1E
102
{ACAD_REACTORS
330
19
102
}
100
AcDbDictionary
280
               0
281
               1
  3
Layout1
350
21
  3
Model
350
20
  0
DICTIONARY
  5
22
102
{ACAD_REACTORS
330
19
102
}
100
AcDbDictionary
280
               0
281
               1
  0
WIPEOUTVARIABLES
  5
23
100
AcDbWipeoutVariables
 70
               0
  0
ENDSEC
  0
EOF
