  0
SECTION
  2
HEADER
  9
$ACADVER
  1
AC1015
  9
$ACADMAINTVER
 70
               6
  9
$DWGCODEPAGE
  3
ANSI_932
  9
$INSBASE
 10
0.0
 20
0.0
 30
0.0
  9
$EXTMIN
 10
-339.62000013457441
 20
-135.1185266
 30
0.0
  9
$EXTMAX
 10
261.98373246432749
 20
180.8034734
 30
0.0
  9
$LIMMIN
 10
0.0
 20
0.0
  9
$LIMMAX
 10
0.0
 20
0.0
  9
$ORTHOMODE
 70
               0
  9
$REGENMODE
 70
               1
  9
$FILLMODE
 70
               1
  9
$QTEXTMODE
 70
               0
  9
$MIRRTEXT
 70
               1
  9
$LTSCALE
 40
50.799999999999997
  9
$ATTMODE
 70
               1
  9
$TEXTSIZE
 40
0.2
  9
$TRACEWID
 40
1.0
  9
$TEXTSTYLE
  7
Standard
  9
$CLAYER
  8
一般
  9
$CELTYPE
  6
Continuous
  9
$CECOLOR
 62
             256
  9
$CELTSCALE
 40
1.0
  9
$DISPSILH
 70
               0
  9
$DIMSCALE
 40
1.0
  9
$DIMASZ
 40
6.0027343749999993
  9
$DIMEXO
 40
3.9999999999999996
  9
$DIMDLI
 40
7.0
  9
$DIMRND
 40
0.0
  9
$DIMDLE
 40
0.0
  9
$DIMEXE
 40
3.9999999999999996
  9
$DIMTP
 40
0.0
  9
$DIMTM
 40
0.0
  9
$DIMTXT
 40
8.7312499999999993
  9
$DIMCEN
 40
0.0
  9
$DIMTSZ
 40
0.0
  9
$DIMTOL
 70
               0
  9
$DIMLIM
 70
               0
  9
$DIMTIH
 70
               0
  9
$DIMTOH
 70
               0
  9
$DIMSE1
 70
               0
  9
$DIMSE2
 70
               0
  9
$DIMTAD
 70
               1
  9
$DIMZIN
 70
              11
  9
$DIMBLK
  1
VW_FILLEDARROW
  9
$DIMASO
 70
               1
  9
$DIMSHO
 70
               1
  9
$DIMPOST
  1
<>
  9
$DIMAPOST
  1
[]
  9
$DIMALT
 70
               0
  9
$DIMALTD
 70
               2
  9
$DIMALTF
 40
1.0
  9
$DIMLFAC
 40
1.0
  9
$DIMTOFL
 70
               1
  9
$DIMTVP
 40
0.0
  9
$DIMTIX
 70
               1
  9
$DIMSOXD
 70
               0
  9
$DIMSAH
 70
               0
  9
$DIMBLK1
  1

  9
$DIMBLK2
  1

  9
$DIMSTYLE
  2
中谷
  9
$DIMCLRD
 70
               0
  9
$DIMCLRE
 70
               0
  9
$DIMCLRT
 70
               0
  9
$DIMTFAC
 40
1.0
  9
$DIMGAP
 40
0.0099999999627471
  9
$DIMJUST
 70
               0
  9
$DIMSD1
 70
               0
  9
$DIMSD2
 70
               0
  9
$DIMTOLJ
 70
               1
  9
$DIMTZIN
 70
              11
  9
$DIMALTZ
 70
              11
  9
$DIMALTTZ
 70
              11
  9
$DIMUPT
 70
               0
  9
$DIMDEC
 70
               2
  9
$DIMTDEC
 70
               2
  9
$DIMALTU
 70
               2
  9
$DIMALTTD
 70
               2
  9
$DIMTXSTY
  7
ＭＳ Ｐゴシック
  9
$DIMAUNIT
 70
               0
  9
$DIMADEC
 70
               0
  9
$DIMALTRND
 40
0.0
  9
$DIMAZIN
 70
               0
  9
$DIMDSEP
 70
              46
  9
$DIMATFIT
 70
               0
  9
$DIMFRAC
 70
               2
  9
$DIMLDRBLK
  1

  9
$DIMLUNIT
 70
               2
  9
$DIMLWD
 70
              -2
  9
$DIMLWE
 70
              -2
  9
$DIMTMOVE
 70
               0
  9
$LUNITS
 70
               2
  9
$LUPREC
 70
               4
  9
$SKETCHINC
 40
0.1
  9
$FILLETRAD
 40
0.0
  9
$AUNITS
 70
               0
  9
$AUPREC
 70
               0
  9
$MENU
  1
acad
  9
$ELEVATION
 40
0.0
  9
$PELEVATION
 40
0.0
  9
$THICKNESS
 40
0.0
  9
$LIMCHECK
 70
               0
  9
$CHAMFERA
 40
0.0
  9
$CHAMFERB
 40
0.0
  9
$CHAMFERC
 40
0.0
  9
$CHAMFERD
 40
0.0
  9
$SKPOLY
 70
               0
  9
$TDCREATE
 40
2454365.759259259
  9
$TDUCREATE
 40
0.000000000
  9
$TDUPDATE
 40
2454365.759259259
  9
$TDUUPDATE
 40
0.000000000
  9
$TDINDWG
 40
0.0000000000
  9
$TDUSRTIMER
 40
0.0000000000
  9
$USRTIMER
 70
               1
  9
$ANGBASE
 50
0.0
  9
$ANGDIR
 70
               0
  9
$PDMODE
 70
               1
  9
$PDSIZE
 40
-2.0
  9
$PLINEWID
 40
0.0
  9
$SPLFRAME
 70
               0
  9
$SPLINETYPE
 70
               6
  9
$SPLINESEGS
 70
               8
  9
$HANDSEED
  5
346
  9
$SURFTAB1
 70
               6
  9
$SURFTAB2
 70
               6
  9
$SURFTYPE
 70
               6
  9
$SURFU
 70
               6
  9
$SURFV
 70
               6
  9
$UCSBASE
  2

  9
$UCSNAME
  2

  9
$UCSORG
 10
0.0
 20
0.0
 30
0.0
  9
$UCSXDIR
 10
1.0
 20
0.0
 30
0.0
  9
$UCSYDIR
 10
0.0
 20
1.0
 30
0.0
  9
$UCSORTHOREF
  2

  9
$UCSORTHOVIEW
 70
               0
  9
$UCSORGTOP
 10
0.0
 20
0.0
 30
0.0
  9
$UCSORGBOTTOM
 10
0.0
 20
0.0
 30
0.0
  9
$UCSORGLEFT
 10
0.0
 20
0.0
 30
0.0
  9
$UCSORGRIGHT
 10
0.0
 20
0.0
 30
0.0
  9
$UCSORGFRONT
 10
0.0
 20
0.0
 30
0.0
  9
$UCSORGBACK
 10
0.0
 20
0.0
 30
0.0
  9
$PUCSBASE
  2

  9
$PUCSNAME
  2

  9
$PUCSORG
 10
0.0
 20
0.0
 30
0.0
  9
$PUCSXDIR
 10
1.0
 20
0.0
 30
0.0
  9
$PUCSYDIR
 10
0.0
 20
1.0
 30
0.0
  9
$PUCSORTHOREF
  2

  9
$PUCSORTHOVIEW
 70
               0
  9
$PUCSORGTOP
 10
0.0
 20
0.0
 30
0.0
  9
$PUCSORGBOTTOM
 10
0.0
 20
0.0
 30
0.0
  9
$PUCSORGLEFT
 10
0.0
 20
0.0
 30
0.0
  9
$PUCSORGRIGHT
 10
0.0
 20
0.0
 30
0.0
  9
$PUCSORGFRONT
 10
0.0
 20
0.0
 30
0.0
  9
$PUCSORGBACK
 10
0.0
 20
0.0
 30
0.0
  9
$USERI1
 70
               0
  9
$USERI2
 70
               0
  9
$USERI3
 70
               0
  9
$USERI4
 70
               0
  9
$USERI5
 70
               0
  9
$USERR1
 40
0.0
  9
$USERR2
 40
0.0
  9
$USERR3
 40
0.0
  9
$USERR4
 40
0.0
  9
$USERR5
 40
0.0
  9
$WORLDVIEW
 70
               1
  9
$SHADEDGE
 70
               3
  9
$SHADEDIF
 70
              70
  9
$TILEMODE
 70
               1
  9
$MAXACTVP
 70
              64
  9
$PINSBASE
 10
0.0
 20
0.0
 30
0.0
  9
$PLIMCHECK
 70
               0
  9
$PEXTMIN
 10
1.0000000000000000E+20
 20
1.0000000000000000E+20
 30
1.0000000000000000E+20
  9
$PEXTMAX
 10
-1.0000000000000000E+20
 20
-1.0000000000000000E+20
 30
-1.0000000000000000E+20
  9
$PLIMMIN
 10
0.0
 20
0.0
  9
$PLIMMAX
 10
12.0
 20
9.0
  9
$UNITMODE
 70
               0
  9
$VISRETAIN
 70
               0
  9
$PLINEGEN
 70
               1
  9
$PSLTSCALE
 70
               0
  9
$TREEDEPTH
 70
            3020
  9
$CMLSTYLE
  2
Standard
  9
$CMLJUST
 70
               0
  9
$CMLSCALE
 40
1.0
  9
$PROXYGRAPHICS
 70
               0
  9
$MEASUREMENT
 70
               1
  9
$CELWEIGHT
370
               0
  9
$ENDCAPS
280
               0
  9
$JOINSTYLE
280
               0
  9
$LWDISPLAY
290
               1
  9
$INSUNITS
 70
               4
  9
$HYPERLINKBASE
  1

  9
$STYLESHEET
  1

  9
$XEDIT
290
               1
  9
$CEPSNTYPE
380
               0
  9
$PSTYLEMODE
290
               1
  9
$FINGERPRINTGUID
  2

  9
$VERSIONGUID
  2

  9
$EXTNAMES
290
               1
  9
$PSVPSCALE
 40
0.0
  0
ENDSEC
  0
SECTION
  2
CLASSES
  0
CLASS
  1
LWPOLYLINE
  2
AcDbPolyline
  3
AutoCAD 2000
 90
        0
280
               0
281
               1
  0
CLASS
  1
IMAGE
  2
AcDbRasterImage
  3
ISM
 90
      127
280
               0
281
               1
  0
CLASS
  1
OLE2FRAME
  2
AcDbOle2Frame
  3
AutoCAD 2000
 90
        0
280
               0
281
               1
  0
CLASS
  1
HATCH
  2
AcDbHatch
  3
AutoCAD 2000
 90
        0
280
               0
281
               1
  0
CLASS
  1
DICTIONARYVAR
  2
AcDbDictionaryVar
  3
AutoCAD 2000
 90
        0
280
               0
281
               0
  0
CLASS
  1
RASTERVARIABLES
  2
AcDbRasterVariables
  3
ISM
 90
        0
280
               0
281
               0
  0
CLASS
  1
IMAGEDEF
  2
AcDbRasterImageDef
  3
ISM
 90
        0
280
               0
281
               0
  0
CLASS
  1
IMAGEDEF_REACTOR
  2
AcDbRasterImageDefReactor
  3
ISM
 90
        1
280
               0
281
               0
  0
CLASS
  1
IDBUFFER
  2
AcDbIdBuffer
  3
AutoCAD 2000
 90
        0
280
               0
281
               0
  0
CLASS
  1
SPATIAL_FILTER
  2
AcDbSpatialFilter
  3
AutoCAD 2000
 90
        0
280
               0
281
               0
  0
CLASS
  1
XRECORD
  2
AcDbXrecord
  3
AutoCAD 2000
 90
        0
280
               0
281
               0
  0
CLASS
  1
SORTENTSTABLE
  2
AcDbSortentsTable
  3
AutoCAD 2000
 90
        0
280
               0
281
               0
  0
CLASS
  1
LAYER_INDEX
  2
AcDbLayerIndex
  3
AutoCAD 2000
 90
        0
280
               0
281
               0
  0
CLASS
  1
SPATIAL_INDEX
  2
AcDbSpatialIndex
  3
AutoCAD 2000
 90
        0
280
               0
281
               0
  0
CLASS
  1
OBJECT_PTR
  2
CAseDLPNTableRecord
  3
"ASE-LPNTableRecord"
 90
        1
280
               0
281
               0
  0
CLASS
  1
LAYOUT
  2
AcDbLayout
  3
AutoCAD 2000
 90
        0
280
               0
281
               0
  0
CLASS
  1
PLOTSETTINGS
  2
AcDbPlotSettings
  3
AutoCAD 2000
 90
        0
280
               0
281
               0
  0
CLASS
  1
ACDBDICTIONARYWDFLT
  2
AcDbDictionaryWithDefault
  3
AutoCAD 2000
 90
        0
280
               0
281
               0
  0
CLASS
  1
ACDBPLACEHOLDER
  2
AcDbPlaceHolder
  3
AutoCAD 2000
 90
        0
280
               0
281
               0
  0
CLASS
  1
VBA_PROJECT
  2
AcDbVbaProject
  3
acadvba
 90
        0
280
               0
281
               0
  0
CLASS
  1
WIPEOUT
  2
AcDbWipeout
  3
WipeOut|AutoCAD Express Tool|expresstools@autodesk.com
 90
      127
280
               0
281
               1
  0
CLASS
  1
WIPEOUTVARIABLES
  2
AcDbWipeoutVariables
  3
WipeOut|AutoCAD Express Tool|expresstools@autodesk.com
 90
        0
280
               0
281
               0
  0
CLASS
  1
RTEXT
  2
RText
  3
RText|AutoCAD Express Tool|expresstools@autodesk.com
 90
        0
280
               0
281
               1
  0
CLASS
  1
ARCALIGNEDTEXT
  2
AcDbArcAlignedText
  3
ATEXT|AutoCAD Express Tool|expresstools@autodesk.com
 90
        0
280
               0
281
               1
  0
ENDSEC
  0
SECTION
  2
TABLES
  0
TABLE
  2
VPORT
  5
7
100
AcDbSymbolTable
 70
               1
  0
VPORT
  5
15
100
AcDbSymbolTableRecord
100
AcDbViewportTableRecord
  2
*ACTIVE
 70
               0
 10
0.0
 20
0.0
 11
1.0
 21
1.0
 12
-38.81813383512349
 22
22.842473400000017
 13
0.0
 23
0.0
 14
1.0
 24
1.0
 15
0.0
 25
0.0
 16
0.0
 26
0.0
 36
1.0
 17
0.0
 27
0.0
 37
0.0
 40
315.92200000000003
 41
0.688564
 42
50.0
 43
0.0
 44
0.0
 50
0.0
 51
0.0
 71
               0
 72
            2000
 73
               1
 74
               1
 75
               0
 76
               0
 77
               0
 78
               0
281
               0
 65
               0
110
0.0
120
0.0
130
0.0
111
1.0
121
0.0
131
0.0
112
0.0
122
1.0
132
0.0
345
0
346
0
 79
               0
146
0.0
  0
ENDTAB
  0
TABLE
  2
LTYPE
  5
4
100
AcDbSymbolTable
 70
              27
  0
LTYPE
  5
11
100
AcDbSymbolTableRecord
100
AcDbLinetypeTableRecord
  2
ByBlock
 70
              64
  3

 72
              65
 73
               0
 40
0.0
  0
LTYPE
  5
12
100
AcDbSymbolTableRecord
100
AcDbLinetypeTableRecord
  2
ByLayer
 70
              64
  3

 72
              65
 73
               0
 40
0.0
  0
LTYPE
  5
13
100
AcDbSymbolTableRecord
100
AcDbLinetypeTableRecord
  2
Continuous
 70
              64
  3
Solid line
 72
              65
 73
               0
 40
0.0
  0
LTYPE
  5
3E
100
AcDbSymbolTableRecord
100
AcDbLinetypeTableRecord
  2
STYLE_01
 70
               0
  3

 72
              65
 73
               2
 40
0.166656494140625
 49
0.08331298828125
 74
               0
 49
-0.083343505859375
 74
               0
  0
LTYPE
  5
3F
100
AcDbSymbolTableRecord
100
AcDbLinetypeTableRecord
  2
STYLE_02
 70
               0
  3

 72
              65
 73
               2
 40
0.27777099609375
 49
0.194427490234375
 74
               0
 49
-0.083343505859375
 74
               0
  0
LTYPE
  5
40
100
AcDbSymbolTableRecord
100
AcDbLinetypeTableRecord
  2
STYLE_03
 70
               0
  3

 72
              65
 73
               2
 40
0.5
 49
0.416656494140625
 74
               0
 49
-0.083343505859375
 74
               0
  0
LTYPE
  5
41
100
AcDbSymbolTableRecord
100
AcDbLinetypeTableRecord
  2
STYLE_04
 70
               0
  3

 72
              65
 73
               2
 40
0.611083984375
 49
0.52777099609375
 74
               0
 49
-0.08331298828125
 74
               0
  0
LTYPE
  5
42
100
AcDbSymbolTableRecord
100
AcDbLinetypeTableRecord
  2
STYLE_05
 70
               0
  3

 72
              65
 73
               2
 40
0.08331298828125
 49
0.02777099609375
 74
               0
 49
-0.0555419921875
 74
               0
  0
LTYPE
  5
43
100
AcDbSymbolTableRecord
100
AcDbLinetypeTableRecord
  2
STYLE_06
 70
               0
  3

 72
              65
 73
               4
 40
0.3055419921875
 49
0.166656494140625
 74
               0
 49
-0.055572509765625
 74
               0
 49
0.02777099609375
 74
               0
 49
-0.0555419921875
 74
               0
  0
LTYPE
  5
44
100
AcDbSymbolTableRecord
100
AcDbLinetypeTableRecord
  2
STYLE_07
 70
               0
  3

 72
              65
 73
               6
 40
0.75
 49
0.25
 74
               0
 49
-0.08331298828125
 74
               0
 49
0.25
 74
               0
 49
-0.083343505859375
 74
               0
 49
0.02777099609375
 74
               0
 49
-0.055572509765625
 74
               0
  0
LTYPE
  5
45
100
AcDbSymbolTableRecord
100
AcDbLinetypeTableRecord
  2
STYLE_08
 70
               0
  3

 72
              65
 73
               6
 40
0.5
 49
0.25
 74
               0
 49
-0.08331298828125
 74
               0
 49
0.02777099609375
 74
               0
 49
-0.055572509765625
 74
               0
 49
0.02777099609375
 74
               0
 49
-0.055572509765625
 74
               0
  0
LTYPE
  5
46
100
AcDbSymbolTableRecord
100
AcDbLinetypeTableRecord
  2
STYLE_09
 70
               0
  3

 72
              65
 73
               4
 40
0.3055419921875
 49
0.138885498046875
 74
               0
 49
-0.055572509765625
 74
               0
 49
0.0555419921875
 74
               0
 49
-0.0555419921875
 74
               0
  0
LTYPE
  5
47
100
AcDbSymbolTableRecord
100
AcDbLinetypeTableRecord
  2
STYLE_10
 70
               0
  3

 72
              65
 73
               6
 40
2.375
 49
1.5
 74
               0
 49
-0.111114501953125
 74
               0
 49
0.27777099609375
 74
               0
 49
-0.111114501953125
 74
               0
 49
0.25
 74
               0
 49
-0.125
 74
               0
  0
LTYPE
  5
48
100
AcDbSymbolTableRecord
100
AcDbLinetypeTableRecord
  2
STYLE_11
 70
               0
  3

 72
              65
 73
               2
 40
0.403472900390625
 49
0.26898193359375
 74
               0
 49
-0.134490966796875
 74
               0
  0
LTYPE
  5
49
100
AcDbSymbolTableRecord
100
AcDbLinetypeTableRecord
  2
STYLE_12
 70
               0
  3

 72
              65
 73
               2
 40
0.20172119140625
 49
0.134490966796875
 74
               0
 49
-0.067230224609375
 74
               0
  0
LTYPE
  5
4A
100
AcDbSymbolTableRecord
100
AcDbLinetypeTableRecord
  2
STYLE_13
 70
               0
  3

 72
              65
 73
               4
 40
1.075927734375
 49
0.672454833984375
 74
               0
 49
-0.134490966796875
 74
               0
 49
0.134490966796875
 74
               0
 49
-0.134490966796875
 74
               0
  0
LTYPE
  5
4B
100
AcDbSymbolTableRecord
100
AcDbLinetypeTableRecord
  2
STYLE_14
 70
               0
  3

 72
              65
 73
               6
 40
1.34490966796875
 49
0.672454833984375
 74
               0
 49
-0.134490966796875
 74
               0
 49
0.134490966796875
 74
               0
 49
-0.134490966796875
 74
               0
 49
0.134490966796875
 74
               0
 49
-0.134490966796875
 74
               0
  0
LTYPE
  5
4C
100
AcDbSymbolTableRecord
100
AcDbLinetypeTableRecord
  2
STYLE_15
 70
               0
  3

 72
              65
 73
               4
 40
0.5
 49
0.25
 74
               0
 49
-0.083343505859375
 74
               0
 49
0.08331298828125
 74
               0
 49
-0.083343505859375
 74
               0
  0
LTYPE
  5
4D
100
AcDbSymbolTableRecord
100
AcDbLinetypeTableRecord
  2
STYLE_16
 70
               0
  3

 72
              65
 73
               6
 40
0.52777099609375
 49
0.22222900390625
 74
               0
 49
-0.08331298828125
 74
               0
 49
0.0555419921875
 74
               0
 49
-0.055572509765625
 74
               0
 49
0.055572509765625
 74
               0
 49
-0.0555419921875
 74
               0
  0
LTYPE
  5
4E
100
AcDbSymbolTableRecord
100
AcDbLinetypeTableRecord
  2
STYLE_17
 70
               0
  3

 72
              65
 73
               2
 40
0.40191650390625
 49
0.2679443359375
 74
               0
 49
-0.13397216796875
 74
               0
  0
LTYPE
  5
4F
100
AcDbSymbolTableRecord
100
AcDbLinetypeTableRecord
  2
STYLE_18
 70
               0
  3

 72
              65
 73
               4
 40
2.14361572265625
 49
1.33978271484375
 74
               0
 49
-0.2679443359375
 74
               0
 49
0.2679443359375
 74
               0
 49
-0.2679443359375
 74
               0
  0
LTYPE
  5
50
100
AcDbSymbolTableRecord
100
AcDbLinetypeTableRecord
  2
STYLE_19
 70
               0
  3

 72
              65
 73
               2
 40
0.803863525390625
 49
0.535919189453125
 74
               0
 49
-0.2679443359375
 74
               0
  0
LTYPE
  5
51
100
AcDbSymbolTableRecord
100
AcDbLinetypeTableRecord
  2
STYLE_20
 70
               0
  3

 72
              65
 73
               4
 40
2.0
 49
1.5
 74
               0
 49
-0.111114501953125
 74
               0
 49
0.27777099609375
 74
               0
 49
-0.111114501953125
 74
               0
  0
LTYPE
  5
52
100
AcDbSymbolTableRecord
100
AcDbLinetypeTableRecord
  2
STYLE_21
 70
               0
  3

 72
              65
 73
               4
 40
0.52777099609375
 49
0.27777099609375
 74
               0
 49
-0.083343505859375
 74
               0
 49
0.083343505859375
 74
               0
 49
-0.08331298828125
 74
               0
  0
LTYPE
  5
53
100
AcDbSymbolTableRecord
100
AcDbLinetypeTableRecord
  2
STYLE_22
 70
               0
  3

 72
              65
 73
               4
 40
1.27984619140625
 49
0.7999267578125
 74
               0
 49
-0.15997314453125
 74
               0
 49
0.15997314453125
 74
               0
 49
-0.15997314453125
 74
               0
  0
LTYPE
  5
54
100
AcDbSymbolTableRecord
100
AcDbLinetypeTableRecord
  2
STYLE_23
 70
               0
  3

 72
              65
 73
               6
 40
1.59979248046875
 49
0.7999267578125
 74
               0
 49
-0.15997314453125
 74
               0
 49
0.15997314453125
 74
               0
 49
-0.15997314453125
 74
               0
 49
0.15997314453125
 74
               0
 49
-0.15997314453125
 74
               0
  0
LTYPE
  5
55
100
AcDbSymbolTableRecord
100
AcDbLinetypeTableRecord
  2
STYLE_24
 70
               0
  3

 72
              65
 73
               2
 40
0.479949951171875
 49
0.319976806640625
 74
               0
 49
-0.15997314453125
 74
               0
  0
ENDTAB
  0
TABLE
  2
LAYER
  5
2
100
AcDbSymbolTable
 70
               7
  0
LAYER
  5
14
100
AcDbSymbolTableRecord
100
AcDbLayerTableRecord
  2
0
 70
               0
 62
               7
  6
Continuous
290
               1
370
              15
390
1D
  0
LAYER
  5
56
100
AcDbSymbolTableRecord
100
AcDbLayerTableRecord
  2
Defpoints
 70
               0
 62
               7
  6
Continuous
290
               0
370
              -3
390
1D
  0
LAYER
  5
57
100
AcDbSymbolTableRecord
100
AcDbLayerTableRecord
  2
一般
 70
               0
 62
               7
  6
Continuous
290
               1
370
               5
390
1D
  0
LAYER
  5
58
100
AcDbSymbolTableRecord
100
AcDbLayerTableRecord
  2
寸法
 70
               0
 62
               7
  6
Continuous
290
               1
370
               5
390
1D
  0
LAYER
  5
59
100
AcDbSymbolTableRecord
100
AcDbLayerTableRecord
  2
001
 70
               0
 62
               7
  6
Continuous
290
               1
370
              15
390
1D
  0
LAYER
  5
5A
100
AcDbSymbolTableRecord
100
AcDbLayerTableRecord
  2
255
 70
               0
 62
               7
  6
Continuous
290
               1
370
              15
390
1D
  0
LAYER
  5
5B
100
AcDbSymbolTableRecord
100
AcDbLayerTableRecord
  2
003
 70
               0
 62
               7
  6
Continuous
290
               1
370
              15
390
1D
  0
ENDTAB
  0
TABLE
  2
STYLE
  5
3
100
AcDbSymbolTable
 70
               3
  0
STYLE
  5
17
100
AcDbSymbolTableRecord
100
AcDbTextStyleTableRecord
  2
Standard
 70
               0
 40
0.0
 41
1.0
 50
0.0
 71
               0
 42
0.0
  3
txt
  4
BIGFONT.SHX
  0
STYLE
  5
3C
100
AcDbSymbolTableRecord
100
AcDbTextStyleTableRecord
  2
ＭＳ Ｐゴシック
 70
               0
 40
0.0
 41
1.0
 50
0.0
 71
               0
 42
0.0
  3

  4
ＭＳ Ｐゴシック
1001
ACAD
1000
ＭＳ Ｐゴシック
1071
        0
  0
STYLE
  5
3D
100
AcDbSymbolTableRecord
100
AcDbTextStyleTableRecord
  2
ＭＳ Ｐゴシック (bold)
 70
               0
 40
0.0
 41
1.0
 50
0.0
 71
               0
 42
0.0
  3

  4
ＭＳ Ｐゴシック
1001
ACAD
1000
ＭＳ Ｐゴシック
1071
 33554432
  0
ENDTAB
  0
TABLE
  2
VIEW
  5
5
100
AcDbSymbolTable
 70
               0
  0
ENDTAB
  0
TABLE
  2
UCS
  5
6
100
AcDbSymbolTable
 70
               0
  0
ENDTAB
  0
TABLE
  2
APPID
  5
8
100
AcDbSymbolTable
 70
               1
  0
APPID
  5
16
100
AcDbSymbolTableRecord
100
AcDbRegAppTableRecord
  2
ACAD
 70
               0
  0
ENDTAB
  0
TABLE
  2
DIMSTYLE
  5
9
100
AcDbSymbolTable
 70
               2
100
AcDbDimStyleTable
 71
               0
  0
DIMSTYLE
105
18
100
AcDbSymbolTableRecord
100
AcDbDimStyleTableRecord
  2
Standard
 70
               0
  3

  4

 40
1.0
 41
0.18
 42
0.0625
 43
0.38
 44
0.18
 45
0.0
 46
0.0
 47
0.0
 48
0.0
 71
               0
 72
               0
 73
               1
 74
               1
 75
               0
 76
               0
 77
               0
 78
               0
 79
               0
140
0.18
141
0.09
142
0.0
143
25.399999999999999
144
1.0
145
0.0
146
1.0
147
0.09
148
0.0
170
               0
171
               2
172
               0
173
               0
174
               0
175
               0
176
               0
177
               0
178
               0
179
               0
271
               4
272
               4
273
               2
274
               2
275
               0
276
               0
277
               2
278
              46
279
               0
280
               0
281
               0
282
               0
283
               1
284
               0
285
               0
286
               0
288
               0
289
               3
340
17
341
0
342
0
343
0
344
0
371
              -2
372
              -2
  0
DIMSTYLE
105
60
100
AcDbSymbolTableRecord
100
AcDbDimStyleTableRecord
  2
中谷
 70
               0
  3
<>
  4
[]
 40
1.0
 41
6.0027343749999993
 42
3.9999999999999996
 43
7.0
 44
3.9999999999999996
 45
0.0
 46
0.0
 47
0.0
 48
0.0
 71
               0
 72
               0
 73
               0
 74
               0
 75
               0
 76
               0
 77
               1
 78
              11
 79
               0
140
8.7312499999999993
141
0.0
142
0.0
143
1.0
144
1.0
145
0.0
146
1.0
147
0.0099999999627471
148
0.0
170
               0
171
               2
172
               1
173
               0
174
               1
175
               0
176
               0
177
               0
178
               0
179
               0
271
               2
272
               2
273
               2
274
               2
275
               0
276
               2
277
               2
278
              46
279
               0
280
               0
281
               0
282
               0
283
               1
284
              11
285
              11
286
              11
288
               0
289
               0
340
3C
341
5C
342
5C
343
0
344
0
371
              -2
372
              -2
  0
ENDTAB
  0
TABLE
  2
BLOCK_RECORD
  5
1
100
AcDbSymbolTable
 70
              25
  0
BLOCK_RECORD
  5
A
100
AcDbSymbolTableRecord
100
AcDbBlockTableRecord
  2
*MODEL_SPACE
340
20
  0
BLOCK_RECORD
  5
B
100
AcDbSymbolTableRecord
100
AcDbBlockTableRecord
  2
*PAPER_SPACE
340
21
  0
BLOCK_RECORD
  5
5C
100
AcDbSymbolTableRecord
100
AcDbBlockTableRecord
  2
VW_FILLEDARROW
340
0
  0
BLOCK_RECORD
  5
24
100
AcDbSymbolTableRecord
100
AcDbBlockTableRecord
  2
*D1
340
0
  0
BLOCK_RECORD
  5
25
100
AcDbSymbolTableRecord
100
AcDbBlockTableRecord
  2
*D2
340
0
  0
BLOCK_RECORD
  5
26
100
AcDbSymbolTableRecord
100
AcDbBlockTableRecord
  2
*D3
340
0
  0
BLOCK_RECORD
  5
27
100
AcDbSymbolTableRecord
100
AcDbBlockTableRecord
  2
*D4
340
0
  0
BLOCK_RECORD
  5
28
100
AcDbSymbolTableRecord
100
AcDbBlockTableRecord
  2
*D5
340
0
  0
BLOCK_RECORD
  5
29
100
AcDbSymbolTableRecord
100
AcDbBlockTableRecord
  2
*D6
340
0
  0
BLOCK_RECORD
  5
2A
100
AcDbSymbolTableRecord
100
AcDbBlockTableRecord
  2
*D7
340
0
  0
BLOCK_RECORD
  5
2B
100
AcDbSymbolTableRecord
100
AcDbBlockTableRecord
  2
*D8
340
0
  0
BLOCK_RECORD
  5
2C
100
AcDbSymbolTableRecord
100
AcDbBlockTableRecord
  2
*D9
340
0
  0
BLOCK_RECORD
  5
2D
100
AcDbSymbolTableRecord
100
AcDbBlockTableRecord
  2
*D10
340
0
  0
BLOCK_RECORD
  5
2E
100
AcDbSymbolTableRecord
100
AcDbBlockTableRecord
  2
*D11
340
0
  0
BLOCK_RECORD
  5
2F
100
AcDbSymbolTableRecord
100
AcDbBlockTableRecord
  2
*D12
340
0
  0
BLOCK_RECORD
  5
30
100
AcDbSymbolTableRecord
100
AcDbBlockTableRecord
  2
*D13
340
0
  0
BLOCK_RECORD
  5
31
100
AcDbSymbolTableRecord
100
AcDbBlockTableRecord
  2
*D14
340
0
  0
BLOCK_RECORD
  5
32
100
AcDbSymbolTableRecord
100
AcDbBlockTableRecord
  2
*D15
340
0
  0
BLOCK_RECORD
  5
33
100
AcDbSymbolTableRecord
100
AcDbBlockTableRecord
  2
*D16
340
0
  0
BLOCK_RECORD
  5
34
100
AcDbSymbolTableRecord
100
AcDbBlockTableRecord
  2
*D17
340
0
  0
BLOCK_RECORD
  5
35
100
AcDbSymbolTableRecord
100
AcDbBlockTableRecord
  2
*D18
340
0
  0
BLOCK_RECORD
  5
36
100
AcDbSymbolTableRecord
100
AcDbBlockTableRecord
  2
*D19
340
0
  0
BLOCK_RECORD
  5
37
100
AcDbSymbolTableRecord
100
AcDbBlockTableRecord
  2
*D20
340
0
  0
BLOCK_RECORD
  5
38
100
AcDbSymbolTableRecord
100
AcDbBlockTableRecord
  2
*D21
340
0
  0
BLOCK_RECORD
  5
39
100
AcDbSymbolTableRecord
100
AcDbBlockTableRecord
  2
*D22
340
0
  0
BLOCK_RECORD
  5
3A
100
AcDbSymbolTableRecord
100
AcDbBlockTableRecord
  2
*D23
340
0
  0
BLOCK_RECORD
  5
3B
100
AcDbSymbolTableRecord
100
AcDbBlockTableRecord
  2
*D24
340
0
  0
ENDTAB
  0
ENDSEC
  0
SECTION
  2
BLOCKS
  0
BLOCK
  5
D
100
AcDbEntity
  8
0
390
0
100
AcDbBlockBegin
  2
*MODEL_SPACE
 70
               0
 10
0.0
 20
0.0
 30
0.0
  3
*MODEL_SPACE
  1

  0
ENDBLK
  5
E
100
AcDbEntity
  8
0
390
0
100
AcDbBlockEnd
  0
BLOCK
  5
F
100
AcDbEntity
 67
               1
  8
0
390
0
100
AcDbBlockBegin
  2
*PAPER_SPACE
 70
               0
 10
0.0
 20
0.0
 30
0.0
  3
*PAPER_SPACE
  1

  0
ENDBLK
  5
10
100
AcDbEntity
 67
               1
  8
0
390
0
100
AcDbBlockEnd
  0
BLOCK
  5
5D
100
AcDbEntity
  8
0
370
              -2
390
0
  6
ByBlock
 62
               0
100
AcDbBlockBegin
  2
VW_FILLEDARROW
 70
               0
 10
0.0
 20
0.0
 30
0.0
  3
VW_FILLEDARROW
  1

  0
SOLID
  5
5E
100
AcDbEntity
  8
0
370
              -2
390
0
 62
               0
100
AcDbTrace
 10
0.0
 20
0.0
 30
0.0
 11
-0.998388671875
 21
-0.2122140633040501
 31
0.0
 12
-0.998388671875
 22
0.2122140633040499
 32
0.0
 13
-0.998388671875
 23
0.2122140633040499
 33
0.0
  0
ENDBLK
  5
5F
100
AcDbEntity
  8
0
390
0
100
AcDbBlockEnd
  0
BLOCK
  5
61
100
AcDbEntity
  8
寸法
390
0
100
AcDbBlockBegin
  2
*D1
 70
               1
 10
0.0
 20
0.0
 30
0.0
  3
*D1
  1

  0
LINE
  5
62
100
AcDbEntity
  8
寸法
370
              -2
390
0
  6
Continuous
 62
               0
100
AcDbLine
 10
-264.96880013457445
 20
81.876073399999939
 30
0.0
 11
-264.96880013457445
 21
109.0
 31
0.0
  0
LINE
  5
63
100
AcDbEntity
  8
寸法
370
              -2
390
0
  6
Continuous
 62
               0
100
AcDbLine
 10
-134.90220013457434
 20
81.876073399999939
 30
0.0
 11
-134.90220013457434
 21
109.0
 31
0.0
  0
LINE
  5
64
100
AcDbEntity
  8
寸法
370
              -2
390
0
  6
Continuous
 62
               0
100
AcDbLine
 10
-264.96880013457445
 20
105.0
 30
0.0
 11
-134.90220013457434
 21
105.0
 31
0.0
  0
SOLID
  5
65
100
AcDbEntity
  8
寸法
370
              -2
390
0
 62
               0
100
AcDbTrace
 10
-264.96880013457445
 20
105.0
 30
0.0
 11
-258.96606575957446
 21
106.27592057936845
 31
0.0
 12
-258.96606575957446
 22
103.72407942063155
 32
0.0
 13
-258.96606575957446
 23
103.72407942063155
 33
0.0
  0
SOLID
  5
66
100
AcDbEntity
  8
寸法
370
              -2
390
0
 62
               0
100
AcDbTrace
 10
-134.90220013457434
 20
105.0
 30
0.0
 11
-140.90493450957433
 21
103.72407942063155
 31
0.0
 12
-140.90493450957433
 22
106.27592057936845
 32
0.0
 13
-140.90493450957433
 23
106.27592057936845
 33
0.0
  0
MTEXT
  5
67
100
AcDbEntity
  8
寸法
390
0
 62
               0
100
AcDbMText
 10
-210.14520809809403
 20
115.56137000000001
 30
0.0
 40
8.7312499999999993
 41
0.0
 71
               1
 72
               1
  1
130
  7
ＭＳ Ｐゴシック
 73
               1
 44
0.8762322015334064
  0
POINT
  5
68
100
AcDbEntity
  8
Defpoints
370
               0
390
0
 62
               0
100
AcDbPoint
 10
-134.90220013457434
 20
77.876073399999939
 30
0.0
  0
POINT
  5
69
100
AcDbEntity
  8
Defpoints
370
               0
390
0
 62
               0
100
AcDbPoint
 10
-264.96880013457445
 20
77.876073399999939
 30
0.0
  0
POINT
  5
6A
100
AcDbEntity
  8
Defpoints
370
               0
390
0
 62
               0
100
AcDbPoint
 10
-264.96880013457445
 20
105.0
 30
0.0
  0
ENDBLK
  5
6B
100
AcDbEntity
  8
寸法
390
0
100
AcDbBlockEnd
  0
BLOCK
  5
6C
100
AcDbEntity
  8
寸法
390
0
100
AcDbBlockBegin
  2
*D2
 70
               1
 10
0.0
 20
0.0
 30
0.0
  3
*D2
  1

  0
LINE
  5
6D
100
AcDbEntity
  8
寸法
370
              -2
390
0
  6
Continuous
 62
               0
100
AcDbLine
 10
-195.9355201345744
 20
99.306593399999997
 30
0.0
 11
-162.62000013457441
 21
99.306593399999997
 31
0.0
  0
LINE
  5
6E
100
AcDbEntity
  8
寸法
370
              -2
390
0
  6
Continuous
 62
               0
100
AcDbLine
 10
-164.6200001345743
 20
-20.254606599999875
 30
0.0
 11
-162.62000013457441
 21
-20.254606599999875
 31
0.0
  0
LINE
  5
6F
100
AcDbEntity
  8
寸法
370
              -2
390
0
  6
Continuous
 62
               0
100
AcDbLine
 10
-166.62000013457441
 20
99.306593399999997
 30
0.0
 11
-166.62000013457441
 21
-20.254606599999875
 31
0.0
  0
SOLID
  5
70
100
AcDbEntity
  8
寸法
370
              -2
390
0
 62
               0
100
AcDbTrace
 10
-166.62000013457441
 20
99.306593399999997
 30
0.0
 11
-165.34407955520595
 21
93.303859024999994
 31
0.0
 12
-167.89592071394287
 22
93.303859024999994
 32
0.0
 13
-167.89592071394287
 23
93.303859024999994
 33
0.0
  0
SOLID
  5
71
100
AcDbEntity
  8
寸法
370
              -2
390
0
 62
               0
100
AcDbTrace
 10
-166.62000013457441
 20
-20.254606599999875
 30
0.0
 11
-167.89592071394287
 21
-14.251872224999875
 31
0.0
 12
-165.34407955520595
 22
-14.251872224999875
 32
0.0
 13
-165.34407955520595
 23
-14.251872224999875
 33
0.0
  0
MTEXT
  5
72
100
AcDbEntity
  8
寸法
390
0
 62
               0
100
AcDbMText
 10
-177.15925013457442
 20
21.357179165118133
 30
0.0
 40
8.7312499999999993
 41
0.0
 71
               1
 72
               1
  1
120
  7
ＭＳ Ｐゴシック
 11
0.0
 21
1.0
 31
0.0
 73
               1
 44
0.8762322015334064
  0
POINT
  5
73
100
AcDbEntity
  8
Defpoints
370
               0
390
0
 62
               0
100
AcDbPoint
 10
-168.6200001345743
 20
-20.254606599999875
 30
0.0
  0
POINT
  5
74
100
AcDbEntity
  8
Defpoints
370
               0
390
0
 62
               0
100
AcDbPoint
 10
-199.9355201345744
 20
99.306593399999997
 30
0.0
  0
POINT
  5
75
100
AcDbEntity
  8
Defpoints
370
               0
390
0
 62
               0
100
AcDbPoint
 10
-166.62000013457441
 20
99.306593399999997
 30
0.0
  0
ENDBLK
  5
76
100
AcDbEntity
  8
寸法
390
0
100
AcDbBlockEnd
  0
BLOCK
  5
77
100
AcDbEntity
  8
寸法
390
0
100
AcDbBlockBegin
  2
*D3
 70
               1
 10
0.0
 20
0.0
 30
0.0
  3
*D3
  1

  0
LINE
  5
78
100
AcDbEntity
  8
寸法
370
              -2
390
0
  6
Continuous
 62
               0
100
AcDbLine
 10
-272.47260013457452
 20
-105.1185266
 30
0.0
 11
-272.47260013457452
 21
-115.1185266
 31
0.0
  0
LINE
  5
79
100
AcDbEntity
  8
寸法
370
              -2
390
0
  6
Continuous
 62
               0
100
AcDbLine
 10
-127.39840013457467
 20
-105.1185266
 30
0.0
 11
-127.39840013457467
 21
-115.1185266
 31
0.0
  0
LINE
  5
7A
100
AcDbEntity
  8
寸法
370
              -2
390
0
  6
Continuous
 62
               0
100
AcDbLine
 10
-272.47260013457452
 20
-111.1185266
 30
0.0
 11
-127.39840013457467
 21
-111.1185266
 31
0.0
  0
SOLID
  5
7B
100
AcDbEntity
  8
寸法
370
              -2
390
0
 62
               0
100
AcDbTrace
 10
-272.47260013457452
 20
-111.1185266
 30
0.0
 11
-266.46986575957453
 21
-109.84260602063155
 31
0.0
 12
-266.46986575957453
 22
-112.39444717936844
 32
0.0
 13
-266.46986575957453
 23
-112.39444717936844
 33
0.0
  0
SOLID
  5
7C
100
AcDbEntity
  8
寸法
370
              -2
390
0
 62
               0
100
AcDbTrace
 10
-127.39840013457467
 20
-111.1185266
 30
0.0
 11
-133.40113450957466
 21
-112.39444717936844
 31
0.0
 12
-133.40113450957466
 22
-109.84260602063155
 32
0.0
 13
-133.40113450957466
 23
-109.84260602063155
 33
0.0
  0
MTEXT
  5
7D
100
AcDbEntity
  8
寸法
390
0
 62
               0
100
AcDbMText
 10
-209.46050080744482
 20
-100.57927659999999
 30
0.0
 40
8.7312499999999993
 41
0.0
 71
               1
 72
               1
  1
145
  7
ＭＳ Ｐゴシック
 73
               1
 44
0.8762322015334064
  0
POINT
  5
7E
100
AcDbEntity
  8
Defpoints
370
               0
390
0
 62
               0
100
AcDbPoint
 10
-127.39840013457467
 20
-101.1185266
 30
0.0
  0
POINT
  5
7F
100
AcDbEntity
  8
Defpoints
370
               0
390
0
 62
               0
100
AcDbPoint
 10
-272.47260013457452
 20
-101.1185266
 30
0.0
  0
POINT
  5
80
100
AcDbEntity
  8
Defpoints
370
               0
390
0
 62
               0
100
AcDbPoint
 10
-272.47260013457452
 20
-111.1185266
 30
0.0
  0
ENDBLK
  5
81
100
AcDbEntity
  8
寸法
390
0
100
AcDbBlockEnd
  0
BLOCK
  5
82
100
AcDbEntity
  8
寸法
390
0
100
AcDbBlockBegin
  2
*D4
 70
               1
 10
0.0
 20
0.0
 30
0.0
  3
*D4
  1

  0
LINE
  5
83
100
AcDbEntity
  8
寸法
370
              -2
390
0
  6
Continuous
 62
               0
100
AcDbLine
 10
-282.47772013457467
 20
-98.292526599999974
 30
0.0
 11
-282.47772013457467
 21
-135.11852659999997
 31
0.0
  0
LINE
  5
84
100
AcDbEntity
  8
寸法
370
              -2
390
0
  6
Continuous
 62
               0
100
AcDbLine
 10
-117.39320013457473
 20
-98.292526599999974
 30
0.0
 11
-117.39320013457473
 21
-135.11852659999997
 31
0.0
  0
LINE
  5
85
100
AcDbEntity
  8
寸法
370
              -2
390
0
  6
Continuous
 62
               0
100
AcDbLine
 10
-282.47772013457467
 20
-131.11852659999997
 30
0.0
 11
-117.39320013457473
 21
-131.11852659999997
 31
0.0
  0
SOLID
  5
86
100
AcDbEntity
  8
寸法
370
              -2
390
0
 62
               0
100
AcDbTrace
 10
-282.47772013457467
 20
-131.11852659999997
 30
0.0
 11
-276.47498575957468
 21
-129.84260602063151
 31
0.0
 12
-276.47498575957468
 22
-132.39444717936843
 32
0.0
 13
-276.47498575957468
 23
-132.39444717936843
 33
0.0
  0
SOLID
  5
87
100
AcDbEntity
  8
寸法
370
              -2
390
0
 62
               0
100
AcDbTrace
 10
-117.39320013457473
 20
-131.11852659999997
 30
0.0
 11
-123.39593450957473
 21
-132.39444717936843
 31
0.0
 12
-123.39593450957473
 22
-129.84260602063151
 32
0.0
 13
-123.39593450957473
 23
-129.84260602063151
 33
0.0
  0
MTEXT
  5
88
100
AcDbEntity
  8
寸法
390
0
 62
               0
100
AcDbMText
 10
-209.46046080744492
 20
-120.57927659999996
 30
0.0
 40
8.7312499999999993
 41
0.0
 71
               1
 72
               1
  1
165
  7
ＭＳ Ｐゴシック
 73
               1
 44
0.8762322015334064
  0
POINT
  5
89
100
AcDbEntity
  8
Defpoints
370
               0
390
0
 62
               0
100
AcDbPoint
 10
-117.39320013457473
 20
-94.292526599999974
 30
0.0
  0
POINT
  5
8A
100
AcDbEntity
  8
Defpoints
370
               0
390
0
 62
               0
100
AcDbPoint
 10
-282.47772013457467
 20
-94.292526599999974
 30
0.0
  0
POINT
  5
8B
100
AcDbEntity
  8
Defpoints
370
               0
390
0
 62
               0
100
AcDbPoint
 10
-282.47772013457467
 20
-131.11852659999997
 30
0.0
  0
ENDBLK
  5
8C
100
AcDbEntity
  8
寸法
390
0
100
AcDbBlockEnd
  0
BLOCK
  5
8D
100
AcDbEntity
  8
寸法
390
0
100
AcDbBlockBegin
  2
*D5
 70
               1
 10
0.0
 20
0.0
 30
0.0
  3
*D5
  1

  0
LINE
  5
8E
100
AcDbEntity
  8
寸法
370
              -2
390
0
  6
Continuous
 62
               0
100
AcDbLine
 10
-126.74711324684972
 20
-93.004673815079514
 30
0.0
 11
-101.62000013457427
 21
-124.87960712960972
 31
0.0
  0
SOLID
  5
8F
100
AcDbEntity
  8
寸法
370
              -2
390
0
 62
               0
100
AcDbTrace
 10
-126.74711324684972
 20
-93.004673815079514
 30
0.0
 11
-122.04602180825873
 21
-96.949357907331887
 31
0.0
 12
-124.05690008283963
 22
-98.52042819991658
 32
0.0
 13
-124.05690008283963
 23
-98.52042819991658
 33
0.0
  0
LINE
  5
90
100
AcDbEntity
  8
寸法
370
              -2
390
0
  6
Continuous
 62
               0
100
AcDbLine
 10
-101.62000013457427
 20
-124.87960712960972
 30
0.0
 11
-97.620000134574269
 21
-124.87960712960972
 31
0.0
  0
MTEXT
  5
91
100
AcDbEntity
  8
寸法
390
0
 62
               0
100
AcDbMText
 10
-97.620000134574269
 20
-120.72035712960971
 30
0.0
 40
8.7312499999999993
 41
0.0
 71
               1
 72
               1
  1
4-φ7取付穴
  7
ＭＳ Ｐゴシック
 73
               1
 44
0.8762322015334064
  0
POINT
  5
92
100
AcDbEntity
  8
Defpoints
370
               0
390
0
 62
               0
100
AcDbPoint
 10
-131.08288702229981
 20
-87.504539384919212
 30
0.0
  0
POINT
  5
93
100
AcDbEntity
  8
Defpoints
370
               0
390
0
 62
               0
100
AcDbPoint
 10
-126.74711324684972
 20
-93.004673815079514
 30
0.0
  0
ENDBLK
  5
94
100
AcDbEntity
  8
寸法
390
0
100
AcDbBlockEnd
  0
BLOCK
  5
95
100
AcDbEntity
  8
寸法
390
0
100
AcDbBlockBegin
  2
*D6
 70
               1
 10
0.0
 20
0.0
 30
0.0
  3
*D6
  1

  0
LINE
  5
96
100
AcDbEntity
  8
寸法
370
              -2
390
0
  6
Continuous
 62
               0
100
AcDbLine
 10
-113.39320013457473
 20
-94.292526599999974
 30
0.0
 11
-106.62000013457472
 21
-94.292526599999974
 31
0.0
  0
LINE
  5
97
100
AcDbEntity
  8
寸法
370
              -2
390
0
  6
Continuous
 62
               0
100
AcDbLine
 10
-113.39320013457473
 20
-91.99120659999987
 30
0.0
 11
-106.62000013457472
 21
-91.99120659999987
 31
0.0
  0
LINE
  5
98
100
AcDbEntity
  8
寸法
370
              -2
390
0
  6
Continuous
 62
               0
100
AcDbLine
 10
-110.62000013457472
 20
-91.99120659999987
 30
0.0
 11
-110.62000013457472
 21
-94.292526599999974
 31
0.0
  0
LINE
  5
99
100
AcDbEntity
  8
寸法
370
              -2
390
0
  6
Continuous
 62
               0
100
AcDbLine
 10
-110.62000013457472
 20
-94.292526599999974
 30
0.0
 11
-110.62000013457472
 21
-102.29252659999997
 31
0.0
  0
SOLID
  5
9A
100
AcDbEntity
  8
寸法
370
              -2
390
0
 62
               0
100
AcDbTrace
 10
-110.62000013457472
 20
-94.292526599999974
 30
0.0
 11
-109.34407955520628
 21
-100.29526097499998
 31
0.0
 12
-111.89592071394317
 22
-100.29526097499998
 32
0.0
 13
-111.89592071394317
 23
-100.29526097499998
 33
0.0
  0
LINE
  5
9B
100
AcDbEntity
  8
寸法
370
              -2
390
0
  6
Continuous
 62
               0
100
AcDbLine
 10
-110.62000013457472
 20
-91.99120659999987
 30
0.0
 11
-110.62000013457472
 21
-69.298006330851791
 31
0.0
  0
SOLID
  5
9C
100
AcDbEntity
  8
寸法
370
              -2
390
0
 62
               0
100
AcDbTrace
 10
-110.62000013457472
 20
-91.99120659999987
 30
0.0
 11
-111.89592071394317
 21
-85.988472224999867
 31
0.0
 12
-109.34407955520628
 22
-85.988472224999867
 32
0.0
 13
-109.34407955520628
 23
-85.988472224999867
 33
0.0
  0
MTEXT
  5
9D
100
AcDbEntity
  8
寸法
390
0
 62
               0
100
AcDbMText
 10
-121.15925013457472
 20
-84.538006599999875
 30
0.0
 40
8.7312499999999993
 41
0.0
 71
               1
 72
               1
  1
2.3
  7
ＭＳ Ｐゴシック
 11
0.0
 21
1.0
 31
0.0
 73
               1
 44
0.8762322015334064
  0
POINT
  5
9E
100
AcDbEntity
  8
Defpoints
370
               0
390
0
 62
               0
100
AcDbPoint
 10
-117.39320013457473
 20
-91.99120659999987
 30
0.0
  0
POINT
  5
9F
100
AcDbEntity
  8
Defpoints
370
               0
390
0
 62
               0
100
AcDbPoint
 10
-117.39320013457473
 20
-94.292526599999974
 30
0.0
  0
POINT
  5
A0
100
AcDbEntity
  8
Defpoints
370
               0
390
0
 62
               0
100
AcDbPoint
 10
-110.62000013457472
 20
-94.292526599999974
 30
0.0
  0
ENDBLK
  5
A1
100
AcDbEntity
  8
寸法
390
0
100
AcDbBlockEnd
  0
BLOCK
  5
A2
100
AcDbEntity
  8
寸法
390
0
100
AcDbBlockBegin
  2
*D7
 70
               1
 10
0.0
 20
0.0
 30
0.0
  3
*D7
  1

  0
LINE
  5
A3
100
AcDbEntity
  8
寸法
370
              -2
390
0
  6
Continuous
 62
               0
100
AcDbLine
 10
-113.39320013457473
 20
-94.292526599999974
 30
0.0
 11
-89.620000134574369
 21
-94.292526599999974
 31
0.0
  0
LINE
  5
A4
100
AcDbEntity
  8
寸法
370
              -2
390
0
  6
Continuous
 62
               0
100
AcDbLine
 10
-130.90220013457434
 20
-20.254606599999875
 30
0.0
 11
-89.620000134574369
 21
-20.254606599999875
 31
0.0
  0
LINE
  5
A5
100
AcDbEntity
  8
寸法
370
              -2
390
0
  6
Continuous
 62
               0
100
AcDbLine
 10
-93.620000134574369
 20
-94.292526599999974
 30
0.0
 11
-93.620000134574369
 21
-20.254606599999875
 31
0.0
  0
SOLID
  5
A6
100
AcDbEntity
  8
寸法
370
              -2
390
0
 62
               0
100
AcDbTrace
 10
-93.620000134574369
 20
-94.292526599999974
 30
0.0
 11
-94.895920713942814
 21
-88.289792224999971
 31
0.0
 12
-92.344079555205923
 22
-88.289792224999971
 32
0.0
 13
-92.344079555205923
 23
-88.289792224999971
 33
0.0
  0
SOLID
  5
A7
100
AcDbEntity
  8
寸法
370
              -2
390
0
 62
               0
100
AcDbTrace
 10
-93.620000134574369
 20
-20.254606599999875
 30
0.0
 11
-92.344079555205923
 21
-26.257340974999874
 31
0.0
 12
-94.895920713942814
 22
-26.257340974999874
 32
0.0
 13
-94.895920713942814
 23
-26.257340974999874
 33
0.0
  0
MTEXT
  5
A8
100
AcDbEntity
  8
寸法
390
0
 62
               0
100
AcDbMText
 10
-104.15925013457436
 20
-61.468043660546797
 30
0.0
 40
8.7312499999999993
 41
0.0
 71
               1
 72
               1
  1
74
  7
ＭＳ Ｐゴシック
 11
0.0
 21
1.0
 31
0.0
 73
               1
 44
0.8762322015334064
  0
POINT
  5
A9
100
AcDbEntity
  8
Defpoints
370
               0
390
0
 62
               0
100
AcDbPoint
 10
-134.90220013457434
 20
-20.254606599999875
 30
0.0
  0
POINT
  5
AA
100
AcDbEntity
  8
Defpoints
370
               0
390
0
 62
               0
100
AcDbPoint
 10
-117.39320013457473
 20
-94.292526599999974
 30
0.0
  0
POINT
  5
AB
100
AcDbEntity
  8
Defpoints
370
               0
390
0
 62
               0
100
AcDbPoint
 10
-93.620000134574369
 20
-94.292526599999974
 30
0.0
  0
ENDBLK
  5
AC
100
AcDbEntity
  8
寸法
390
0
100
AcDbBlockEnd
  0
BLOCK
  5
AD
100
AcDbEntity
  8
寸法
390
0
100
AcDbBlockBegin
  2
*D8
 70
               1
 10
0.0
 20
0.0
 30
0.0
  3
*D8
  1

  0
LINE
  5
AE
100
AcDbEntity
  8
寸法
370
              -2
390
0
  6
Continuous
 62
               0
100
AcDbLine
 10
-113.39320013457473
 20
-94.292526599999974
 30
0.0
 11
-69.620000134574354
 21
-94.292526599999974
 31
0.0
  0
LINE
  5
AF
100
AcDbEntity
  8
寸法
370
              -2
390
0
  6
Continuous
 62
               0
100
AcDbLine
 10
-133.60360013457466
 20
79.796593400000006
 30
0.0
 11
-69.620000134574354
 21
79.796593400000006
 31
0.0
  0
LINE
  5
B0
100
AcDbEntity
  8
寸法
370
              -2
390
0
  6
Continuous
 62
               0
100
AcDbLine
 10
-73.620000134574354
 20
-94.292526599999974
 30
0.0
 11
-73.620000134574354
 21
79.796593400000006
 31
0.0
  0
SOLID
  5
B1
100
AcDbEntity
  8
寸法
370
              -2
390
0
 62
               0
100
AcDbTrace
 10
-73.620000134574354
 20
-94.292526599999974
 30
0.0
 11
-74.8959207139428
 21
-88.289792224999971
 31
0.0
 12
-72.344079555205909
 22
-88.289792224999971
 32
0.0
 13
-72.344079555205909
 23
-88.289792224999971
 33
0.0
  0
SOLID
  5
B2
100
AcDbEntity
  8
寸法
370
              -2
390
0
 62
               0
100
AcDbTrace
 10
-73.620000134574354
 20
79.796593400000006
 30
0.0
 11
-72.344079555205909
 21
73.793859025000003
 31
0.0
 12
-74.8959207139428
 22
73.793859025000003
 32
0.0
 13
-74.8959207139428
 23
73.793859025000003
 33
0.0
  0
MTEXT
  5
B3
100
AcDbEntity
  8
寸法
390
0
 62
               0
100
AcDbMText
 10
-84.15925013457435
 20
-14.642543166424877
 30
0.0
 40
8.7312499999999993
 41
0.0
 71
               1
 72
               1
  1
174
  7
ＭＳ Ｐゴシック
 11
0.0
 21
1.0
 31
0.0
 73
               1
 44
0.8762322015334064
  0
POINT
  5
B4
100
AcDbEntity
  8
Defpoints
370
               0
390
0
 62
               0
100
AcDbPoint
 10
-137.60360013457466
 20
79.796593400000006
 30
0.0
  0
POINT
  5
B5
100
AcDbEntity
  8
Defpoints
370
               0
390
0
 62
               0
100
AcDbPoint
 10
-117.39320013457473
 20
-94.292526599999974
 30
0.0
  0
POINT
  5
B6
100
AcDbEntity
  8
Defpoints
370
               0
390
0
 62
               0
100
AcDbPoint
 10
-73.620000134574354
 20
-94.292526599999974
 30
0.0
  0
ENDBLK
  5
B7
100
AcDbEntity
  8
寸法
390
0
100
AcDbBlockEnd
  0
BLOCK
  5
B8
100
AcDbEntity
  8
寸法
390
0
100
AcDbBlockBegin
  2
*D9
 70
               1
 10
0.0
 20
0.0
 30
0.0
  3
*D9
  1

  0
LINE
  5
B9
100
AcDbEntity
  8
寸法
370
              -2
390
0
  6
Continuous
 62
               0
100
AcDbLine
 10
70.855136251112384
 20
-35.533331768833136
 30
0.0
 11
50.379999865425589
 21
-90.118526599999996
 31
0.0
  0
SOLID
  5
BA
100
AcDbEntity
  8
寸法
370
              -2
390
0
 62
               0
100
AcDbTrace
 10
70.855136251112384
 20
-35.533331768833136
 30
0.0
 11
69.895123120141903
 21
-41.594616128605971
 31
0.0
 12
67.512774162815191
 22
-40.680118044984127
 32
0.0
 13
67.512774162815191
 23
-40.680118044984127
 33
0.0
  0
LINE
  5
BB
100
AcDbEntity
  8
寸法
370
              -2
390
0
  6
Continuous
 62
               0
100
AcDbLine
 10
50.379999865425589
 20
-90.118526599999996
 30
0.0
 11
46.379999865425589
 21
-90.118526599999996
 31
0.0
  0
MTEXT
  5
BC
100
AcDbEntity
  8
寸法
390
0
 62
               0
100
AcDbMText
 10
-4.4200001345744084
 20
-85.959276599999981
 30
0.0
 40
8.7312499999999993
 41
0.0
 71
               1
 72
               1
  1
歯数30枚
  7
ＭＳ Ｐゴシック
 73
               1
 44
0.8762322015334064
  0
POINT
  5
BD
100
AcDbEntity
  8
Defpoints
370
               0
390
0
 62
               0
100
AcDbPoint
 10
73.314863479738818
 20
-28.975881431166613
 30
0.0
  0
POINT
  5
BE
100
AcDbEntity
  8
Defpoints
370
               0
390
0
 62
               0
100
AcDbPoint
 10
70.855136251112384
 20
-35.533331768833136
 30
0.0
  0
ENDBLK
  5
BF
100
AcDbEntity
  8
寸法
390
0
100
AcDbBlockEnd
  0
BLOCK
  5
C0
100
AcDbEntity
  8
寸法
390
0
100
AcDbBlockBegin
  2
*D10
 70
               1
 10
0.0
 20
0.0
 30
0.0
  3
*D10
  1

  0
LINE
  5
C1
100
AcDbEntity
  8
寸法
370
              -2
390
0
  6
Continuous
 62
               0
100
AcDbLine
 10
109.90579986542548
 20
-98.292526599999974
 30
0.0
 11
109.90579986542548
 21
-135.11852659999997
 31
0.0
  0
LINE
  5
C2
100
AcDbEntity
  8
寸法
370
              -2
390
0
  6
Continuous
 62
               0
100
AcDbLine
 10
189.94679986542548
 20
-98.292526599999974
 30
0.0
 11
189.94679986542548
 21
-135.11852659999997
 31
0.0
  0
LINE
  5
C3
100
AcDbEntity
  8
寸法
370
              -2
390
0
  6
Continuous
 62
               0
100
AcDbLine
 10
109.90579986542548
 20
-131.11852659999997
 30
0.0
 11
189.94679986542548
 21
-131.11852659999997
 31
0.0
  0
SOLID
  5
C4
100
AcDbEntity
  8
寸法
370
              -2
390
0
 62
               0
100
AcDbTrace
 10
109.90579986542548
 20
-131.11852659999997
 30
0.0
 11
115.90853424042548
 21
-129.84260602063151
 31
0.0
 12
115.90853424042548
 22
-132.39444717936843
 32
0.0
 13
115.90853424042548
 23
-132.39444717936843
 33
0.0
  0
SOLID
  5
C5
100
AcDbEntity
  8
寸法
370
              -2
390
0
 62
               0
100
AcDbTrace
 10
189.94679986542548
 20
-131.11852659999997
 30
0.0
 11
183.94406549042549
 21
-132.39444717936843
 31
0.0
 12
183.94406549042549
 22
-129.84260602063151
 32
0.0
 13
183.94406549042549
 23
-129.84260602063151
 33
0.0
  0
MTEXT
  5
C6
100
AcDbEntity
  8
寸法
390
0
 62
               0
100
AcDbMText
 10
143.57629986542548
 20
-120.57927659999996
 30
0.0
 40
8.7312499999999993
 41
0.0
 71
               1
 72
               1
  1
80
  7
ＭＳ Ｐゴシック
 73
               1
 44
0.8762322015334064
  0
POINT
  5
C7
100
AcDbEntity
  8
Defpoints
370
               0
390
0
 62
               0
100
AcDbPoint
 10
189.94679986542548
 20
-94.292526599999974
 30
0.0
  0
POINT
  5
C8
100
AcDbEntity
  8
Defpoints
370
               0
390
0
 62
               0
100
AcDbPoint
 10
109.90579986542548
 20
-94.292526599999974
 30
0.0
  0
POINT
  5
C9
100
AcDbEntity
  8
Defpoints
370
               0
390
0
 62
               0
100
AcDbPoint
 10
109.90579986542548
 20
-131.11852659999997
 30
0.0
  0
ENDBLK
  5
CA
100
AcDbEntity
  8
寸法
390
0
100
AcDbBlockEnd
  0
BLOCK
  5
CB
100
AcDbEntity
  8
寸法
390
0
100
AcDbBlockBegin
  2
*D11
 70
               1
 10
0.0
 20
0.0
 30
0.0
  3
*D11
  1

  0
LINE
  5
CC
100
AcDbEntity
  8
寸法
370
              -2
390
0
  6
Continuous
 62
               0
100
AcDbLine
 10
109.90579986542548
 20
-99.118526599999996
 30
0.0
 11
109.90579986542548
 21
-115.1185266
 31
0.0
  0
LINE
  5
CD
100
AcDbEntity
  8
寸法
370
              -2
390
0
  6
Continuous
 62
               0
100
AcDbLine
 10
119.91099986542545
 20
-104.89500659999999
 30
0.0
 11
119.91099986542545
 21
-115.1185266
 31
0.0
  0
LINE
  5
CE
100
AcDbEntity
  8
寸法
370
              -2
390
0
  6
Continuous
 62
               0
100
AcDbLine
 10
119.91099986542545
 20
-111.1185266
 30
0.0
 11
109.90579986542548
 21
-111.1185266
 31
0.0
  0
LINE
  5
CF
100
AcDbEntity
  8
寸法
370
              -2
390
0
  6
Continuous
 62
               0
100
AcDbLine
 10
109.90579986542548
 20
-111.1185266
 30
0.0
 11
96.679879865425477
 21
-111.1185266
 31
0.0
  0
SOLID
  5
D0
100
AcDbEntity
  8
寸法
370
              -2
390
0
 62
               0
100
AcDbTrace
 10
109.90579986542548
 20
-111.1185266
 30
0.0
 11
103.90306549042548
 21
-112.39444717936844
 31
0.0
 12
103.90306549042548
 22
-109.84260602063155
 32
0.0
 13
103.90306549042548
 23
-109.84260602063155
 33
0.0
  0
LINE
  5
D1
100
AcDbEntity
  8
寸法
370
              -2
390
0
  6
Continuous
 62
               0
100
AcDbLine
 10
119.91099986542545
 20
-111.1185266
 30
0.0
 11
127.91099986542545
 21
-111.1185266
 31
0.0
  0
SOLID
  5
D2
100
AcDbEntity
  8
寸法
370
              -2
390
0
 62
               0
100
AcDbTrace
 10
119.91099986542545
 20
-111.1185266
 30
0.0
 11
125.91373424042546
 21
-109.84260602063155
 31
0.0
 12
125.91373424042546
 22
-112.39444717936844
 32
0.0
 13
125.91373424042546
 23
-112.39444717936844
 33
0.0
  0
MTEXT
  5
D3
100
AcDbEntity
  8
寸法
390
0
 62
               0
100
AcDbMText
 10
96.679879865425491
 20
-100.57927659999999
 30
0.0
 40
8.7312499999999993
 41
0.0
 71
               1
 72
               1
  1
10
  7
ＭＳ Ｐゴシック
 73
               1
 44
0.8762322015334064
  0
POINT
  5
D4
100
AcDbEntity
  8
Defpoints
370
               0
390
0
 62
               0
100
AcDbPoint
 10
119.91099986542545
 20
-100.89500659999999
 30
0.0
  0
POINT
  5
D5
100
AcDbEntity
  8
Defpoints
370
               0
390
0
 62
               0
100
AcDbPoint
 10
109.90579986542548
 20
-95.118526599999996
 30
0.0
  0
POINT
  5
D6
100
AcDbEntity
  8
Defpoints
370
               0
390
0
 62
               0
100
AcDbPoint
 10
109.90579986542548
 20
-111.1185266
 30
0.0
  0
ENDBLK
  5
D7
100
AcDbEntity
  8
寸法
390
0
100
AcDbBlockEnd
  0
BLOCK
  5
D8
100
AcDbEntity
  8
寸法
390
0
100
AcDbBlockBegin
  2
*D12
 70
               1
 10
0.0
 20
0.0
 30
0.0
  3
*D12
  1

  0
LINE
  5
D9
100
AcDbEntity
  8
寸法
370
              -2
390
0
  6
Continuous
 62
               0
100
AcDbLine
 10
119.91099986542545
 20
-105.1185266
 30
0.0
 11
119.91099986542545
 21
-115.1185266
 31
0.0
  0
LINE
  5
DA
100
AcDbEntity
  8
寸法
370
              -2
390
0
  6
Continuous
 62
               0
100
AcDbLine
 10
179.9416798654253
 20
-105.1185266
 30
0.0
 11
179.9416798654253
 21
-115.1185266
 31
0.0
  0
LINE
  5
DB
100
AcDbEntity
  8
寸法
370
              -2
390
0
  6
Continuous
 62
               0
100
AcDbLine
 10
119.91099986542545
 20
-111.1185266
 30
0.0
 11
179.9416798654253
 21
-111.1185266
 31
0.0
  0
SOLID
  5
DC
100
AcDbEntity
  8
寸法
370
              -2
390
0
 62
               0
100
AcDbTrace
 10
119.91099986542545
 20
-111.1185266
 30
0.0
 11
125.91373424042546
 21
-109.84260602063155
 31
0.0
 12
125.91373424042546
 22
-112.39444717936844
 32
0.0
 13
125.91373424042546
 23
-112.39444717936844
 33
0.0
  0
SOLID
  5
DD
100
AcDbEntity
  8
寸法
370
              -2
390
0
 62
               0
100
AcDbTrace
 10
179.9416798654253
 20
-111.1185266
 30
0.0
 11
173.93894549042531
 21
-112.39444717936844
 31
0.0
 12
173.93894549042531
 22
-109.84260602063155
 32
0.0
 13
173.93894549042531
 23
-109.84260602063155
 33
0.0
  0
MTEXT
  5
DE
100
AcDbEntity
  8
寸法
390
0
 62
               0
100
AcDbMText
 10
143.57633986542538
 20
-100.57927659999999
 30
0.0
 40
8.7312499999999993
 41
0.0
 71
               1
 72
               1
  1
60
  7
ＭＳ Ｐゴシック
 73
               1
 44
0.8762322015334064
  0
POINT
  5
DF
100
AcDbEntity
  8
Defpoints
370
               0
390
0
 62
               0
100
AcDbPoint
 10
179.9416798654253
 20
-101.1185266
 30
0.0
  0
POINT
  5
E0
100
AcDbEntity
  8
Defpoints
370
               0
390
0
 62
               0
100
AcDbPoint
 10
119.91099986542545
 20
-101.1185266
 30
0.0
  0
POINT
  5
E1
100
AcDbEntity
  8
Defpoints
370
               0
390
0
 62
               0
100
AcDbPoint
 10
119.91099986542545
 20
-111.1185266
 30
0.0
  0
ENDBLK
  5
E2
100
AcDbEntity
  8
寸法
390
0
100
AcDbBlockEnd
  0
BLOCK
  5
E3
100
AcDbEntity
  8
寸法
390
0
100
AcDbBlockBegin
  2
*D13
 70
               1
 10
0.0
 20
0.0
 30
0.0
  3
*D13
  1

  0
LINE
  5
E4
100
AcDbEntity
  8
寸法
370
              -2
390
0
  6
Continuous
 62
               0
100
AcDbLine
 10
179.9416798654253
 20
-104.06900659999997
 30
0.0
 11
179.9416798654253
 21
-115.11852659999997
 31
0.0
  0
LINE
  5
E5
100
AcDbEntity
  8
寸法
370
              -2
390
0
  6
Continuous
 62
               0
100
AcDbLine
 10
189.94679986542548
 20
-98.292526599999974
 30
0.0
 11
189.94679986542548
 21
-115.11852659999997
 31
0.0
  0
LINE
  5
E6
100
AcDbEntity
  8
寸法
370
              -2
390
0
  6
Continuous
 62
               0
100
AcDbLine
 10
189.94679986542548
 20
-111.11852659999997
 30
0.0
 11
179.9416798654253
 21
-111.11852659999997
 31
0.0
  0
LINE
  5
E7
100
AcDbEntity
  8
寸法
370
              -2
390
0
  6
Continuous
 62
               0
100
AcDbLine
 10
179.9416798654253
 20
-111.11852659999997
 30
0.0
 11
171.9416798654253
 21
-111.11852659999997
 31
0.0
  0
SOLID
  5
E8
100
AcDbEntity
  8
寸法
370
              -2
390
0
 62
               0
100
AcDbTrace
 10
179.9416798654253
 20
-111.11852659999997
 30
0.0
 11
173.93894549042531
 21
-112.39444717936841
 31
0.0
 12
173.93894549042531
 22
-109.84260602063152
 32
0.0
 13
173.93894549042531
 23
-109.84260602063152
 33
0.0
  0
LINE
  5
E9
100
AcDbEntity
  8
寸法
370
              -2
390
0
  6
Continuous
 62
               0
100
AcDbLine
 10
189.94679986542548
 20
-111.11852659999997
 30
0.0
 11
212.07999986542546
 21
-111.11852659999997
 31
0.0
  0
SOLID
  5
EA
100
AcDbEntity
  8
寸法
370
              -2
390
0
 62
               0
100
AcDbTrace
 10
189.94679986542548
 20
-111.11852659999997
 30
0.0
 11
195.94953424042546
 21
-109.84260602063152
 31
0.0
 12
195.94953424042546
 22
-112.39444717936841
 32
0.0
 13
195.94953424042546
 23
-112.39444717936841
 33
0.0
  0
MTEXT
  5
EB
100
AcDbEntity
  8
寸法
390
0
 62
               0
100
AcDbMText
 10
199.37999986542548
 20
-100.57927659999996
 30
0.0
 40
8.7312499999999993
 41
0.0
 71
               1
 72
               1
  1
10
  7
ＭＳ Ｐゴシック
 73
               1
 44
0.8762322015334064
  0
POINT
  5
EC
100
AcDbEntity
  8
Defpoints
370
               0
390
0
 62
               0
100
AcDbPoint
 10
189.94679986542548
 20
-94.292526599999974
 30
0.0
  0
POINT
  5
ED
100
AcDbEntity
  8
Defpoints
370
               0
390
0
 62
               0
100
AcDbPoint
 10
179.9416798654253
 20
-100.06900659999997
 30
0.0
  0
POINT
  5
EE
100
AcDbEntity
  8
Defpoints
370
               0
390
0
 62
               0
100
AcDbPoint
 10
179.9416798654253
 20
-111.11852659999997
 30
0.0
  0
ENDBLK
  5
EF
100
AcDbEntity
  8
寸法
390
0
100
AcDbBlockEnd
  0
BLOCK
  5
F0
100
AcDbEntity
  8
寸法
390
0
100
AcDbBlockBegin
  2
*D14
 70
               1
 10
0.0
 20
0.0
 30
0.0
  3
*D14
  1

  0
LINE
  5
F1
100
AcDbEntity
  8
寸法
370
              -2
390
0
  6
Continuous
 62
               0
100
AcDbLine
 10
155.3799998654253
 20
51.782193399999983
 30
0.0
 11
161.3799998654253
 21
51.782193399999983
 31
0.0
  0
LINE
  5
F2
100
AcDbEntity
  8
寸法
370
              -2
390
0
  6
Continuous
 62
               0
100
AcDbLine
 10
155.3799998654253
 20
-94.292526599999974
 30
0.0
 11
161.3799998654253
 21
-94.292526599999974
 31
0.0
  0
LINE
  5
F3
100
AcDbEntity
  8
寸法
370
              -2
390
0
  6
Continuous
 62
               0
100
AcDbLine
 10
157.3799998654253
 20
51.782193399999983
 30
0.0
 11
157.3799998654253
 21
-94.292526599999974
 31
0.0
  0
SOLID
  5
F4
100
AcDbEntity
  8
寸法
370
              -2
390
0
 62
               0
100
AcDbTrace
 10
157.3799998654253
 20
51.782193399999983
 30
0.0
 11
158.65592044479376
 21
45.77945902499998
 31
0.0
 12
156.10407928605684
 22
45.779459024999987
 32
0.0
 13
156.10407928605684
 23
45.779459024999987
 33
0.0
  0
SOLID
  5
F5
100
AcDbEntity
  8
寸法
370
              -2
390
0
 62
               0
100
AcDbTrace
 10
157.3799998654253
 20
-94.292526599999974
 30
0.0
 11
156.10407928605684
 21
-88.289792224999971
 31
0.0
 12
158.65592044479376
 22
-88.289792224999971
 32
0.0
 13
158.65592044479376
 23
-88.289792224999971
 33
0.0
  0
MTEXT
  5
F6
100
AcDbEntity
  8
寸法
390
0
 62
               0
100
AcDbMText
 10
146.84074986542529
 20
-16.644335451581149
 30
0.0
 40
8.7312499999999993
 41
0.0
 71
               1
 72
               1
  1
146
  7
ＭＳ Ｐゴシック
 11
0.0
 21
1.0
 31
0.0
 73
               1
 44
0.8762322015334064
  0
POINT
  5
F7
100
AcDbEntity
  8
Defpoints
370
               0
390
0
 62
               0
100
AcDbPoint
 10
151.3799998654253
 20
-94.292526599999974
 30
0.0
  0
POINT
  5
F8
100
AcDbEntity
  8
Defpoints
370
               0
390
0
 62
               0
100
AcDbPoint
 10
151.3799998654253
 20
51.782193399999983
 30
0.0
  0
POINT
  5
F9
100
AcDbEntity
  8
Defpoints
370
               0
390
0
 62
               0
100
AcDbPoint
 10
157.3799998654253
 20
51.782193399999983
 30
0.0
  0
ENDBLK
  5
FA
100
AcDbEntity
  8
寸法
390
0
100
AcDbBlockEnd
  0
BLOCK
  5
FB
100
AcDbEntity
  8
寸法
390
0
100
AcDbBlockBegin
  2
*D15
 70
               1
 10
0.0
 20
0.0
 30
0.0
  3
*D15
  1

  0
LINE
  5
FC
100
AcDbEntity
  8
寸法
370
              -2
390
0
  6
Continuous
 62
               0
100
AcDbLine
 10
95.898679865425635
 20
82.595873399999959
 30
0.0
 11
95.898679865425635
 21
105.13907357259374
 31
0.0
  0
LINE
  5
FD
100
AcDbEntity
  8
寸法
370
              -2
390
0
  6
Continuous
 62
               0
100
AcDbLine
 10
133.91807986542557
 20
92.881473399999948
 30
0.0
 11
133.91807986542557
 21
105.13907357259374
 31
0.0
  0
LINE
  5
FE
100
AcDbEntity
  8
寸法
370
              -2
390
0
  6
Continuous
 62
               0
100
AcDbLine
 10
95.898679865425635
 20
101.13907357259374
 30
0.0
 11
133.91807986542557
 21
101.13907357259374
 31
0.0
  0
SOLID
  5
FF
100
AcDbEntity
  8
寸法
370
              -2
390
0
 62
               0
100
AcDbTrace
 10
95.898679865425635
 20
101.13907357259374
 30
0.0
 11
101.90141424042564
 21
102.41499415196219
 31
0.0
 12
101.90141424042564
 22
99.863152993225299
 32
0.0
 13
101.90141424042564
 23
99.863152993225299
 33
0.0
  0
SOLID
  5
100
100
AcDbEntity
  8
寸法
370
              -2
390
0
 62
               0
100
AcDbTrace
 10
133.91807986542557
 20
101.13907357259374
 30
0.0
 11
127.91534549042557
 21
99.863152993225299
 31
0.0
 12
127.91534549042557
 22
102.41499415196219
 32
0.0
 13
127.91534549042557
 23
102.41499415196219
 33
0.0
  0
MTEXT
  5
101
100
AcDbEntity
  8
寸法
390
0
 62
               0
100
AcDbMText
 10
112.09188003801941
 20
111.67832357259375
 30
0.0
 40
8.7312499999999993
 41
0.0
 71
               1
 72
               1
  1
38
  7
ＭＳ Ｐゴシック
 73
               1
 44
0.8762322015334064
  0
POINT
  5
102
100
AcDbEntity
  8
Defpoints
370
               0
390
0
 62
               0
100
AcDbPoint
 10
133.91807986542557
 20
88.881473399999948
 30
0.0
  0
POINT
  5
103
100
AcDbEntity
  8
Defpoints
370
               0
390
0
 62
               0
100
AcDbPoint
 10
95.898679865425635
 20
78.595873399999959
 30
0.0
  0
POINT
  5
104
100
AcDbEntity
  8
Defpoints
370
               0
390
0
 62
               0
100
AcDbPoint
 10
95.898679865425635
 20
101.13907357259374
 30
0.0
  0
ENDBLK
  5
105
100
AcDbEntity
  8
寸法
390
0
100
AcDbBlockEnd
  0
BLOCK
  5
106
100
AcDbEntity
  8
寸法
390
0
100
AcDbBlockBegin
  2
*D16
 70
               1
 10
0.0
 20
0.0
 30
0.0
  3
*D16
  1

  0
LINE
  5
107
100
AcDbEntity
  8
寸法
370
              -2
390
0
  6
Continuous
 62
               0
100
AcDbLine
 10
137.1945998654254
 20
61.745073400000024
 30
0.0
 11
150.62098333235144
 21
100.88145071174252
 31
0.0
  0
SOLID
  5
108
100
AcDbEntity
  8
寸法
370
              -2
390
0
 62
               0
100
AcDbTrace
 10
137.1945998654254
 20
61.745073400000024
 30
0.0
 11
137.94249240880836
 21
67.836169364209965
 31
0.0
 12
140.355305626373
 22
67.005371147692188
 32
0.0
 13
140.355305626373
 23
67.005371147692188
 33
0.0
  0
LINE
  5
109
100
AcDbEntity
  8
寸法
370
              -2
390
0
  6
Continuous
 62
               0
100
AcDbLine
 10
150.62098333235144
 20
100.88145071174252
 30
0.0
 11
154.62098333235144
 21
100.88145071174252
 31
0.0
  0
MTEXT
  5
10A
100
AcDbEntity
  8
寸法
390
0
 62
               0
100
AcDbMText
 10
154.62098333235144
 20
105.04070071174253
 30
0.0
 40
8.7312499999999993
 41
0.0
 71
               1
 72
               1
  1
2-φ21電線口×2ヶ
  7
ＭＳ Ｐゴシック
 73
               1
 44
0.8762322015334064
  0
POINT
  5
10B
100
AcDbEntity
  8
Defpoints
370
               0
390
0
 62
               0
100
AcDbPoint
 10
130.3799998654253
 20
41.881473399999948
 30
0.0
  0
POINT
  5
10C
100
AcDbEntity
  8
Defpoints
370
               0
390
0
 62
               0
100
AcDbPoint
 10
137.1945998654254
 20
61.745073400000024
 30
0.0
  0
ENDBLK
  5
10D
100
AcDbEntity
  8
寸法
390
0
100
AcDbBlockEnd
  0
BLOCK
  5
10E
100
AcDbEntity
  8
寸法
390
0
100
AcDbBlockBegin
  2
*D17
 70
               1
 10
0.0
 20
0.0
 30
0.0
  3
*D17
  1

  0
LINE
  5
10F
100
AcDbEntity
  8
寸法
370
              -2
390
0
  6
Continuous
 62
               0
100
AcDbLine
 10
95.898679865425635
 20
82.595873399999959
 30
0.0
 11
95.898679865425635
 21
120.88147339999996
 31
0.0
  0
LINE
  5
110
100
AcDbEntity
  8
寸法
370
              -2
390
0
  6
Continuous
 62
               0
100
AcDbLine
 10
261.98367986542553
 20
63.944273400000043
 30
0.0
 11
261.98367986542553
 21
120.88147339999996
 31
0.0
  0
LINE
  5
111
100
AcDbEntity
  8
寸法
370
              -2
390
0
  6
Continuous
 62
               0
100
AcDbLine
 10
95.898679865425635
 20
116.88147339999996
 30
0.0
 11
261.98367986542553
 21
116.88147339999996
 31
0.0
  0
SOLID
  5
112
100
AcDbEntity
  8
寸法
370
              -2
390
0
 62
               0
100
AcDbTrace
 10
95.898679865425635
 20
116.88147339999996
 30
0.0
 11
101.90141424042564
 21
118.15739397936841
 31
0.0
 12
101.90141424042564
 22
115.60555282063152
 32
0.0
 13
101.90141424042564
 23
115.60555282063152
 33
0.0
  0
SOLID
  5
113
100
AcDbEntity
  8
寸法
370
              -2
390
0
 62
               0
100
AcDbTrace
 10
261.98367986542553
 20
116.88147339999996
 30
0.0
 11
255.98094549042554
 21
115.60555282063152
 31
0.0
 12
255.98094549042554
 22
118.15739397936841
 32
0.0
 13
255.98094549042554
 23
118.15739397936841
 33
0.0
  0
MTEXT
  5
114
100
AcDbEntity
  8
寸法
390
0
 62
               0
100
AcDbMText
 10
169.41617919255535
 20
127.42072339999997
 30
0.0
 40
8.7312499999999993
 41
0.0
 71
               1
 72
               1
  1
166
  7
ＭＳ Ｐゴシック
 73
               1
 44
0.8762322015334064
  0
POINT
  5
115
100
AcDbEntity
  8
Defpoints
370
               0
390
0
 62
               0
100
AcDbPoint
 10
261.98367986542553
 20
59.944273400000043
 30
0.0
  0
POINT
  5
116
100
AcDbEntity
  8
Defpoints
370
               0
390
0
 62
               0
100
AcDbPoint
 10
95.898679865425635
 20
78.595873399999959
 30
0.0
  0
POINT
  5
117
100
AcDbEntity
  8
Defpoints
370
               0
390
0
 62
               0
100
AcDbPoint
 10
95.898679865425635
 20
116.88147339999996
 30
0.0
  0
ENDBLK
  5
118
100
AcDbEntity
  8
寸法
390
0
100
AcDbBlockEnd
  0
BLOCK
  5
119
100
AcDbEntity
  8
寸法
390
0
100
AcDbBlockBegin
  2
*D18
 70
               1
 10
0.0
 20
0.0
 30
0.0
  3
*D18
  1

  0
LINE
  5
11A
100
AcDbEntity
  8
寸法
370
              -2
390
0
  6
Continuous
 62
               0
100
AcDbLine
 10
60.440479865425402
 20
103.06767340000005
 30
0.0
 11
60.440479865425402
 21
120.88147340000005
 31
0.0
  0
LINE
  5
11B
100
AcDbEntity
  8
寸法
370
              -2
390
0
  6
Continuous
 62
               0
100
AcDbLine
 10
95.898679865425635
 20
82.595873399999959
 30
0.0
 11
95.898679865425635
 21
120.88147340000005
 31
0.0
  0
LINE
  5
11C
100
AcDbEntity
  8
寸法
370
              -2
390
0
  6
Continuous
 62
               0
100
AcDbLine
 10
60.440479865425402
 20
116.88147340000005
 30
0.0
 11
95.898679865425635
 21
116.88147340000005
 31
0.0
  0
SOLID
  5
11D
100
AcDbEntity
  8
寸法
370
              -2
390
0
 62
               0
100
AcDbTrace
 10
60.440479865425402
 20
116.88147340000005
 30
0.0
 11
66.443214240425405
 21
118.15739397936849
 31
0.0
 12
66.443214240425405
 22
115.6055528206316
 32
0.0
 13
66.443214240425405
 23
115.6055528206316
 33
0.0
  0
SOLID
  5
11E
100
AcDbEntity
  8
寸法
370
              -2
390
0
 62
               0
100
AcDbTrace
 10
95.898679865425635
 20
116.88147340000005
 30
0.0
 11
89.895945490425632
 21
115.6055528206316
 31
0.0
 12
89.895945490425632
 22
118.15739397936849
 32
0.0
 13
89.895945490425632
 23
118.15739397936849
 33
0.0
  0
MTEXT
  5
11F
100
AcDbEntity
  8
寸法
390
0
 62
               0
100
AcDbMText
 10
71.819579865425524
 20
127.42072340000006
 30
0.0
 40
8.7312499999999993
 41
0.0
 71
               1
 72
               1
  1
35
  7
ＭＳ Ｐゴシック
 73
               1
 44
0.8762322015334064
  0
POINT
  5
120
100
AcDbEntity
  8
Defpoints
370
               0
390
0
 62
               0
100
AcDbPoint
 10
95.898679865425635
 20
78.595873399999959
 30
0.0
  0
POINT
  5
121
100
AcDbEntity
  8
Defpoints
370
               0
390
0
 62
               0
100
AcDbPoint
 10
60.440479865425402
 20
99.067673400000047
 30
0.0
  0
POINT
  5
122
100
AcDbEntity
  8
Defpoints
370
               0
390
0
 62
               0
100
AcDbPoint
 10
60.440479865425402
 20
116.88147340000005
 30
0.0
  0
ENDBLK
  5
123
100
AcDbEntity
  8
寸法
390
0
100
AcDbBlockEnd
  0
BLOCK
  5
124
100
AcDbEntity
  8
寸法
390
0
100
AcDbBlockBegin
  2
*D19
 70
               1
 10
0.0
 20
0.0
 30
0.0
  3
*D19
  1

  0
LINE
  5
125
100
AcDbEntity
  8
寸法
370
              -2
390
0
  6
Continuous
 62
               0
100
AcDbLine
 10
51.935679865425527
 20
68.933873400000095
 30
0.0
 11
51.935679865425527
 21
120.88151340000005
 31
0.0
  0
LINE
  5
126
100
AcDbEntity
  8
寸法
370
              -2
390
0
  6
Continuous
 62
               0
100
AcDbLine
 10
60.440479865425402
 20
103.27839340000008
 30
0.0
 11
60.440479865425402
 21
120.88151340000005
 31
0.0
  0
LINE
  5
127
100
AcDbEntity
  8
寸法
370
              -2
390
0
  6
Continuous
 62
               0
100
AcDbLine
 10
60.440479865425402
 20
116.88151340000005
 30
0.0
 11
51.935679865425527
 21
116.88151340000005
 31
0.0
  0
LINE
  5
128
100
AcDbEntity
  8
寸法
370
              -2
390
0
  6
Continuous
 62
               0
100
AcDbLine
 10
51.935679865425527
 20
116.88151340000005
 30
0.0
 11
41.02999986542568
 21
116.88151340000005
 31
0.0
  0
SOLID
  5
129
100
AcDbEntity
  8
寸法
370
              -2
390
0
 62
               0
100
AcDbTrace
 10
51.935679865425527
 20
116.88151340000005
 30
0.0
 11
45.932945490425524
 21
115.6055928206316
 31
0.0
 12
45.932945490425524
 22
118.15743397936849
 32
0.0
 13
45.932945490425524
 23
118.15743397936849
 33
0.0
  0
LINE
  5
12A
100
AcDbEntity
  8
寸法
370
              -2
390
0
  6
Continuous
 62
               0
100
AcDbLine
 10
60.440479865425402
 20
116.88151340000005
 30
0.0
 11
68.440479865425402
 21
116.88151340000005
 31
0.0
  0
SOLID
  5
12B
100
AcDbEntity
  8
寸法
370
              -2
390
0
 62
               0
100
AcDbTrace
 10
60.440479865425402
 20
116.88151340000005
 30
0.0
 11
66.443214240425405
 21
118.15743397936849
 31
0.0
 12
66.443214240425405
 22
115.6055928206316
 32
0.0
 13
66.443214240425405
 23
115.6055928206316
 33
0.0
  0
MTEXT
  5
12C
100
AcDbEntity
  8
寸法
390
0
 62
               0
100
AcDbMText
 10
41.02999986542568
 20
127.42076340000004
 30
0.0
 40
8.7312499999999993
 41
0.0
 71
               1
 72
               1
  1
9
  7
ＭＳ Ｐゴシック
 73
               1
 44
0.8762322015334064
  0
POINT
  5
12D
100
AcDbEntity
  8
Defpoints
370
               0
390
0
 62
               0
100
AcDbPoint
 10
60.440479865425402
 20
99.278393400000084
 30
0.0
  0
POINT
  5
12E
100
AcDbEntity
  8
Defpoints
370
               0
390
0
 62
               0
100
AcDbPoint
 10
51.935679865425527
 20
64.933873400000095
 30
0.0
  0
POINT
  5
12F
100
AcDbEntity
  8
Defpoints
370
               0
390
0
 62
               0
100
AcDbPoint
 10
51.935679865425527
 20
116.88151340000005
 30
0.0
  0
ENDBLK
  5
130
100
AcDbEntity
  8
寸法
390
0
100
AcDbBlockEnd
  0
BLOCK
  5
131
100
AcDbEntity
  8
寸法
390
0
100
AcDbBlockBegin
  2
*D20
 70
               1
 10
0.0
 20
0.0
 30
0.0
  3
*D20
  1

  0
LINE
  5
132
100
AcDbEntity
  8
寸法
370
              -2
390
0
  6
Continuous
 62
               0
100
AcDbLine
 10
27.423079865425507
 20
70.089473399999974
 30
0.0
 11
27.423079865425507
 21
140.88151340000007
 31
0.0
  0
LINE
  5
133
100
AcDbEntity
  8
寸法
370
              -2
390
0
  6
Continuous
 62
               0
100
AcDbLine
 10
261.98367986542553
 20
63.944273400000043
 30
0.0
 11
261.98367986542553
 21
140.88151340000007
 31
0.0
  0
LINE
  5
134
100
AcDbEntity
  8
寸法
370
              -2
390
0
  6
Continuous
 62
               0
100
AcDbLine
 10
27.423079865425507
 20
136.88151340000007
 30
0.0
 11
261.98367986542553
 21
136.88151340000007
 31
0.0
  0
SOLID
  5
135
100
AcDbEntity
  8
寸法
370
              -2
390
0
 62
               0
100
AcDbTrace
 10
27.423079865425507
 20
136.88151340000007
 30
0.0
 11
33.42581424042551
 21
138.15743397936853
 31
0.0
 12
33.42581424042551
 22
135.60559282063161
 32
0.0
 13
33.42581424042551
 23
135.60559282063161
 33
0.0
  0
SOLID
  5
136
100
AcDbEntity
  8
寸法
370
              -2
390
0
 62
               0
100
AcDbTrace
 10
261.98367986542553
 20
136.88151340000007
 30
0.0
 11
255.98094549042554
 21
135.60559282063161
 31
0.0
 12
255.98094549042554
 22
138.15743397936853
 32
0.0
 13
255.98094549042554
 23
138.15743397936853
 33
0.0
  0
MTEXT
  5
137
100
AcDbEntity
  8
寸法
390
0
 62
               0
100
AcDbMText
 10
135.1783791925553
 20
147.42076340000006
 30
0.0
 40
8.7312499999999993
 41
0.0
 71
               1
 72
               1
  1
235
  7
ＭＳ Ｐゴシック
 73
               1
 44
0.8762322015334064
  0
POINT
  5
138
100
AcDbEntity
  8
Defpoints
370
               0
390
0
 62
               0
100
AcDbPoint
 10
261.98367986542553
 20
59.944273400000043
 30
0.0
  0
POINT
  5
139
100
AcDbEntity
  8
Defpoints
370
               0
390
0
 62
               0
100
AcDbPoint
 10
27.423079865425507
 20
66.089473399999974
 30
0.0
  0
POINT
  5
13A
100
AcDbEntity
  8
Defpoints
370
               0
390
0
 62
               0
100
AcDbPoint
 10
27.423079865425507
 20
136.88151340000007
 30
0.0
  0
ENDBLK
  5
13B
100
AcDbEntity
  8
寸法
390
0
100
AcDbBlockEnd
  0
BLOCK
  5
13C
100
AcDbEntity
  8
寸法
390
0
100
AcDbBlockBegin
  2
*D21
 70
               1
 10
0.0
 20
0.0
 30
0.0
  3
*D21
  1

  0
LINE
  5
13D
100
AcDbEntity
  8
寸法
370
              -2
390
0
  6
Continuous
 62
               0
100
AcDbLine
 10
47.379999865425305
 20
-20.254606599999875
 30
0.0
 11
-7.6200001345743331
 21
-20.254606599999875
 31
0.0
  0
LINE
  5
13E
100
AcDbEntity
  8
寸法
370
              -2
390
0
  6
Continuous
 62
               0
100
AcDbLine
 10
26.61639986542545
 20
79.746273400000007
 30
0.0
 11
-7.6200001345743331
 21
79.746273400000007
 31
0.0
  0
LINE
  5
13F
100
AcDbEntity
  8
寸法
370
              -2
390
0
  6
Continuous
 62
               0
100
AcDbLine
 10
-3.6200001345743331
 20
-20.254606599999875
 30
0.0
 11
-3.6200001345743331
 21
79.746273400000007
 31
0.0
  0
SOLID
  5
140
100
AcDbEntity
  8
寸法
370
              -2
390
0
 62
               0
100
AcDbTrace
 10
-3.6200001345743331
 20
-20.254606599999875
 30
0.0
 11
-4.8959207139427825
 21
-14.251872224999875
 31
0.0
 12
-2.3440795552058833
 22
-14.251872224999875
 32
0.0
 13
-2.3440795552058833
 23
-14.251872224999875
 33
0.0
  0
SOLID
  5
141
100
AcDbEntity
  8
寸法
370
              -2
390
0
 62
               0
100
AcDbTrace
 10
-3.6200001345743331
 20
79.746273400000007
 30
0.0
 11
-2.3440795552058837
 21
73.743539025000004
 31
0.0
 12
-4.8959207139427852
 22
73.743539025000004
 32
0.0
 13
-4.8959207139427852
 23
73.743539025000004
 33
0.0
  0
MTEXT
  5
142
100
AcDbEntity
  8
寸法
390
0
 62
               0
100
AcDbMText
 10
-14.159250134574336
 20
6.4413315697930926
 30
0.0
 40
8.7312499999999993
 41
0.0
 71
               1
 72
               1
  1
MAX.100
  7
ＭＳ Ｐゴシック
 11
0.0
 21
1.0
 31
0.0
 73
               1
 44
0.8762322015334064
  0
POINT
  5
143
100
AcDbEntity
  8
Defpoints
370
               0
390
0
 62
               0
100
AcDbPoint
 10
30.61639986542545
 20
79.746273400000007
 30
0.0
  0
POINT
  5
144
100
AcDbEntity
  8
Defpoints
370
               0
390
0
 62
               0
100
AcDbPoint
 10
51.379999865425305
 20
-20.254606599999875
 30
0.0
  0
POINT
  5
145
100
AcDbEntity
  8
Defpoints
370
               0
390
0
 62
               0
100
AcDbPoint
 10
-3.6200001345743331
 20
-20.254606599999875
 30
0.0
  0
ENDBLK
  5
146
100
AcDbEntity
  8
寸法
390
0
100
AcDbBlockEnd
  0
BLOCK
  5
147
100
AcDbEntity
  8
寸法
390
0
100
AcDbBlockBegin
  2
*D22
 70
               1
 10
0.0
 20
0.0
 30
0.0
  3
*D22
  1

  0
LINE
  5
148
100
AcDbEntity
  8
寸法
370
              -2
390
0
  6
Continuous
 62
               0
100
AcDbLine
 10
51.329376973058658
 20
75.244281180672374
 30
0.0
 11
48.379999865425582
 21
37.841498342111969
 31
0.0
  0
SOLID
  5
149
100
AcDbEntity
  8
寸法
370
              -2
390
0
 62
               0
100
AcDbTrace
 10
51.329376973058658
 20
75.244281180672374
 30
0.0
 11
52.077269516441632
 21
69.153185216462433
 31
0.0
 12
49.535138883735634
 22
69.375592828026186
 32
0.0
 13
49.535138883735634
 23
69.375592828026186
 33
0.0
  0
LINE
  5
14A
100
AcDbEntity
  8
寸法
370
              -2
390
0
  6
Continuous
 62
               0
100
AcDbLine
 10
48.379999865425582
 20
37.841498342111969
 30
0.0
 11
44.379999865425582
 21
37.841498342111969
 31
0.0
  0
MTEXT
  5
14B
100
AcDbEntity
  8
寸法
390
0
 62
               0
100
AcDbMText
 10
16.439998250537073
 20
42.000748342111976
 30
0.0
 40
8.7312499999999993
 41
0.0
 71
               1
 72
               1
  1
φ8.2
  7
ＭＳ Ｐゴシック
 73
               1
 44
0.8762322015334064
  0
POINT
  5
14C
100
AcDbEntity
  8
Defpoints
370
               0
390
0
 62
               0
100
AcDbPoint
 10
51.973982757791276
 20
83.418905619314444
 30
0.0
  0
POINT
  5
14D
100
AcDbEntity
  8
Defpoints
370
               0
390
0
 62
               0
100
AcDbPoint
 10
51.329376973058658
 20
75.244281180672374
 30
0.0
  0
ENDBLK
  5
14E
100
AcDbEntity
  8
寸法
390
0
100
AcDbBlockEnd
  0
BLOCK
  5
14F
100
AcDbEntity
  8
寸法
390
0
100
AcDbBlockBegin
  2
*D23
 70
               1
 10
0.0
 20
0.0
 30
0.0
  3
*D23
  1

  0
LINE
  5
150
100
AcDbEntity
  8
寸法
370
              -2
390
0
  6
Continuous
 62
               0
100
AcDbLine
 10
95.898679865425635
 20
-90.118526585098834
 30
0.0
 11
95.898679865425635
 21
-135.1185266
 31
0.0
  0
LINE
  5
151
100
AcDbEntity
  8
寸法
370
              -2
390
0
  6
Continuous
 62
               0
100
AcDbLine
 10
109.90579986542548
 20
-98.292526599999974
 30
0.0
 11
109.90579986542548
 21
-135.1185266
 31
0.0
  0
LINE
  5
152
100
AcDbEntity
  8
寸法
370
              -2
390
0
  6
Continuous
 62
               0
100
AcDbLine
 10
95.898679865425635
 20
-131.1185266
 30
0.0
 11
109.90579986542548
 21
-131.1185266
 31
0.0
  0
SOLID
  5
153
100
AcDbEntity
  8
寸法
370
              -2
390
0
 62
               0
100
AcDbTrace
 10
95.898679865425635
 20
-131.1185266
 30
0.0
 11
101.90141424042564
 21
-129.84260602063154
 31
0.0
 12
101.90141424042564
 22
-132.39444717936846
 32
0.0
 13
101.90141424042564
 23
-132.39444717936846
 33
0.0
  0
SOLID
  5
154
100
AcDbEntity
  8
寸法
370
              -2
390
0
 62
               0
100
AcDbTrace
 10
109.90579986542548
 20
-131.1185266
 30
0.0
 11
103.90306549042548
 21
-132.39444717936846
 31
0.0
 12
103.90306549042548
 22
-129.84260602063154
 32
0.0
 13
103.90306549042548
 23
-129.84260602063154
 33
0.0
  0
MTEXT
  5
155
100
AcDbEntity
  8
寸法
390
0
 62
               0
100
AcDbMText
 10
97.548679882934508
 20
-120.57927659999999
 30
0.0
 40
8.7312499999999993
 41
0.0
 71
               1
 72
               1
  1
14
  7
ＭＳ Ｐゴシック
 73
               1
 44
0.8762322015334064
  0
POINT
  5
156
100
AcDbEntity
  8
Defpoints
370
               0
390
0
 62
               0
100
AcDbPoint
 10
109.90579986542548
 20
-94.292526599999974
 30
0.0
  0
POINT
  5
157
100
AcDbEntity
  8
Defpoints
370
               0
390
0
 62
               0
100
AcDbPoint
 10
95.898679865425635
 20
-86.118526585098834
 30
0.0
  0
POINT
  5
158
100
AcDbEntity
  8
Defpoints
370
               0
390
0
 62
               0
100
AcDbPoint
 10
95.898679865425635
 20
-131.1185266
 30
0.0
  0
ENDBLK
  5
159
100
AcDbEntity
  8
寸法
390
0
100
AcDbBlockEnd
  0
BLOCK
  5
15A
100
AcDbEntity
  8
寸法
390
0
100
AcDbBlockBegin
  2
*D24
 70
               1
 10
0.0
 20
0.0
 30
0.0
  3
*D24
  1

  0
LINE
  5
15B
100
AcDbEntity
  8
寸法
370
              -2
390
0
  6
Continuous
 62
               0
100
AcDbLine
 10
-132.10280013457447
 20
79.796473400000082
 30
0.0
 11
-69.620000134574354
 21
79.796473400000082
 31
0.0
  0
LINE
  5
15C
100
AcDbEntity
  8
寸法
370
              -2
390
0
  6
Continuous
 62
               0
100
AcDbLine
 10
-128.9354601345745
 20
135.79659340000001
 30
0.0
 11
-69.620000134574354
 21
135.79659340000001
 31
0.0
  0
LINE
  5
15D
100
AcDbEntity
  8
寸法
370
              -2
390
0
  6
Continuous
 62
               0
100
AcDbLine
 10
-73.620000134574354
 20
79.796473400000082
 30
0.0
 11
-73.620000134574354
 21
135.79659340000001
 31
0.0
  0
SOLID
  5
15E
100
AcDbEntity
  8
寸法
370
              -2
390
0
 62
               0
100
AcDbTrace
 10
-73.620000134574354
 20
79.796473400000082
 30
0.0
 11
-74.8959207139428
 21
85.799207775000085
 31
0.0
 12
-72.344079555205909
 22
85.799207775000085
 32
0.0
 13
-72.344079555205909
 23
85.799207775000085
 33
0.0
  0
SOLID
  5
15F
100
AcDbEntity
  8
寸法
370
              -2
390
0
 62
               0
100
AcDbTrace
 10
-73.620000134574354
 20
135.79659340000001
 30
0.0
 11
-72.344079555205909
 21
129.79385902500002
 31
0.0
 12
-74.8959207139428
 22
129.79385902500002
 32
0.0
 13
-74.8959207139428
 23
129.79385902500002
 33
0.0
  0
MTEXT
  5
160
100
AcDbEntity
  8
寸法
390
0
 62
               0
100
AcDbMText
 10
-84.15925013457435
 20
102.13183760288091
 30
0.0
 40
8.7312499999999993
 41
0.0
 71
               1
 72
               1
  1
56
  7
ＭＳ Ｐゴシック
 11
0.0
 21
1.0
 31
0.0
 73
               1
 44
0.8762322015334064
  0
POINT
  5
161
100
AcDbEntity
  8
Defpoints
370
               0
390
0
 62
               0
100
AcDbPoint
 10
-132.9354601345745
 20
135.79659340000001
 30
0.0
  0
POINT
  5
162
100
AcDbEntity
  8
Defpoints
370
               0
390
0
 62
               0
100
AcDbPoint
 10
-136.10280013457447
 20
79.796473400000082
 30
0.0
  0
POINT
  5
163
100
AcDbEntity
  8
Defpoints
370
               0
390
0
 62
               0
100
AcDbPoint
 10
-73.620000134574354
 20
79.796473400000082
 30
0.0
  0
ENDBLK
  5
164
100
AcDbEntity
  8
寸法
390
0
100
AcDbBlockEnd
  0
ENDSEC
  0
SECTION
  2
ENTITIES
  0
POLYLINE
  5
165
100
AcDbEntity
  8
一般
370
               5
390
0
  6
STYLE_01
 62
               7
100
AcDb2dPolyline
 66
               1
 10
0.0
 20
0.0
 30
0.0
 70
               1
 75
               5
  0
VERTEX
  5
166
100
AcDbEntity
  8
一般
370
               5
390
0
  6
STYLE_01
 62
               7
100
AcDbVertex
100
AcDb2dVertex
 10
-266.9354601345745
 20
135.79659340000001
 30
0.0
  0
VERTEX
  5
167
100
AcDbEntity
  8
一般
370
               5
390
0
  6
STYLE_01
 62
               7
100
AcDbVertex
100
AcDb2dVertex
 10
-132.9354601345745
 20
135.79659340000001
 30
0.0
  0
VERTEX
  5
168
100
AcDbEntity
  8
一般
370
               5
390
0
  6
STYLE_01
 62
               7
100
AcDbVertex
100
AcDb2dVertex
 10
-132.9354601345745
 20
125.79659340000001
 30
0.0
  0
VERTEX
  5
169
100
AcDbEntity
  8
一般
370
               5
390
0
  6
STYLE_01
 62
               7
100
AcDbVertex
100
AcDb2dVertex
 10
-266.9354601345745
 20
125.79659340000001
 30
0.0
  0
SEQEND
  5
16A
100
AcDbEntity
  8
一般
370
               5
390
0
  6
STYLE_01
 62
               7
  0
LINE
  5
16B
100
AcDbEntity
  8
001
370
               5
390
0
  6
STYLE_13
 62
               7
100
AcDbLine
 10
201.86159986542557
 20
-20.254606599999875
 30
0.0
 11
-278.13840013457445
 21
-20.254606599999875
 31
0.0
  0
LINE
  5
16C
100
AcDbEntity
  8
001
370
               5
390
0
 62
               7
100
AcDbLine
 10
94.898199865425397
 20
-12.750806600000033
 30
0.0
 11
94.898199865425397
 21
-27.758526599999982
 31
0.0
  0
LINE
  5
16D
100
AcDbEntity
  8
001
370
               5
390
0
 62
               7
100
AcDbLine
 10
181.9426798654255
 20
-85.287926599999992
 30
0.0
 11
181.9426798654255
 21
69.791393400000004
 31
0.0
  0
LINE
  5
16E
100
AcDbEntity
  8
001
370
               5
390
0
 62
               7
100
AcDbLine
 10
97.399399865425636
 20
81.576473400000054
 30
0.0
 11
97.399399865425636
 21
79.796593400000006
 31
0.0
  0
ARC
  5
16F
100
AcDbEntity
  8
001
370
               5
390
0
 62
               7
100
AcDbCircle
 10
98.70007986542555
 20
81.576473400000054
 30
0.0
 40
1.3006150545030637
100
AcDbArc
 50
106.60135187301482
 51
179.99823786623779
  0
ARC
  5
170
100
AcDbEntity
  8
001
370
               5
390
0
 62
               7
100
AcDbCircle
 10
100.90119986542564
 20
74.19367340000008
 30
0.0
 40
9.0045761965791051
100
AcDbArc
 50
73.398025830012216
 51
106.60116972403188
  0
ARC
  5
171
100
AcDbEntity
  8
001
370
               5
390
0
 62
               7
100
AcDbCircle
 10
103.10239986542553
 20
81.576473400000054
 30
0.0
 40
1.3006000000001166
100
AcDbArc
 50
0.0
 51
73.398648126991688
  0
LINE
  5
172
100
AcDbEntity
  8
001
370
               5
390
0
 62
               7
100
AcDbLine
 10
104.40299986542564
 20
81.576473400000054
 30
0.0
 11
104.40299986542564
 21
79.796593400000006
 31
0.0
  0
LINE
  5
173
100
AcDbEntity
  8
001
370
               5
390
0
 62
               7
100
AcDbLine
 10
101.88667986542538
 20
82.598593400000027
 30
0.0
 11
100.90119986542564
 21
83.198273399999948
 31
0.0
  0
LINE
  5
174
100
AcDbEntity
  8
001
370
               5
390
0
 62
               7
100
AcDbLine
 10
99.765679865425454
 20
82.598593400000027
 30
0.0
 11
100.90119986542564
 21
83.198273399999948
 31
0.0
  0
LINE
  5
175
100
AcDbEntity
  8
001
370
               5
390
0
 62
               7
100
AcDbLine
 10
97.399399865425636
 20
80.596993400000088
 30
0.0
 11
104.40299986542564
 21
80.596993400000088
 31
0.0
  0
LINE
  5
176
100
AcDbEntity
  8
001
370
               5
390
0
 62
               7
100
AcDbLine
 10
100.42467986542547
 20
79.796593400000006
 30
0.0
 11
100.9941998654253
 21
80.596993400000088
 31
0.0
  0
LINE
  5
177
100
AcDbEntity
  8
001
370
               5
390
0
 62
               7
100
AcDbLine
 10
100.90119986542564
 20
79.796593400000006
 30
0.0
 11
101.49287986542555
 21
80.596993400000088
 31
0.0
  0
LINE
  5
178
100
AcDbEntity
  8
001
370
               5
390
0
 62
               7
100
AcDbLine
 10
163.43319986542559
 20
81.576473400000054
 30
0.0
 11
163.43319986542559
 21
79.796593400000006
 31
0.0
  0
ARC
  5
179
100
AcDbEntity
  8
001
370
               5
390
0
 62
               7
100
AcDbCircle
 10
164.73387986542554
 20
81.576473400000054
 30
0.0
 40
1.3006150545030719
100
AcDbArc
 50
106.60135187301601
 51
179.99823786623779
  0
ARC
  5
17A
100
AcDbEntity
  8
001
370
               5
390
0
 62
               7
100
AcDbCircle
 10
166.9349998654256
 20
74.19367340000008
 30
0.0
 40
9.0045761965791051
100
AcDbArc
 50
73.398025830012216
 51
106.60116972403172
  0
ARC
  5
17B
100
AcDbEntity
  8
001
370
               5
390
0
 62
               7
100
AcDbCircle
 10
169.13619986542551
 20
81.576473400000054
 30
0.0
 40
1.3006000000000881
100
AcDbArc
 50
0.0
 51
73.398648126992896
  0
LINE
  5
17C
100
AcDbEntity
  8
001
370
               5
390
0
 62
               7
100
AcDbLine
 10
170.4367998654256
 20
81.576473400000054
 30
0.0
 11
170.4367998654256
 21
79.796593400000006
 31
0.0
  0
LINE
  5
17D
100
AcDbEntity
  8
001
370
               5
390
0
 62
               7
100
AcDbLine
 10
167.92047986542536
 20
82.598593400000027
 30
0.0
 11
166.9349998654256
 21
83.198273399999948
 31
0.0
  0
LINE
  5
17E
100
AcDbEntity
  8
001
370
               5
390
0
 62
               7
100
AcDbLine
 10
165.79939986542564
 20
82.598593400000027
 30
0.0
 11
166.9349998654256
 21
83.198273399999948
 31
0.0
  0
LINE
  5
17F
100
AcDbEntity
  8
001
370
               5
390
0
 62
               7
100
AcDbLine
 10
163.43319986542559
 20
80.596993400000088
 30
0.0
 11
170.4367998654256
 21
80.596993400000088
 31
0.0
  0
LINE
  5
180
100
AcDbEntity
  8
001
370
               5
390
0
 62
               7
100
AcDbLine
 10
166.45847986542543
 20
79.796593400000006
 30
0.0
 11
167.02799986542564
 21
80.596993400000088
 31
0.0
  0
LINE
  5
181
100
AcDbEntity
  8
001
370
               5
390
0
 62
               7
100
AcDbLine
 10
166.9349998654256
 20
79.796593400000006
 30
0.0
 11
167.52667986542554
 21
80.596993400000088
 31
0.0
  0
ARC
  5
182
100
AcDbEntity
  8
001
370
               5
390
0
 62
               7
100
AcDbCircle
 10
188.72519986542542
 20
-77.083726600000034
 30
0.0
 40
1.3006150545030555
100
AcDbArc
 50
16.601351873013606
 51
90.0
  0
LINE
  5
183
100
AcDbEntity
  8
001
370
               5
390
0
 62
               7
100
AcDbLine
 10
188.72519986542542
 20
-75.783126599999946
 30
0.0
 11
186.94527986542531
 21
-75.783126599999946
 31
0.0
  0
ARC
  5
184
100
AcDbEntity
  8
001
370
               5
390
0
 62
               7
100
AcDbCircle
 10
181.34239986542531
 20
-79.284806600000024
 30
0.0
 40
9.0045761965792419
100
AcDbArc
 50
343.39802583001256
 51
16.601169724031081
  0
LINE
  5
185
100
AcDbEntity
  8
001
370
               5
390
0
 62
               7
100
AcDbLine
 10
189.74727986542536
 20
-78.299326599999972
 30
0.0
 11
190.34699986542552
 21
-79.284806600000024
 31
0.0
  0
LINE
  5
186
100
AcDbEntity
  8
001
370
               5
390
0
 62
               7
100
AcDbLine
 10
189.74727986542536
 20
-80.420406600000035
 30
0.0
 11
190.34699986542552
 21
-79.284806600000024
 31
0.0
  0
LINE
  5
187
100
AcDbEntity
  8
001
370
               5
390
0
 62
               7
100
AcDbLine
 10
187.74567986542539
 20
-82.786606600000027
 30
0.0
 11
187.74567986542539
 21
-75.783126599999946
 31
0.0
  0
LINE
  5
188
100
AcDbEntity
  8
001
370
               5
390
0
 62
               7
100
AcDbLine
 10
187.74567986542539
 20
-79.284806600000024
 30
0.0
 11
186.94527986542531
 21
-78.905926600000043
 31
0.0
  0
LINE
  5
189
100
AcDbEntity
  8
001
370
               5
390
0
 62
               7
100
AcDbLine
 10
186.94527986542531
 20
-79.284806600000024
 30
0.0
 11
187.74567986542539
 21
-79.733926599999904
 31
0.0
  0
ARC
  5
18A
100
AcDbEntity
  8
001
370
               5
390
0
 62
               7
100
AcDbCircle
 10
188.72519986542542
 20
-81.486006599999939
 30
0.0
 40
1.3006000000000881
100
AcDbArc
 50
270.0
 51
343.39864812698295
  0
LINE
  5
18B
100
AcDbEntity
  8
001
370
               5
390
0
 62
               7
100
AcDbLine
 10
188.72519986542542
 20
-82.786606600000027
 30
0.0
 11
186.94527986542531
 21
-82.786606600000027
 31
0.0
  0
ARC
  5
18C
100
AcDbEntity
  8
001
370
               5
390
0
 62
               7
100
AcDbCircle
 10
188.72519986542542
 20
65.989473399999952
 30
0.0
 40
1.3006150545030719
100
AcDbArc
 50
16.601351873016004
 51
89.999999999999986
  0
LINE
  5
18D
100
AcDbEntity
  8
001
370
               5
390
0
 62
               7
100
AcDbLine
 10
188.72519986542542
 20
67.290193399999964
 30
0.0
 11
186.94527986542531
 21
67.290193399999964
 31
0.0
  0
ARC
  5
18E
100
AcDbEntity
  8
001
370
               5
390
0
 62
               7
100
AcDbCircle
 10
181.34239986542531
 20
63.788393399999961
 30
0.0
 40
9.0045761965792419
100
AcDbArc
 50
343.39802583001256
 51
16.601169724031422
  0
LINE
  5
18F
100
AcDbEntity
  8
001
370
               5
390
0
 62
               7
100
AcDbLine
 10
189.74727986542536
 20
64.77387340000007
 30
0.0
 11
190.34699986542552
 21
63.788393399999961
 31
0.0
  0
LINE
  5
190
100
AcDbEntity
  8
001
370
               5
390
0
 62
               7
100
AcDbLine
 10
189.74727986542536
 20
62.65279339999995
 30
0.0
 11
190.34699986542552
 21
63.788393399999961
 31
0.0
  0
LINE
  5
191
100
AcDbEntity
  8
001
370
               5
390
0
 62
               7
100
AcDbLine
 10
187.74567986542539
 20
60.286593399999958
 30
0.0
 11
187.74567986542539
 21
67.290193399999964
 31
0.0
  0
LINE
  5
192
100
AcDbEntity
  8
001
370
               5
390
0
 62
               7
100
AcDbLine
 10
187.74567986542539
 20
63.788393399999961
 30
0.0
 11
186.94527986542531
 21
64.167393400000037
 31
0.0
  0
LINE
  5
193
100
AcDbEntity
  8
001
370
               5
390
0
 62
               7
100
AcDbLine
 10
186.94527986542531
 20
63.788393399999961
 30
0.0
 11
187.74567986542539
 21
63.339273400000081
 31
0.0
  0
ARC
  5
194
100
AcDbEntity
  8
001
370
               5
390
0
 62
               7
100
AcDbCircle
 10
188.72519986542542
 20
61.587193400000046
 30
0.0
 40
1.3006000000000881
100
AcDbArc
 50
270.0
 51
343.40202550862278
  0
LINE
  5
195
100
AcDbEntity
  8
001
370
               5
390
0
 62
               7
100
AcDbLine
 10
188.72519986542542
 20
60.286593399999958
 30
0.0
 11
186.94527986542531
 21
60.286593399999958
 31
0.0
  0
ARC
  5
196
100
AcDbEntity
  8
001
370
               5
390
0
 62
               7
100
AcDbCircle
 10
164.93399986542539
 20
-83.258726600000045
 30
0.0
 40
1.000480000000266
100
AcDbArc
 50
0.0
 51
88.361918247821691
  0
LINE
  5
197
100
AcDbEntity
  8
001
370
               5
390
0
 62
               7
100
AcDbLine
 10
-246.95952013457457
 20
-80.885726599999884
 30
0.0
 11
-246.95952013457457
 21
-86.28840660000003
 31
0.0
  0
LINE
  5
198
100
AcDbEntity
  8
001
370
               5
390
0
 62
               7
100
AcDbLine
 10
-152.91140013457436
 20
-80.885726599999884
 30
0.0
 11
-152.91140013457436
 21
-86.28840660000003
 31
0.0
  0
LINE
  5
199
100
AcDbEntity
  8
001
370
               5
390
0
 62
               7
100
AcDbLine
 10
-258.96572013457438
 20
-80.885726599999884
 30
0.0
 11
-258.96572013457438
 21
-86.28840660000003
 31
0.0
  0
LINE
  5
19A
100
AcDbEntity
  8
001
370
               5
390
0
 62
               7
100
AcDbLine
 10
-140.90532013457448
 20
-80.885726599999884
 30
0.0
 11
-140.90532013457448
 21
-86.28840660000003
 31
0.0
  0
LINE
  5
19B
100
AcDbEntity
  8
001
370
               5
390
0
 62
               7
100
AcDbLine
 10
-142.40600013457436
 20
-80.285406599999988
 30
0.0
 11
-257.46492013457458
 21
-80.285406599999988
 31
0.0
  0
LINE
  5
19C
100
AcDbEntity
  8
001
370
               5
390
0
 62
               7
100
AcDbLine
 10
-136.40300013457454
 20
78.595873399999959
 30
0.0
 11
-136.40300013457454
 21
-74.282326599999919
 31
0.0
  0
LINE
  5
19D
100
AcDbEntity
  8
001
370
               5
390
0
 62
               7
100
AcDbLine
 10
-263.46800013457465
 20
78.595873399999959
 30
0.0
 11
-263.46800013457465
 21
-74.282326599999919
 31
0.0
  0
LINE
  5
19E
100
AcDbEntity
  8
001
370
               5
390
0
 62
               7
100
AcDbLine
 10
-152.91140013457436
 20
-80.885726599999884
 30
0.0
 11
-140.90532013457448
 21
-80.885726599999884
 31
0.0
  0
LINE
  5
19F
100
AcDbEntity
  8
001
370
               5
390
0
 62
               7
100
AcDbLine
 10
-246.95952013457457
 20
-80.885726599999884
 30
0.0
 11
-258.96572013457438
 21
-80.885726599999884
 31
0.0
  0
LINE
  5
1A0
100
AcDbEntity
  8
001
370
               5
390
0
 62
               7
100
AcDbLine
 10
-153.91192013457436
 20
-86.28840660000003
 30
0.0
 11
-153.91192013457436
 21
-82.286406599999964
 31
0.0
  0
LINE
  5
1A1
100
AcDbEntity
  8
001
370
               5
390
0
 62
               7
100
AcDbLine
 10
-245.95900013457464
 20
-86.28840660000003
 30
0.0
 11
-245.95900013457464
 21
-82.286406599999964
 31
0.0
  0
ARC
  5
1A2
100
AcDbEntity
  8
001
370
               5
390
0
 62
               7
100
AcDbCircle
 10
-257.46492013457458
 20
-74.282326599999919
 30
0.0
 40
6.0030800000000681
100
AcDbArc
 50
180.0
 51
270.0
  0
ARC
  5
1A3
100
AcDbEntity
  8
001
370
               5
390
0
 62
               7
100
AcDbCircle
 10
-142.40600013457436
 20
-74.282326599999919
 30
0.0
 40
6.0030800000000681
100
AcDbArc
 50
270.0
 51
0.0
  0
LINE
  5
1A4
100
AcDbEntity
  8
001
370
               5
390
0
 62
               7
100
AcDbLine
 10
-258.96572013457438
 20
-80.885726599999884
 30
0.0
 11
-259.96620013457465
 21
-82.202326599999992
 31
0.0
  0
LINE
  5
1A5
100
AcDbEntity
  8
001
370
               5
390
0
 62
               7
100
AcDbLine
 10
-246.95952013457457
 20
-80.885726599999884
 30
0.0
 11
-245.95900013457464
 21
-82.286406599999964
 31
0.0
  0
LINE
  5
1A6
100
AcDbEntity
  8
001
370
               5
390
0
 62
               7
100
AcDbLine
 10
-153.91192013457436
 20
-82.286406599999964
 30
0.0
 11
-152.91140013457436
 21
-80.885726599999884
 31
0.0
  0
LINE
  5
1A7
100
AcDbEntity
  8
001
370
               5
390
0
 62
               7
100
AcDbLine
 10
-140.90532013457448
 20
-80.885726599999884
 30
0.0
 11
-139.90480013457454
 21
-82.202326599999992
 31
0.0
  0
CIRCLE
  5
1A8
100
AcDbEntity
  8
001
370
               5
390
0
 62
               7
100
AcDbCircle
 10
-239.95600013457437
 20
-20.254606599999875
 30
0.0
 40
4.0020799999998076
  0
CIRCLE
  5
1A9
100
AcDbEntity
  8
001
370
               5
390
0
 62
               7
100
AcDbCircle
 10
-159.91500013457437
 20
-20.254606599999875
 30
0.0
 40
4.0020799999998076
  0
CIRCLE
  5
1AA
100
AcDbEntity
  8
001
370
               5
390
0
 62
               7
100
AcDbCircle
 10
-199.9355201345744
 20
-20.254606599999875
 30
0.0
 40
12.506399999999815
  0
LINE
  5
1AB
100
AcDbEntity
  8
001
370
               5
390
0
 62
               7
100
AcDbLine
 10
-199.9355201345744
 20
-5.2470065999999633
 30
0.0
 11
-199.9355201345744
 21
-0.2444065999999907
 31
0.0
  0
ARC
  5
1AC
100
AcDbEntity
  8
001
370
               5
390
0
 62
               7
100
AcDbCircle
 10
-137.60360013457466
 20
78.595873399999959
 30
0.0
 40
1.2006000000001222
100
AcDbArc
 50
0.0
 51
90.0
  0
ARC
  5
1AD
100
AcDbEntity
  8
001
370
               5
390
0
 62
               7
100
AcDbCircle
 10
-262.26740013457453
 20
78.595873399999959
 30
0.0
 40
1.2007200000000466
100
AcDbArc
 50
90.0
 51
179.99427385774715
  0
LINE
  5
1AE
100
AcDbEntity
  8
001
370
               5
390
0
 62
               7
100
AcDbLine
 10
-263.46800013457465
 20
81.576473400000054
 30
0.0
 11
-263.46800013457465
 21
79.796593400000006
 31
0.0
  0
ARC
  5
1AF
100
AcDbEntity
  8
001
370
               5
390
0
 62
               7
100
AcDbCircle
 10
-262.16732013457437
 20
81.576473400000054
 30
0.0
 40
1.3006150545030719
100
AcDbArc
 50
106.60135187301601
 51
179.99823786623779
  0
ARC
  5
1B0
100
AcDbEntity
  8
001
370
               5
390
0
 62
               7
100
AcDbCircle
 10
-259.96620013457465
 20
74.19367340000008
 30
0.0
 40
9.0045419107470259
100
AcDbArc
 50
73.398757557738762
 51
106.60124244225861
  0
ARC
  5
1B1
100
AcDbEntity
  8
001
370
               5
390
0
 62
               7
100
AcDbCircle
 10
-257.76512013457466
 20
81.576473400000054
 30
0.0
 40
1.3007200000000125
100
AcDbArc
 50
0.0
 51
73.40015835886993
  0
LINE
  5
1B2
100
AcDbEntity
  8
001
370
               5
390
0
 62
               7
100
AcDbLine
 10
-256.46440013457465
 20
81.576473400000054
 30
0.0
 11
-256.46440013457465
 21
79.796593400000006
 31
0.0
  0
LINE
  5
1B3
100
AcDbEntity
  8
001
370
               5
390
0
 62
               7
100
AcDbLine
 10
-258.98060013457467
 20
82.598593400000027
 30
0.0
 11
-259.96612013457451
 21
83.198273399999948
 31
0.0
  0
LINE
  5
1B4
100
AcDbEntity
  8
001
370
               5
390
0
 62
               7
100
AcDbLine
 10
-261.1018001345746
 20
82.598593400000027
 30
0.0
 11
-259.96620013457465
 21
83.198273399999948
 31
0.0
  0
LINE
  5
1B5
100
AcDbEntity
  8
001
370
               5
390
0
 62
               7
100
AcDbLine
 10
-263.46800013457465
 20
80.596993400000088
 30
0.0
 11
-256.46440013457465
 21
80.596993400000088
 31
0.0
  0
LINE
  5
1B6
100
AcDbEntity
  8
001
370
               5
390
0
 62
               7
100
AcDbLine
 10
-260.44260013457455
 20
79.796593400000006
 30
0.0
 11
-259.87312013457444
 21
80.596993400000088
 31
0.0
  0
LINE
  5
1B7
100
AcDbEntity
  8
001
370
               5
390
0
 62
               7
100
AcDbLine
 10
-259.96620013457465
 20
79.796593400000006
 30
0.0
 11
-259.37452013457437
 21
80.596993400000088
 31
0.0
  0
LINE
  5
1B8
100
AcDbEntity
  8
001
370
               5
390
0
 62
               7
100
AcDbLine
 10
-143.40652013457435
 20
81.576473400000054
 30
0.0
 11
-143.40652013457435
 21
79.796593400000006
 31
0.0
  0
ARC
  5
1B9
100
AcDbEntity
  8
001
370
               5
390
0
 62
               7
100
AcDbCircle
 10
-142.1059201345746
 20
81.576473400000054
 30
0.0
 40
1.3006150545030719
100
AcDbArc
 50
106.60135187301601
 51
179.99823786623779
  0
ARC
  5
1BA
100
AcDbEntity
  8
001
370
               5
390
0
 62
               7
100
AcDbCircle
 10
-139.90480013457454
 20
74.19367340000008
 30
0.0
 40
9.0045761965791051
100
AcDbArc
 50
73.398025830012216
 51
106.60116972403137
  0
ARC
  5
1BB
100
AcDbEntity
  8
001
370
               5
390
0
 62
               7
100
AcDbCircle
 10
-137.70360013457463
 20
81.576473400000054
 30
0.0
 40
1.3006000000000881
100
AcDbArc
 50
0.0
 51
73.398648126992896
  0
LINE
  5
1BC
100
AcDbEntity
  8
001
370
               5
390
0
 62
               7
100
AcDbLine
 10
-136.40300013457454
 20
81.576473400000054
 30
0.0
 11
-136.40300013457454
 21
79.796593400000006
 31
0.0
  0
LINE
  5
1BD
100
AcDbEntity
  8
001
370
               5
390
0
 62
               7
100
AcDbLine
 10
-138.91912013457437
 20
82.598593400000027
 30
0.0
 11
-139.90460013457448
 21
83.198273399999948
 31
0.0
  0
LINE
  5
1BE
100
AcDbEntity
  8
001
370
               5
390
0
 62
               7
100
AcDbLine
 10
-141.0403201345747
 20
82.598593400000027
 30
0.0
 11
-139.90480013457454
 21
83.198273399999948
 31
0.0
  0
LINE
  5
1BF
100
AcDbEntity
  8
001
370
               5
390
0
 62
               7
100
AcDbLine
 10
-143.40652013457435
 20
80.596993400000088
 30
0.0
 11
-136.40300013457454
 21
80.596993400000088
 31
0.0
  0
LINE
  5
1C0
100
AcDbEntity
  8
001
370
               5
390
0
 62
               7
100
AcDbLine
 10
-140.38120013457444
 20
79.796593400000006
 30
0.0
 11
-139.81172013457467
 21
80.596993400000088
 31
0.0
  0
LINE
  5
1C1
100
AcDbEntity
  8
001
370
               5
390
0
 62
               7
100
AcDbLine
 10
-139.90480013457454
 20
79.796593400000006
 30
0.0
 11
-139.3131201345746
 21
80.596993400000088
 31
0.0
  0
LINE
  5
1C2
100
AcDbEntity
  8
001
370
               5
390
0
 62
               7
100
AcDbLine
 10
-142.40600013457436
 20
-89.877806599999943
 30
0.0
 11
-142.40600013457436
 21
-88.589806599999932
 31
0.0
  0
ARC
  5
1C3
100
AcDbEntity
  8
001
370
               5
390
0
 62
               7
100
AcDbCircle
 10
-144.00680013457452
 20
-89.877926599999981
 30
0.0
 40
1.6007819209374878
100
AcDbArc
 50
286.19239962591371
 51
0.0
  0
ARC
  5
1C4
100
AcDbEntity
  8
001
370
               5
390
0
 62
               7
100
AcDbCircle
 10
-146.90832013457435
 20
-79.885326599999999
 30
0.0
 40
12.006099837532712
100
AcDbArc
 50
253.80852294740285
 51
286.19166036975076
  0
ARC
  5
1C5
100
AcDbEntity
  8
001
370
               5
390
0
 62
               7
100
AcDbCircle
 10
-149.8098001345744
 20
-89.877926599999981
 30
0.0
 40
1.600800000000163
100
AcDbArc
 50
180.0
 51
253.80760037407987
  0
LINE
  5
1C6
100
AcDbEntity
  8
001
370
               5
390
0
 62
               7
100
AcDbLine
 10
-151.41060013457457
 20
-89.877806599999943
 30
0.0
 11
-151.41060013457457
 21
-88.589806599999932
 31
0.0
  0
LINE
  5
1C7
100
AcDbEntity
  8
001
370
               5
390
0
 62
               7
100
AcDbLine
 10
-148.30580013457438
 20
-91.331606599999944
 30
0.0
 11
-146.90820013457449
 21
-91.891526599999978
 31
0.0
  0
LINE
  5
1C8
100
AcDbEntity
  8
001
370
               5
390
0
 62
               7
100
AcDbLine
 10
-145.41860013457438
 20
-91.331606599999944
 30
0.0
 11
-146.90832013457435
 21
-91.891526599999978
 31
0.0
  0
LINE
  5
1C9
100
AcDbEntity
  8
001
370
               5
390
0
 62
               7
100
AcDbLine
 10
-248.46032013457437
 20
-89.877806599999943
 30
0.0
 11
-248.46032013457437
 21
-88.589806599999932
 31
0.0
  0
ARC
  5
1CA
100
AcDbEntity
  8
001
370
               5
390
0
 62
               7
100
AcDbCircle
 10
-250.06112013457454
 20
-89.877926599999981
 30
0.0
 40
1.6007819209375036
100
AcDbArc
 50
286.1923996259157
 51
0.0
  0
ARC
  5
1CB
100
AcDbEntity
  8
001
370
               5
390
0
 62
               7
100
AcDbCircle
 10
-252.96260013457464
 20
-79.885326599999999
 30
0.0
 40
12.006110991524325
100
AcDbArc
 50
253.80833963024989
 51
286.19166036975179
  0
ARC
  5
1CC
100
AcDbEntity
  8
001
370
               5
390
0
 62
               7
100
AcDbCircle
 10
-255.86412013457442
 20
-89.877926599999981
 30
0.0
 40
1.600800000000163
100
AcDbArc
 50
180.0
 51
253.80799961224699
  0
LINE
  5
1CD
100
AcDbEntity
  8
001
370
               5
390
0
 62
               7
100
AcDbLine
 10
-257.46492013457458
 20
-89.877806599999943
 30
0.0
 11
-257.46492013457458
 21
-88.589806599999932
 31
0.0
  0
LINE
  5
1CE
100
AcDbEntity
  8
001
370
               5
390
0
 62
               7
100
AcDbLine
 10
-254.36000013457448
 20
-91.331606599999944
 30
0.0
 11
-252.9625201345745
 21
-91.891526599999978
 31
0.0
  0
LINE
  5
1CF
100
AcDbEntity
  8
001
370
               5
390
0
 62
               7
100
AcDbLine
 10
-251.47292013457439
 20
-91.331606599999944
 30
0.0
 11
-252.96260013457464
 21
-91.891526599999978
 31
0.0
  0
CIRCLE
  5
1D0
100
AcDbEntity
  8
001
370
               5
390
0
 62
               7
100
AcDbCircle
 10
-159.91500013457437
 20
-20.254606599999875
 30
0.0
 40
3.5018000000000029
  0
CIRCLE
  5
1D1
100
AcDbEntity
  8
001
370
               5
390
0
 62
               7
100
AcDbCircle
 10
-239.95600013457437
 20
-20.254606599999875
 30
0.0
 40
3.5018000000000029
  0
LINE
  5
1D2
100
AcDbEntity
  8
001
370
               5
390
0
  6
STYLE_13
 62
               7
100
AcDbLine
 10
-146.90832013457435
 20
-74.286526599999888
 30
0.0
 11
-146.90832013457435
 21
-95.202406600000018
 31
0.0
  0
LINE
  5
1D3
100
AcDbEntity
  8
001
370
               5
390
0
  6
STYLE_13
 62
               7
100
AcDbLine
 10
-252.96260013457464
 20
-73.53760659999989
 30
0.0
 11
-252.96260013457464
 21
-94.936806599999954
 31
0.0
  0
LINE
  5
1D4
100
AcDbEntity
  8
001
370
               5
390
0
  6
STYLE_13
 62
               7
100
AcDbLine
 10
-239.95600013457437
 20
-14.054726599999981
 30
0.0
 11
-239.95600013457437
 21
-26.625526600000001
 31
0.0
  0
LINE
  5
1D5
100
AcDbEntity
  8
001
370
               5
390
0
  6
STYLE_13
 62
               7
100
AcDbLine
 10
-159.91500013457437
 20
-13.378206599999999
 30
0.0
 11
-159.91500013457437
 21
-26.949806599999988
 31
0.0
  0
LINE
  5
1D6
100
AcDbEntity
  8
001
370
               5
390
0
  6
STYLE_13
 62
               7
100
AcDbLine
 10
-259.96620013457465
 20
86.314993400000105
 30
0.0
 11
-259.96620013457465
 21
67.857593400000042
 31
0.0
  0
LINE
  5
1D7
100
AcDbEntity
  8
001
370
               5
390
0
  6
STYLE_13
 62
               7
100
AcDbLine
 10
-139.90480013457454
 20
86.739073400000052
 30
0.0
 11
-139.90480013457454
 21
62.694993400000044
 31
0.0
  0
LINE
  5
1D8
100
AcDbEntity
  8
001
370
               5
390
0
  6
STYLE_13
 62
               7
100
AcDbLine
 10
100.90119986542564
 20
86.773593400000038
 30
0.0
 11
100.90119986542564
 21
64.928593399999954
 31
0.0
  0
LINE
  5
1D9
100
AcDbEntity
  8
001
370
               5
390
0
  6
STYLE_13
 62
               7
100
AcDbLine
 10
166.9349998654256
 20
86.121393399999931
 30
0.0
 11
166.9349998654256
 21
64.427673400000117
 31
0.0
  0
LINE
  5
1DA
100
AcDbEntity
  8
001
370
               5
390
0
  6
STYLE_13
 62
               7
100
AcDbLine
 10
169.44627986542551
 20
63.788393399999961
 30
0.0
 11
193.11459986542545
 21
63.788393399999961
 31
0.0
  0
LINE
  5
1DB
100
AcDbEntity
  8
001
370
               5
390
0
  6
STYLE_13
 62
               7
100
AcDbLine
 10
192.75619986542557
 20
-79.284806600000024
 30
0.0
 11
168.6894798654256
 21
-79.284806600000024
 31
0.0
  0
LINE
  5
1DC
100
AcDbEntity
  8
001
370
               5
390
0
 62
               7
100
AcDbLine
 10
186.94527986542531
 20
67.790393399999971
 30
0.0
 11
256.14067986542545
 21
65.945273400000019
 31
0.0
  0
ARC
  5
1DD
100
AcDbEntity
  8
001
370
               5
390
0
 62
               7
100
AcDbCircle
 10
185.94479986542544
 20
68.790873400000066
 30
0.0
 40
1.0004799999998681
100
AcDbArc
 50
0.0
 51
90.0
  0
LINE
  5
1DE
100
AcDbEntity
  8
001
370
               5
390
0
 62
               7
100
AcDbLine
 10
185.94479986542544
 20
69.791393400000004
 30
0.0
 11
171.9375998654254
 21
69.791393400000004
 31
0.0
  0
ARC
  5
1DF
100
AcDbEntity
  8
001
370
               5
390
0
 62
               7
100
AcDbCircle
 10
170.73699986542567
 20
78.595873399999959
 30
0.0
 40
1.2005999999997243
100
AcDbArc
 50
0.0
 51
90.0
  0
LINE
  5
1E0
100
AcDbEntity
  8
001
370
               5
390
0
 62
               7
100
AcDbLine
 10
170.73699986542567
 20
79.796593400000006
 30
0.0
 11
97.099279865425387
 21
79.796593400000006
 31
0.0
  0
ARC
  5
1E1
100
AcDbEntity
  8
001
370
               5
390
0
 62
               7
100
AcDbCircle
 10
97.099279865425387
 20
78.595873399999959
 30
0.0
 40
1.2007200000000466
100
AcDbArc
 50
90.0
 51
179.99427385774715
  0
LINE
  5
1E2
100
AcDbEntity
  8
001
370
               5
390
0
 62
               7
100
AcDbLine
 10
95.898679865425635
 20
78.595873399999959
 30
0.0
 11
95.898679865425635
 21
-74.451406599999984
 31
0.0
  0
LINE
  5
1E3
100
AcDbEntity
  8
001
370
               5
390
0
 62
               7
100
AcDbLine
 10
94.898199865425397
 20
-12.750806600000033
 30
0.0
 11
95.898679865425635
 21
-12.750806600000033
 31
0.0
  0
LINE
  5
1E4
100
AcDbEntity
  8
001
370
               5
390
0
 62
               7
100
AcDbLine
 10
94.898199865425397
 20
-12.750806600000033
 30
0.0
 11
93.897679865425431
 21
-13.75132659999997
 31
0.0
  0
LINE
  5
1E5
100
AcDbEntity
  8
001
370
               5
390
0
 62
               7
100
AcDbLine
 10
93.897679865425431
 20
-13.75132659999997
 30
0.0
 11
93.897679865425431
 21
-26.758006600000044
 31
0.0
  0
LINE
  5
1E6
100
AcDbEntity
  8
001
370
               5
390
0
 62
               7
100
AcDbLine
 10
94.898199865425397
 20
-27.758526599999982
 30
0.0
 11
93.897679865425431
 21
-26.758006600000044
 31
0.0
  0
LINE
  5
1E7
100
AcDbEntity
  8
001
370
               5
390
0
 62
               7
100
AcDbLine
 10
94.898199865425397
 20
-27.758526599999982
 30
0.0
 11
95.898679865425635
 21
-27.758526599999982
 31
0.0
  0
ARC
  5
1E8
100
AcDbEntity
  8
001
370
               5
390
0
 62
               7
100
AcDbCircle
 10
101.9017998654254
 20
-74.451406599999984
 30
0.0
 40
6.0031199999997682
100
AcDbArc
 50
180.0
 51
268.36273604792115
  0
ARC
  5
1E9
100
AcDbEntity
  8
001
370
               5
390
0
 62
               7
100
AcDbCircle
 10
109.90579986542548
 20
-82.687406600000031
 30
0.0
 40
2.0010800000000017
100
AcDbArc
 50
0.0
 51
88.362016465448633
  0
LINE
  5
1EA
100
AcDbEntity
  8
001
370
               5
390
0
 62
               7
100
AcDbLine
 10
111.90687986542548
 20
-82.687406600000031
 30
0.0
 11
111.90687986542548
 21
-86.28840660000003
 31
0.0
  0
LINE
  5
1EB
100
AcDbEntity
  8
001
370
               5
390
0
 62
               7
100
AcDbLine
 10
109.90579986542548
 20
-86.28840660000003
 30
0.0
 11
189.94679986542548
 21
-86.28840660000003
 31
0.0
  0
LINE
  5
1EC
100
AcDbEntity
  8
001
370
               5
390
0
 62
               7
100
AcDbLine
 10
109.90579986542548
 20
-86.28840660000003
 30
0.0
 11
109.90579986542548
 21
-94.292526599999974
 31
0.0
  0
LINE
  5
1ED
100
AcDbEntity
  8
001
370
               5
390
0
 62
               7
100
AcDbLine
 10
109.90579986542548
 20
-91.691206599999873
 30
0.0
 11
189.94679986542548
 21
-91.691206599999873
 31
0.0
  0
LINE
  5
1EE
100
AcDbEntity
  8
001
370
               5
390
0
 62
               7
100
AcDbLine
 10
109.90579986542548
 20
-94.292526599999974
 30
0.0
 11
189.94679986542548
 21
-94.292526599999974
 31
0.0
  0
ARC
  5
1EF
100
AcDbEntity
  8
001
370
               5
390
0
 62
               7
100
AcDbCircle
 10
185.94479986542544
 20
-84.287406600000054
 30
0.0
 40
1.0005199999999377
100
AcDbArc
 50
270.0
 51
0.0
  0
LINE
  5
1F0
100
AcDbEntity
  8
001
370
               5
390
0
 62
               7
100
AcDbLine
 10
189.94679986542548
 20
-86.28840660000003
 30
0.0
 11
189.94679986542548
 21
-94.292526599999974
 31
0.0
  0
LINE
  5
1F1
100
AcDbEntity
  8
001
370
               5
390
0
 62
               7
100
AcDbLine
 10
186.94527986542531
 20
-83.286926600000015
 30
0.0
 11
256.14067986542545
 21
-81.441806600000007
 31
0.0
  0
ARC
  5
1F2
100
AcDbEntity
  8
001
370
               5
390
0
 62
               7
100
AcDbCircle
 10
255.98059986542546
 20
-75.440806599999974
 30
0.0
 40
6.003132598902039
100
AcDbArc
 50
271.52727101763082
 51
0.0
  0
LINE
  5
1F3
100
AcDbEntity
  8
001
370
               5
390
0
 62
               7
100
AcDbLine
 10
261.98367986542553
 20
-75.440806599999974
 30
0.0
 11
261.98367986542553
 21
59.944273400000043
 31
0.0
  0
ARC
  5
1F4
100
AcDbEntity
  8
001
370
               5
390
0
 62
               7
100
AcDbCircle
 10
255.98059986542546
 20
59.944273400000043
 30
0.0
 40
6.0030800000000681
100
AcDbArc
 50
0.0
 51
88.47271880701426
  0
LINE
  5
1F5
100
AcDbEntity
  8
001
370
               5
390
0
 62
               7
100
AcDbLine
 10
95.898679865425635
 20
71.792473400000006
 30
0.0
 11
171.9375998654254
 21
71.792473400000006
 31
0.0
  0
CIRCLE
  5
1F6
100
AcDbEntity
  8
001
370
               5
390
0
 62
               7
100
AcDbCircle
 10
133.91807986542557
 20
51.782193399999983
 30
0.0
 40
10.505400000000009
  0
LINE
  5
1F7
100
AcDbEntity
  8
001
370
               5
390
0
 62
               7
100
AcDbLine
 10
-134.90220013457434
 20
78.595873399999959
 30
0.0
 11
-134.90220013457434
 21
-76.283326599999953
 31
0.0
  0
ARC
  5
1F8
100
AcDbEntity
  8
001
370
               5
390
0
 62
               7
100
AcDbCircle
 10
-136.10280013457447
 20
78.595873399999959
 30
0.0
 40
1.2006000000001222
100
AcDbArc
 50
0.0
 51
90.0
  0
ARC
  5
1F9
100
AcDbEntity
  8
001
370
               5
390
0
 62
               7
100
AcDbCircle
 10
-140.90532013457448
 20
-76.283326599999953
 30
0.0
 40
6.0031632420250824
100
AcDbArc
 50
279.59399846558051
 51
0.0
  0
LINE
  5
1FA
100
AcDbEntity
  8
001
370
               5
390
0
 62
               7
100
AcDbLine
 10
-139.90480013457454
 20
-82.202526600000056
 30
0.0
 11
-139.90480013457454
 21
-86.232126599999901
 31
0.0
  0
ARC
  5
1FB
100
AcDbEntity
  8
001
370
               5
390
0
 62
               7
100
AcDbCircle
 10
-139.90480013457454
 20
-88.889806599999929
 30
0.0
 40
2.6013911183058491
100
AcDbArc
 50
33.76972435873774
 51
89.998238001704209
  0
LINE
  5
1FC
100
AcDbEntity
  8
001
370
               5
390
0
 62
               7
100
AcDbLine
 10
-134.90220013457434
 20
-91.993806600000013
 30
0.0
 11
-137.74232013457436
 21
-87.443806600000016
 31
0.0
  0
LINE
  5
1FD
100
AcDbEntity
  8
001
370
               5
390
0
 62
               7
100
AcDbLine
 10
-117.39320013457473
 20
-91.99120659999987
 30
0.0
 11
-134.90220013457434
 21
-91.99120659999987
 31
0.0
  0
LINE
  5
1FE
100
AcDbEntity
  8
001
370
               5
390
0
 62
               7
100
AcDbLine
 10
-117.39320013457473
 20
-91.992526599999977
 30
0.0
 11
-117.39320013457473
 21
-94.292526599999974
 31
0.0
  0
LINE
  5
1FF
100
AcDbEntity
  8
001
370
               5
390
0
 62
               7
100
AcDbLine
 10
-134.90220013457434
 20
-94.292526599999974
 30
0.0
 11
-117.39320013457473
 21
-94.292526599999974
 31
0.0
  0
ARC
  5
200
100
AcDbEntity
  8
001
370
               5
390
0
 62
               7
100
AcDbCircle
 10
-134.90220013457434
 20
-91.691206599999873
 30
0.0
 40
2.6012801476199687
100
AcDbArc
 50
213.76923904351946
 51
270.0
  0
LINE
  5
201
100
AcDbEntity
  8
001
370
               5
390
0
 62
               7
100
AcDbLine
 10
-139.90460013457448
 20
-88.587126599999991
 30
0.0
 11
-137.06460013457468
 21
-93.137126599999988
 31
0.0
  0
LINE
  5
202
100
AcDbEntity
  8
001
370
               5
390
0
 62
               7
100
AcDbLine
 10
-259.96620013457465
 20
-88.589806599999932
 30
0.0
 11
-139.90480013457454
 21
-88.589806599999932
 31
0.0
  0
LINE
  5
203
100
AcDbEntity
  8
001
370
               5
390
0
 62
               7
100
AcDbLine
 10
-259.96620013457465
 20
-86.28840660000003
 30
0.0
 11
-139.90480013457454
 21
-86.28840660000003
 31
0.0
  0
LINE
  5
204
100
AcDbEntity
  8
001
370
               5
390
0
 62
               7
100
AcDbLine
 10
-264.96860013457444
 20
-91.993806600000013
 30
0.0
 11
-262.12860013457464
 21
-87.443806600000016
 31
0.0
  0
LINE
  5
205
100
AcDbEntity
  8
001
370
               5
390
0
 62
               7
100
AcDbLine
 10
-259.96620013457465
 20
-88.587126599999991
 30
0.0
 11
-262.80632013457466
 21
-93.137126599999988
 31
0.0
  0
ARC
  5
206
100
AcDbEntity
  8
001
370
               5
390
0
 62
               7
100
AcDbCircle
 10
-264.96880013457445
 20
-91.691206599999873
 30
0.0
 40
2.6013200000001007
100
AcDbArc
 50
270.0
 51
326.2312506756258
  0
LINE
  5
207
100
AcDbEntity
  8
001
370
               5
390
0
 62
               7
100
AcDbLine
 10
-264.96880013457445
 20
-94.292526599999974
 30
0.0
 11
-282.47772013457467
 21
-94.292526599999974
 31
0.0
  0
LINE
  5
208
100
AcDbEntity
  8
001
370
               5
390
0
 62
               7
100
AcDbLine
 10
-282.47772013457467
 20
-91.99120659999987
 30
0.0
 11
-264.96880013457445
 21
-91.99120659999987
 31
0.0
  0
ARC
  5
209
100
AcDbEntity
  8
001
370
               5
390
0
 62
               7
100
AcDbCircle
 10
-258.96572013457438
 20
-76.283326599999953
 30
0.0
 40
6.0030800000000681
100
AcDbArc
 50
180.0
 51
260.40625071297751
  0
LINE
  5
20A
100
AcDbEntity
  8
001
370
               5
390
0
 62
               7
100
AcDbLine
 10
-259.96620013457465
 20
-86.28840660000003
 30
0.0
 11
-259.96620013457465
 21
-82.202326599999992
 31
0.0
  0
LINE
  5
20B
100
AcDbEntity
  8
001
370
               5
390
0
 62
               7
100
AcDbLine
 10
-264.96880013457445
 20
78.595873399999959
 30
0.0
 11
-264.96880013457445
 21
-76.283326599999953
 31
0.0
  0
ARC
  5
20C
100
AcDbEntity
  8
001
370
               5
390
0
 62
               7
100
AcDbCircle
 10
-263.76812013457453
 20
78.595873399999959
 30
0.0
 40
1.2007200000000466
100
AcDbArc
 50
90.0
 51
179.99427385774715
  0
CIRCLE
  5
20D
100
AcDbEntity
  8
001
370
               5
390
0
 62
               7
100
AcDbCircle
 10
-199.9355201345744
 20
-20.254606599999875
 30
0.0
 40
7.50391999999988
  0
ARC
  5
20E
100
AcDbEntity
  8
001
370
               5
390
0
 62
               7
100
AcDbCircle
 10
-259.96620013457465
 20
-88.889806599999929
 30
0.0
 40
2.6013999999998987
100
AcDbArc
 50
90.0
 51
146.23027564125769
  0
LINE
  5
20F
100
AcDbEntity
  8
001
370
               5
390
0
 62
               7
100
AcDbLine
 10
-245.95900013457464
 20
-82.286406599999964
 30
0.0
 11
-153.91192013457436
 21
-82.286406599999964
 31
0.0
  0
LINE
  5
210
100
AcDbEntity
  8
001
370
               5
390
0
 62
               7
100
AcDbLine
 10
109.96299986542549
 20
-80.687326600000063
 30
0.0
 11
101.7303998654254
 21
-80.452126599999986
 31
0.0
  0
LINE
  5
211
100
AcDbEntity
  8
001
370
               5
390
0
 62
               7
100
AcDbLine
 10
171.9375998654254
 20
-85.287926599999992
 30
0.0
 11
185.94479986542544
 21
-85.287926599999992
 31
0.0
  0
LINE
  5
212
100
AcDbEntity
  8
001
370
               5
390
0
 62
               7
100
AcDbLine
 10
171.9375998654254
 20
-85.287926599999992
 30
0.0
 11
171.9375998654254
 21
-86.28840660000003
 31
0.0
  0
LINE
  5
213
100
AcDbEntity
  8
001
370
               5
390
0
 62
               7
100
AcDbLine
 10
186.94527986542531
 20
-83.286926600000015
 30
0.0
 11
186.94527986542531
 21
-84.287406600000054
 31
0.0
  0
LINE
  5
214
100
AcDbEntity
  8
001
370
               5
390
0
 62
               7
100
AcDbLine
 10
186.94527986542531
 20
67.790393399999971
 30
0.0
 11
186.94527986542531
 21
68.790873400000066
 31
0.0
  0
LINE
  5
215
100
AcDbEntity
  8
001
370
               5
390
0
 62
               7
100
AcDbLine
 10
171.9375998654254
 20
69.791393400000004
 30
0.0
 11
171.9375998654254
 21
78.595873399999959
 31
0.0
  0
LINE
  5
216
100
AcDbEntity
  8
001
370
               5
390
0
 62
               7
100
AcDbLine
 10
171.9375998654254
 20
69.791393400000004
 30
0.0
 11
171.9375998654254
 21
-85.287926599999992
 31
0.0
  0
LINE
  5
217
100
AcDbEntity
  8
001
370
               5
390
0
 62
               7
100
AcDbLine
 10
186.94527986542531
 20
67.790393399999971
 30
0.0
 11
186.94527986542531
 21
-83.286926600000015
 31
0.0
  0
LINE
  5
218
100
AcDbEntity
  8
001
370
               5
390
0
 62
               7
100
AcDbLine
 10
165.93447986542566
 20
-83.286926600000015
 30
0.0
 11
165.93447986542566
 21
-78.284326599999986
 31
0.0
  0
ARC
  5
219
100
AcDbEntity
  8
001
370
               5
390
0
 62
               7
100
AcDbCircle
 10
167.93547986542549
 20
-83.286926600000015
 30
0.0
 40
2.0009999999998342
100
AcDbArc
 50
180.0
 51
270.00114534292169
  0
LINE
  5
21A
100
AcDbEntity
  8
001
370
               5
390
0
 62
               7
100
AcDbLine
 10
171.9375998654254
 20
-85.287926599999992
 30
0.0
 11
167.93547986542549
 21
-85.287926599999992
 31
0.0
  0
LINE
  5
21B
100
AcDbEntity
  8
001
370
               5
390
0
 62
               7
100
AcDbLine
 10
109.96299986542549
 20
-80.687206599999968
 30
0.0
 11
164.96247986542554
 21
-82.258606600000007
 31
0.0
  0
LINE
  5
21C
100
AcDbEntity
  8
001
370
               5
390
0
  6
STYLE_12
 62
               7
100
AcDbLine
 10
91.896599865425429
 20
-14.251606600000002
 30
0.0
 11
91.896599865425429
 21
-16.752806599999872
 31
0.0
  0
LINE
  5
21D
100
AcDbEntity
  8
001
370
               5
390
0
  6
STYLE_13
 62
               7
100
AcDbLine
 10
-273.99360013457442
 20
51.782193399999983
 30
0.0
 11
-257.48372013457441
 21
51.782193399999983
 31
0.0
  0
LINE
  5
21E
100
AcDbEntity
  8
001
370
               5
390
0
  6
STYLE_13
 62
               7
100
AcDbLine
 10
-126.56440013457461
 20
51.782193399999983
 30
0.0
 11
-145.95900013457464
 21
51.782193399999983
 31
0.0
  0
LINE
  5
21F
100
AcDbEntity
  8
001
370
               5
390
0
  6
STYLE_06
 62
               7
100
AcDbLine
 10
133.91807986542557
 20
88.635473400000024
 30
0.0
 11
133.91807986542557
 21
36.764473399999929
 31
0.0
  0
LINE
  5
220
100
AcDbEntity
  8
001
370
               5
390
0
  6
STYLE_06
 62
               7
100
AcDbLine
 10
111.04799986542535
 20
51.782193399999983
 30
0.0
 11
150.59527986542531
 21
51.782193399999983
 31
0.0
  0
LINE
  5
221
100
AcDbEntity
  8
001
370
               5
390
0
  6
STYLE_13
 62
               7
100
AcDbLine
 10
-199.9355201345744
 20
107.49579340000003
 30
0.0
 11
-199.9355201345744
 21
-100.28092660000004
 31
0.0
  0
LINE
  5
222
100
AcDbEntity
  8
001
370
               5
390
0
  6
STYLE_13
 62
               7
100
AcDbLine
 10
179.9416798654253
 20
-100.34972660000005
 30
0.0
 11
179.9416798654253
 21
-82.163206599999967
 31
0.0
  0
LINE
  5
223
100
AcDbEntity
  8
001
370
               5
390
0
  6
STYLE_13
 62
               7
100
AcDbLine
 10
119.91099986542545
 20
-83.986406600000009
 30
0.0
 11
119.91099986542545
 21
-101.29540659999998
 31
0.0
  0
LINE
  5
224
100
AcDbEntity
  8
001
370
               5
390
0
  6
STYLE_06
 62
               7
100
AcDbLine
 10
-272.47260013457452
 20
-85.972926600000051
 30
0.0
 11
-272.47260013457452
 21
-100.83372660000009
 31
0.0
  0
LINE
  5
225
100
AcDbEntity
  8
001
370
               5
390
0
  6
STYLE_06
 62
               7
100
AcDbLine
 10
-127.39840013457467
 20
-86.193726599999877
 30
0.0
 11
-127.39840013457467
 21
-101.1185266
 31
0.0
  0
LINE
  5
226
100
AcDbEntity
  8
001
370
               5
390
0
 62
               7
100
AcDbLine
 10
-199.9355201345744
 20
67.29579339999998
 30
0.0
 11
-206.43880013457454
 21
63.540993399999934
 31
0.0
  0
LINE
  5
227
100
AcDbEntity
  8
001
370
               5
390
0
 62
               7
100
AcDbLine
 10
-206.43880013457454
 20
56.03159340000002
 30
0.0
 11
-199.9355201345744
 21
52.276873399999943
 31
0.0
  0
CIRCLE
  5
228
100
AcDbEntity
  8
001
370
               5
390
0
 62
               7
100
AcDbCircle
 10
-199.9355201345744
 20
59.786273400000027
 30
0.0
 40
8.0041199999999435
  0
ARC
  5
229
100
AcDbEntity
  8
001
370
               5
390
0
 62
               7
100
AcDbCircle
 10
-199.9355201345744
 20
59.786273400000027
 30
0.0
 40
7.0035318117648329
100
AcDbArc
 50
218.21288000332339
 51
261.78701279303073
  0
ARC
  5
22A
100
AcDbEntity
  8
001
370
               5
390
0
 62
               7
100
AcDbCircle
 10
-199.9355201345744
 20
59.786273400000027
 30
0.0
 40
7.0036284503391437
100
AcDbArc
 50
98.212893713829956
 51
141.78609154001708
  0
CIRCLE
  5
22B
100
AcDbEntity
  8
001
370
               5
390
0
 62
               7
100
AcDbCircle
 10
-199.9355201345744
 20
59.786273400000027
 30
0.0
 40
6.2531999999998789
  0
LINE
  5
22C
100
AcDbEntity
  8
001
370
               5
390
0
 62
               7
100
AcDbLine
 10
-193.43212013457446
 20
63.540993399999934
 30
0.0
 11
-199.9355201345744
 21
67.29579339999998
 31
0.0
  0
LINE
  5
22D
100
AcDbEntity
  8
001
370
               5
390
0
 62
               7
100
AcDbLine
 10
-199.9355201345744
 20
52.276873399999943
 30
0.0
 11
-193.43212013457446
 21
56.03159340000002
 31
0.0
  0
ARC
  5
22E
100
AcDbEntity
  8
001
370
               5
390
0
 62
               7
100
AcDbCircle
 10
-199.9355201345744
 20
59.786273400000027
 30
0.0
 40
7.0035565552366839
100
AcDbArc
 50
38.213137120216359
 51
81.786688910963534
  0
ARC
  5
22F
100
AcDbEntity
  8
001
370
               5
390
0
 62
               7
100
AcDbCircle
 10
-199.9355201345744
 20
59.786273400000027
 30
0.0
 40
7.0035153953425615
100
AcDbArc
 50
278.21335783819057
 51
321.78711999667524
  0
LINE
  5
230
100
AcDbEntity
  8
001
370
               5
390
0
 62
               7
100
AcDbLine
 10
-193.43212013457446
 20
56.03159340000002
 30
0.0
 11
-193.43212013457446
 21
63.540993399999934
 31
0.0
  0
ARC
  5
231
100
AcDbEntity
  8
001
370
               5
390
0
 62
               7
100
AcDbCircle
 10
-199.9355201345744
 20
59.786273400000027
 30
0.0
 40
7.0036484720465202
100
AcDbArc
 50
338.21347813704654
 51
21.787554896371095
  0
LINE
  5
232
100
AcDbEntity
  8
001
370
               5
390
0
 62
               7
100
AcDbLine
 10
-206.43880013457454
 20
63.540993399999934
 30
0.0
 11
-206.43880013457454
 21
56.03159340000002
 31
0.0
  0
ARC
  5
233
100
AcDbEntity
  8
001
370
               5
390
0
 62
               7
100
AcDbCircle
 10
-199.9355201345744
 20
59.786273400000027
 30
0.0
 40
7.0035370434089961
100
AcDbArc
 50
158.21311377324676
 51
201.78688622675324
  0
ARC
  5
234
100
AcDbEntity
  8
001
370
               5
390
0
 62
               7
100
AcDbCircle
 10
-199.9355201345744
 20
-31.760526600000048
 30
0.0
 40
15.007614723413207
100
AcDbArc
 50
176.18734731362105
 51
1.9100071409412467
  0
LINE
  5
235
100
AcDbEntity
  8
001
370
               5
390
0
 62
               7
100
AcDbLine
 10
-210.93500013457447
 20
88.667073399999936
 30
0.0
 11
-214.94300013457467
 21
-31.760526600000048
 31
0.0
  0
CIRCLE
  5
236
100
AcDbEntity
  8
001
370
               5
390
0
 62
               7
100
AcDbCircle
 10
-199.9355201345744
 20
-20.254606599999875
 30
0.0
 40
12.506399999999815
  0
LINE
  5
237
100
AcDbEntity
  8
001
370
               5
390
0
 62
               7
100
AcDbLine
 10
-184.93612013457459
 20
-31.260326599999985
 30
0.0
 11
-188.93600013457467
 21
88.667673400000069
 31
0.0
  0
LINE
  5
238
100
AcDbEntity
  8
001
370
               5
390
0
 62
               7
100
AcDbLine
 10
-195.93340013457453
 20
5.2583934000000454
 30
0.0
 11
-195.93340013457453
 21
52.854593399999999
 31
0.0
  0
ARC
  5
239
100
AcDbEntity
  8
001
370
               5
390
0
 62
               7
100
AcDbCircle
 10
-199.9355201345744
 20
5.2583934000000454
 30
0.0
 40
4.0020000000000664
100
AcDbArc
 50
180.0
 51
0.0
  0
LINE
  5
23A
100
AcDbEntity
  8
001
370
               5
390
0
 62
               7
100
AcDbLine
 10
-203.93752013457447
 20
5.2583934000000454
 30
0.0
 11
-203.93752013457447
 21
52.854593399999999
 31
0.0
  0
LINE
  5
23B
100
AcDbEntity
  8
001
370
               5
390
0
 62
               7
100
AcDbLine
 10
-194.9329201345746
 20
-17.366526599999986
 30
0.0
 11
-199.9355201345744
 21
-14.478206599999965
 31
0.0
  0
LINE
  5
23C
100
AcDbEntity
  8
001
370
               5
390
0
 62
               7
100
AcDbLine
 10
-199.9355201345744
 20
-14.478206599999965
 30
0.0
 11
-204.93800013457439
 21
-17.366526599999986
 31
0.0
  0
LINE
  5
23D
100
AcDbEntity
  8
001
370
               5
390
0
 62
               7
100
AcDbLine
 10
-204.93800013457439
 20
-17.366406599999948
 30
0.0
 11
-204.93800013457439
 21
-23.142926599999896
 31
0.0
  0
LINE
  5
23E
100
AcDbEntity
  8
001
370
               5
390
0
 62
               7
100
AcDbLine
 10
-204.93800013457439
 20
-23.142806600000029
 30
0.0
 11
-199.9355201345744
 21
-26.03112660000005
 31
0.0
  0
LINE
  5
23F
100
AcDbEntity
  8
001
370
               5
390
0
 62
               7
100
AcDbLine
 10
-199.9355201345744
 20
-26.03112660000005
 30
0.0
 11
-194.9329201345746
 21
-23.142806600000029
 31
0.0
  0
ARC
  5
240
100
AcDbEntity
  8
001
370
               5
390
0
 62
               7
100
AcDbCircle
 10
-199.9355201345744
 20
88.300873400000114
 30
0.0
 40
11.005638124015983
100
AcDbArc
 50
1.910553814460286
 51
178.09361563892094
  0
ARC
  5
241
100
AcDbEntity
  8
001
370
               5
390
0
 62
               7
100
AcDbCircle
 10
-199.9355201345744
 20
84.298873400000048
 30
0.0
 40
4.0021199999998771
100
AcDbArc
 50
0.0
 51
179.99942734571306
  0
LINE
  5
242
100
AcDbEntity
  8
001
370
               5
390
0
 62
               7
100
AcDbLine
 10
-195.93340013457453
 20
84.298873400000048
 30
0.0
 11
-195.93340013457453
 21
66.71807339999998
 31
0.0
  0
LINE
  5
243
100
AcDbEntity
  8
001
370
               5
390
0
 62
               7
100
AcDbLine
 10
-203.93752013457447
 20
84.298873400000048
 30
0.0
 11
-203.93752013457447
 21
66.71807339999998
 31
0.0
  0
CIRCLE
  5
244
100
AcDbEntity
  8
001
370
               5
390
0
 62
               7
100
AcDbCircle
 10
-199.9355201345744
 20
-20.254606599999875
 30
0.0
 40
5.0025999999998021
  0
LINE
  5
245
100
AcDbEntity
  8
001
370
               5
390
0
 62
               7
100
AcDbLine
 10
-194.9329201345746
 20
-23.142926599999896
 30
0.0
 11
-194.9329201345746
 21
-17.366406599999948
 31
0.0
  0
ARC
  5
246
100
AcDbEntity
  8
001
370
               5
390
0
 62
               7
100
AcDbCircle
 10
-199.9355201345744
 20
-20.254606599999875
 30
0.0
 40
15.007716175781274
100
AcDbArc
 50
253.93885647831212
 51
286.06129027103066
  0
LINE
  5
247
100
AcDbEntity
  8
001
370
               5
390
0
 62
               7
100
AcDbLine
 10
-195.78332013457435
 20
-32.051726599999881
 30
0.0
 11
-195.78332013457435
 21
-34.67640659999995
 31
0.0
  0
LINE
  5
248
100
AcDbEntity
  8
001
370
               5
390
0
 62
               7
100
AcDbLine
 10
-204.08760013457464
 20
-32.051726599999881
 30
0.0
 11
-204.08760013457464
 21
-34.67640659999995
 31
0.0
  0
LINE
  5
249
100
AcDbEntity
  8
001
370
               5
390
0
 62
               7
100
AcDbLine
 10
-204.08760013457464
 20
-8.4575265999999942
 30
0.0
 11
-204.08760013457464
 21
-5.8328066000000263
 31
0.0
  0
ARC
  5
24A
100
AcDbEntity
  8
001
370
               5
390
0
 62
               7
100
AcDbCircle
 10
-199.9355201345744
 20
-20.254606599999875
 30
0.0
 40
15.007634060037446
100
AcDbArc
 50
73.938289479067762
 51
106.06122802064316
  0
LINE
  5
24B
100
AcDbEntity
  8
001
370
               5
390
0
 62
               7
100
AcDbLine
 10
-195.78332013457435
 20
-8.4575265999999942
 30
0.0
 11
-195.78332013457435
 21
-5.8328066000000263
 31
0.0
  0
LINE
  5
24C
100
AcDbEntity
  8
001
370
               5
390
0
  6
STYLE_13
 62
               7
100
AcDbLine
 10
-183.29500013457437
 20
59.786273400000027
 30
0.0
 11
-216.70752013457457
 21
59.786273400000027
 31
0.0
  0
LINE
  5
24D
100
AcDbEntity
  8
001
370
               5
390
0
 62
               7
100
AcDbLine
 10
-263.76812013457453
 20
79.796593400000006
 30
0.0
 11
-211.2302001345746
 21
79.796593400000006
 31
0.0
  0
LINE
  5
24E
100
AcDbEntity
  8
001
370
               5
390
0
 62
               7
100
AcDbLine
 10
-203.93752013457447
 20
79.796593400000006
 30
0.0
 11
-195.93340013457453
 21
79.796593400000006
 31
0.0
  0
LINE
  5
24F
100
AcDbEntity
  8
001
370
               5
390
0
 62
               7
100
AcDbLine
 10
-188.64012013457466
 20
79.796593400000006
 30
0.0
 11
-136.10280013457447
 21
79.796593400000006
 31
0.0
  0
LINE
  5
250
100
AcDbEntity
  8
001
370
               5
390
0
 62
               7
100
AcDbLine
 10
-188.37320013457463
 20
71.792473400000006
 30
0.0
 11
-134.90220013457434
 21
71.792473400000006
 31
0.0
  0
LINE
  5
251
100
AcDbEntity
  8
001
370
               5
390
0
 62
               7
100
AcDbLine
 10
-264.96880013457445
 20
71.792473400000006
 30
0.0
 11
-211.49660013457469
 21
71.792473400000006
 31
0.0
  0
LINE
  5
252
100
AcDbEntity
  8
001
370
               5
390
0
 62
               7
100
AcDbLine
 10
-203.93752013457447
 20
71.792473400000006
 30
0.0
 11
-195.93340013457453
 21
71.792473400000006
 31
0.0
  0
ARC
  5
253
100
AcDbEntity
  8
001
370
               5
390
0
 62
               7
100
AcDbCircle
 10
-199.9355201345744
 20
-20.254606599999875
 30
0.0
 40
21.010683448912321
100
AcDbArc
 50
132.17486791827258
 51
226.13860190895085
  0
ARC
  5
254
100
AcDbEntity
  8
001
370
               5
390
0
 62
               7
100
AcDbCircle
 10
-199.9355201345744
 20
-20.254606599999875
 30
0.0
 40
21.01081850415158
100
AcDbArc
 50
313.86163709935772
 51
47.800712507719709
  0
LINE
  5
255
100
AcDbEntity
  8
001
370
               5
390
0
  6
STYLE_11
 62
               7
100
AcDbLine
 10
-189.32340013457463
 20
-9.6426066000000219
 30
0.0
 11
-185.78600013457469
 21
-6.1052066000000309
 31
0.0
  0
LINE
  5
256
100
AcDbEntity
  8
001
370
               5
390
0
  6
STYLE_11
 62
               7
100
AcDbLine
 10
-191.11420013457462
 20
-8.1131266000000437
 30
0.0
 11
-189.34992013457446
 21
-5.6849265999999261
 31
0.0
  0
LINE
  5
257
100
AcDbEntity
  8
001
370
               5
390
0
  6
STYLE_11
 62
               7
100
AcDbLine
 10
-193.12212013457463
 20
-6.8827266000000122
 30
0.0
 11
-191.75940013457432
 21
-4.2083265999999639
 31
0.0
  0
LINE
  5
258
100
AcDbEntity
  8
001
370
               5
390
0
  6
STYLE_11
 62
               7
100
AcDbLine
 10
-195.29780013457457
 20
-5.9815265999999383
 30
0.0
 11
-194.37032013457463
 21
-3.1269265999999334
 31
0.0
  0
LINE
  5
259
100
AcDbEntity
  8
001
370
               5
390
0
  6
STYLE_11
 62
               7
100
AcDbLine
 10
-197.58780013457465
 20
-5.4317265999999904
 30
0.0
 11
-197.1181201345745
 21
-2.4672065999999404
 31
0.0
  0
LINE
  5
25A
100
AcDbEntity
  8
001
370
               5
390
0
  6
STYLE_11
 62
               7
100
AcDbLine
 10
-202.28312013457469
 20
-5.4317265999999904
 30
0.0
 11
-202.7527201345747
 21
-2.4672065999999404
 31
0.0
  0
LINE
  5
25B
100
AcDbEntity
  8
001
370
               5
390
0
  6
STYLE_11
 62
               7
100
AcDbLine
 10
-204.57300013457461
 20
-5.9815265999999383
 30
0.0
 11
-205.50052013457457
 21
-3.1269265999999334
 31
0.0
  0
LINE
  5
25C
100
AcDbEntity
  8
001
370
               5
390
0
  6
STYLE_11
 62
               7
100
AcDbLine
 10
-206.74880013457437
 20
-6.8827266000000122
 30
0.0
 11
-208.11152013457468
 21
-4.2083265999999639
 31
0.0
  0
LINE
  5
25D
100
AcDbEntity
  8
001
370
               5
390
0
  6
STYLE_11
 62
               7
100
AcDbLine
 10
-208.75672013457438
 20
-8.1131266000000437
 30
0.0
 11
-210.52100013457454
 21
-5.6849265999999261
 31
0.0
  0
LINE
  5
25E
100
AcDbEntity
  8
001
370
               5
390
0
  6
STYLE_11
 62
               7
100
AcDbLine
 10
-210.54740013457445
 20
-9.6426066000000219
 30
0.0
 11
-214.08480013457444
 21
-6.1052066000000309
 31
0.0
  0
LINE
  5
25F
100
AcDbEntity
  8
001
370
               5
390
0
 62
               7
100
AcDbLine
 10
60.440479865425402
 20
-46.768206599999928
 30
0.0
 11
60.440479865425402
 21
99.306473399999959
 31
0.0
  0
LINE
  5
260
100
AcDbEntity
  8
001
370
               5
390
0
 62
               7
100
AcDbLine
 10
63.642199865425624
 20
-46.768206599999928
 30
0.0
 11
63.642199865425624
 21
99.306473399999959
 31
0.0
  0
LINE
  5
261
100
AcDbEntity
  8
001
370
               5
390
0
 62
               7
100
AcDbLine
 10
56.938679865425399
 20
71.742193399999962
 30
0.0
 11
56.938679865425399
 21
87.75039339999995
 31
0.0
  0
LINE
  5
262
100
AcDbEntity
  8
001
370
               5
390
0
 62
               7
100
AcDbLine
 10
71.946399865425377
 20
82.747873399999946
 30
0.0
 11
71.946399865425377
 21
76.744793399999935
 31
0.0
  0
LINE
  5
263
100
AcDbEntity
  8
001
370
               5
390
0
 62
               7
100
AcDbLine
 10
39.929999865425316
 20
72.742673400000001
 30
0.0
 11
39.929999865425316
 21
86.749873400000013
 31
0.0
  0
LINE
  5
264
100
AcDbEntity
  8
001
370
               5
390
0
 62
               7
100
AcDbLine
 10
32.925879865425344
 20
87.250193399999944
 30
0.0
 11
28.116279865425582
 21
87.250193399999944
 31
0.0
  0
LINE
  5
265
100
AcDbEntity
  8
001
370
               5
390
0
 62
               7
100
AcDbLine
 10
32.925879865425344
 20
87.250193399999944
 30
0.0
 11
32.925879865425344
 21
72.242473399999938
 31
0.0
  0
LINE
  5
266
100
AcDbEntity
  8
001
370
               5
390
0
 62
               7
100
AcDbLine
 10
39.929999865425316
 20
86.749873400000013
 30
0.0
 11
37.928999865425482
 21
84.748873399999979
 31
0.0
  0
LINE
  5
267
100
AcDbEntity
  8
001
370
               5
390
0
 62
               7
100
AcDbLine
 10
39.929999865425316
 20
86.749873400000013
 30
0.0
 11
56.938679865425399
 21
86.749873400000013
 31
0.0
  0
LINE
  5
268
100
AcDbEntity
  8
001
370
               5
390
0
 62
               7
100
AcDbLine
 10
60.440479865425402
 20
87.75039339999995
 30
0.0
 11
56.938679865425399
 21
87.75039339999995
 31
0.0
  0
LINE
  5
269
100
AcDbEntity
  8
001
370
               5
390
0
 62
               7
100
AcDbLine
 10
68.749879865425513
 20
89.551273399999957
 30
0.0
 11
64.537479865425524
 21
89.551273399999957
 31
0.0
  0
LINE
  5
26A
100
AcDbEntity
  8
001
370
               5
390
0
 62
               7
100
AcDbLine
 10
69.645199865425496
 20
71.492073400000038
 30
0.0
 11
68.749999865425394
 21
69.941273400000057
 31
0.0
  0
LINE
  5
26B
100
AcDbEntity
  8
001
370
               5
390
0
 62
               7
100
AcDbLine
 10
68.749879865425513
 20
69.941273400000057
 30
0.0
 11
64.537479865425524
 21
69.941273400000057
 31
0.0
  0
LINE
  5
26C
100
AcDbEntity
  8
001
370
               5
390
0
 62
               7
100
AcDbLine
 10
63.642199865425624
 20
71.492073400000038
 30
0.0
 11
64.537399865425371
 21
69.941273400000057
 31
0.0
  0
LINE
  5
26D
100
AcDbEntity
  8
001
370
               5
390
0
 62
               7
100
AcDbLine
 10
60.440479865425402
 20
71.742193399999962
 30
0.0
 11
56.938679865425399
 21
71.742193399999962
 31
0.0
  0
LINE
  5
26E
100
AcDbEntity
  8
001
370
               5
390
0
 62
               7
100
AcDbLine
 10
39.929999865425316
 20
72.742673400000001
 30
0.0
 11
56.938679865425399
 21
72.742673400000001
 31
0.0
  0
CIRCLE
  5
26F
100
AcDbEntity
  8
001
370
               5
390
0
 62
               7
100
AcDbCircle
 10
51.935679865425527
 20
79.746273400000007
 30
0.0
 40
4.1021199999999283
  0
LINE
  5
270
100
AcDbEntity
  8
001
370
               5
390
0
 62
               7
100
AcDbLine
 10
37.928999865425482
 20
74.743793400000072
 30
0.0
 11
39.929999865425316
 21
72.742673400000001
 31
0.0
  0
LINE
  5
271
100
AcDbEntity
  8
001
370
               5
390
0
 62
               7
100
AcDbLine
 10
37.928999865425482
 20
74.743793400000072
 30
0.0
 11
37.928999865425482
 21
84.748873399999979
 31
0.0
  0
LINE
  5
272
100
AcDbEntity
  8
001
370
               5
390
0
 62
               7
100
AcDbLine
 10
71.946399865425377
 20
76.744793399999935
 30
0.0
 11
70.945879865425425
 21
76.744793399999935
 31
0.0
  0
LINE
  5
273
100
AcDbEntity
  8
001
370
               5
390
0
 62
               7
100
AcDbLine
 10
71.946399865425377
 20
82.747873399999946
 30
0.0
 11
70.945879865425425
 21
82.747873399999946
 31
0.0
  0
LINE
  5
274
100
AcDbEntity
  8
001
370
               5
390
0
 62
               7
100
AcDbLine
 10
69.645199865425496
 20
88.000473399999976
 30
0.0
 11
68.749999865425394
 21
89.551273399999957
 31
0.0
  0
LINE
  5
275
100
AcDbEntity
  8
001
370
               5
390
0
 62
               7
100
AcDbLine
 10
63.642199865425624
 20
88.000473399999976
 30
0.0
 11
64.537399865425371
 21
89.551273399999957
 31
0.0
  0
LINE
  5
276
100
AcDbEntity
  8
001
370
               5
390
0
 62
               7
100
AcDbLine
 10
69.945399865425543
 20
85.749393399999974
 30
0.0
 11
69.645199865425496
 21
85.749393399999974
 31
0.0
  0
LINE
  5
277
100
AcDbEntity
  8
001
370
               5
390
0
 62
               7
100
AcDbLine
 10
69.945399865425543
 20
84.248593399999947
 30
0.0
 11
70.545679865425384
 21
84.248593399999947
 31
0.0
  0
LINE
  5
278
100
AcDbEntity
  8
001
370
               5
390
0
 62
               7
100
AcDbLine
 10
70.545679865425384
 20
81.74727340000004
 30
0.0
 11
71.035799865425403
 21
81.74727340000004
 31
0.0
  0
LINE
  5
279
100
AcDbEntity
  8
001
370
               5
390
0
 62
               7
100
AcDbLine
 10
70.545679865425384
 20
77.745273399999974
 30
0.0
 11
70.945879865425425
 21
77.745273399999974
 31
0.0
  0
LINE
  5
27A
100
AcDbEntity
  8
001
370
               5
390
0
 62
               7
100
AcDbLine
 10
69.945399865425543
 20
73.743193399999939
 30
0.0
 11
69.645199865425496
 21
73.743193399999939
 31
0.0
  0
LINE
  5
27B
100
AcDbEntity
  8
001
370
               5
390
0
 62
               7
100
AcDbLine
 10
69.945399865425543
 20
75.243993399999965
 30
0.0
 11
70.545679865425384
 21
75.243993399999965
 31
0.0
  0
LINE
  5
27C
100
AcDbEntity
  8
001
370
               5
390
0
 62
               7
100
AcDbLine
 10
32.925879865425344
 20
75.994393400000035
 30
0.0
 11
28.116279865425582
 21
75.994393400000035
 31
0.0
  0
LINE
  5
27D
100
AcDbEntity
  8
001
370
               5
390
0
 62
               7
100
AcDbLine
 10
32.925879865425344
 20
83.498193400000048
 30
0.0
 11
28.116279865425582
 21
83.498193400000048
 31
0.0
  0
LINE
  5
27E
100
AcDbEntity
  8
001
370
               5
390
0
 62
               7
100
AcDbLine
 10
35.228679865425562
 20
83.748393399999941
 30
0.0
 11
35.228679865425562
 21
75.74427339999994
 31
0.0
  0
ARC
  5
27F
100
AcDbEntity
  8
001
370
               5
390
0
 62
               7
100
AcDbCircle
 10
65.12459986542531
 20
87.100073400000042
 30
0.0
 40
4.376234536311066
100
AcDbArc
 50
325.93489928959417
 51
34.06510071040401
  0
LINE
  5
280
100
AcDbEntity
  8
001
370
               5
390
0
 62
               7
100
AcDbLine
 10
68.749879865425513
 20
84.648793399999988
 30
0.0
 11
64.537479865425524
 21
84.648793399999988
 31
0.0
  0
ARC
  5
281
100
AcDbEntity
  8
001
370
               5
390
0
 62
               7
100
AcDbCircle
 10
68.162799865425455
 20
87.100073400000042
 30
0.0
 40
4.3762228625150117
100
AcDbArc
 50
145.93606030160294
 51
214.06466687477192
  0
ARC
  5
282
100
AcDbEntity
  8
001
370
               5
390
0
 62
               7
100
AcDbCircle
 10
80.164999865425528
 20
79.746273400000007
 30
0.0
 40
16.378464021415439
100
AcDbArc
 50
162.58280149057236
 51
197.41706499547209
  0
ARC
  5
283
100
AcDbEntity
  8
001
370
               5
390
0
 62
               7
100
AcDbCircle
 10
53.122399865425592
 20
79.746273400000007
 30
0.0
 40
16.378413882326843
100
AcDbArc
 50
342.58289311998709
 51
17.417240394249234
  0
LINE
  5
284
100
AcDbEntity
  8
001
370
               5
390
0
 62
               7
100
AcDbLine
 10
68.749879865425513
 20
74.843793400000095
 30
0.0
 11
64.537479865425524
 21
74.843793400000095
 31
0.0
  0
ARC
  5
285
100
AcDbEntity
  8
001
370
               5
390
0
 62
               7
100
AcDbCircle
 10
65.12459986542531
 20
72.39259340000001
 30
0.0
 40
4.3762569418169726
100
AcDbArc
 50
325.93446545840033
 51
34.064373536690141
  0
ARC
  5
286
100
AcDbEntity
  8
001
370
               5
390
0
 62
               7
100
AcDbCircle
 10
68.162799865425455
 20
72.39259340000001
 30
0.0
 40
4.3762228625151067
100
AcDbArc
 50
145.93606030160109
 51
214.06582788768299
  0
LINE
  5
287
100
AcDbEntity
  8
001
370
               5
390
0
 62
               7
100
AcDbLine
 10
70.545679865425384
 20
81.74727340000004
 30
0.0
 11
70.545679865425384
 21
84.248593399999947
 31
0.0
  0
LINE
  5
288
100
AcDbEntity
  8
001
370
               5
390
0
 62
               7
100
AcDbLine
 10
70.545679865425384
 20
77.745273399999974
 30
0.0
 11
70.545679865425384
 21
75.243993399999965
 31
0.0
  0
LINE
  5
289
100
AcDbEntity
  8
001
370
               5
390
0
 62
               7
100
AcDbLine
 10
69.945399865425543
 20
75.243993399999965
 30
0.0
 11
69.945399865425543
 21
73.743193399999939
 31
0.0
  0
LINE
  5
28A
100
AcDbEntity
  8
001
370
               5
390
0
 62
               7
100
AcDbLine
 10
69.945399865425543
 20
84.248593399999947
 30
0.0
 11
69.945399865425543
 21
85.749393399999974
 31
0.0
  0
LINE
  5
28B
100
AcDbEntity
  8
001
370
               5
390
0
 62
               7
100
AcDbLine
 10
69.645199865425496
 20
85.749393399999974
 30
0.0
 11
69.645199865425496
 21
88.000473399999976
 31
0.0
  0
LINE
  5
28C
100
AcDbEntity
  8
001
370
               5
390
0
 62
               7
100
AcDbLine
 10
69.645199865425496
 20
73.743193399999939
 30
0.0
 11
69.645199865425496
 21
71.492073400000038
 31
0.0
  0
LINE
  5
28D
100
AcDbEntity
  8
001
370
               5
390
0
 62
               7
100
AcDbLine
 10
69.645199865425496
 20
73.743193399999939
 30
0.0
 11
69.645199865425496
 21
85.749393399999974
 31
0.0
  0
LINE
  5
28E
100
AcDbEntity
  8
001
370
               5
390
0
 62
               7
100
AcDbLine
 10
69.945399865425543
 20
84.248593399999947
 30
0.0
 11
69.945399865425543
 21
75.243993399999965
 31
0.0
  0
LINE
  5
28F
100
AcDbEntity
  8
001
370
               5
390
0
 62
               7
100
AcDbLine
 10
70.545679865425384
 20
77.745273399999974
 30
0.0
 11
70.545679865425384
 21
81.74727340000004
 31
0.0
  0
LINE
  5
290
100
AcDbEntity
  8
001
370
               5
390
0
 62
               7
100
AcDbLine
 10
70.945879865425425
 20
81.74727340000004
 30
0.0
 11
70.945879865425425
 21
82.747873399999946
 31
0.0
  0
LINE
  5
291
100
AcDbEntity
  8
001
370
               5
390
0
 62
               7
100
AcDbLine
 10
70.945879865425425
 20
77.745273399999974
 30
0.0
 11
70.945879865425425
 21
76.744793399999935
 31
0.0
  0
LINE
  5
292
100
AcDbEntity
  8
001
370
               5
390
0
 62
               7
100
AcDbLine
 10
70.945879865425425
 20
77.745273399999974
 30
0.0
 11
70.945879865425425
 21
81.74727340000004
 31
0.0
  0
LINE
  5
293
100
AcDbEntity
  8
001
370
               5
390
0
 62
               7
100
AcDbLine
 10
37.928999865425482
 20
83.748393399999941
 30
0.0
 11
32.925879865425344
 21
83.748393399999941
 31
0.0
  0
LINE
  5
294
100
AcDbEntity
  8
001
370
               5
390
0
  6
STYLE_12
 62
               7
100
AcDbLine
 10
37.928999865425482
 20
83.748393399999941
 30
0.0
 11
50.035199865425653
 21
83.748393399999941
 31
0.0
  0
LINE
  5
295
100
AcDbEntity
  8
001
370
               5
390
0
  6
STYLE_12
 62
               7
100
AcDbLine
 10
37.928999865425482
 20
83.07299340000003
 30
0.0
 11
48.535599865425354
 21
83.07299340000003
 31
0.0
  0
LINE
  5
296
100
AcDbEntity
  8
001
370
               5
390
0
  6
STYLE_12
 62
               7
100
AcDbLine
 10
46.933599865425322
 20
82.547793399999989
 30
0.0
 11
45.732999865425569
 21
83.748393399999941
 31
0.0
  0
LINE
  5
297
100
AcDbEntity
  8
001
370
               5
390
0
  6
STYLE_12
 62
               7
100
AcDbLine
 10
45.732999865425569
 20
75.74427339999994
 30
0.0
 11
45.732999865425569
 21
83.748393399999941
 31
0.0
  0
LINE
  5
298
100
AcDbEntity
  8
001
370
               5
390
0
  6
STYLE_12
 62
               7
100
AcDbLine
 10
46.933599865425322
 20
82.547793399999989
 30
0.0
 11
46.933599865425322
 21
76.944873400000063
 31
0.0
  0
LINE
  5
299
100
AcDbEntity
  8
001
370
               5
390
0
  6
STYLE_12
 62
               7
100
AcDbLine
 10
46.933599865425322
 20
76.944873400000063
 30
0.0
 11
45.732999865425569
 21
75.74427339999994
 31
0.0
  0
LINE
  5
29A
100
AcDbEntity
  8
001
370
               5
390
0
  6
STYLE_12
 62
               7
100
AcDbLine
 10
37.928999865425482
 20
76.419593400000053
 30
0.0
 11
48.535599865425354
 21
76.419593400000053
 31
0.0
  0
LINE
  5
29B
100
AcDbEntity
  8
001
370
               5
390
0
  6
STYLE_12
 62
               7
100
AcDbLine
 10
37.928999865425482
 20
75.74427339999994
 30
0.0
 11
50.035199865425653
 21
75.74427339999994
 31
0.0
  0
LINE
  5
29C
100
AcDbEntity
  8
001
370
               5
390
0
 62
               7
100
AcDbLine
 10
37.928999865425482
 20
76.419593400000053
 30
0.0
 11
35.228679865425562
 21
76.419593400000053
 31
0.0
  0
LINE
  5
29D
100
AcDbEntity
  8
001
370
               5
390
0
 62
               7
100
AcDbLine
 10
37.928999865425482
 20
83.07299340000003
 30
0.0
 11
35.228679865425562
 21
83.07299340000003
 31
0.0
  0
LINE
  5
29E
100
AcDbEntity
  8
001
370
               5
390
0
 62
               7
100
AcDbLine
 10
35.228679865425562
 20
83.07299340000003
 30
0.0
 11
34.058879865425524
 21
83.748393399999941
 31
0.0
  0
LINE
  5
29F
100
AcDbEntity
  8
001
370
               5
390
0
 62
               7
100
AcDbLine
 10
35.228679865425562
 20
76.419593400000053
 30
0.0
 11
34.058879865425524
 21
75.74427339999994
 31
0.0
  0
LINE
  5
2A0
100
AcDbEntity
  8
001
370
               5
390
0
  6
STYLE_13
 62
               7
100
AcDbLine
 10
51.935679865425527
 20
84.893873400000075
 30
0.0
 11
51.935679865425527
 21
73.603673400000048
 31
0.0
  0
LINE
  5
2A1
100
AcDbEntity
  8
001
370
               5
390
0
 62
               7
100
AcDbLine
 10
32.925879865425344
 20
72.242473399999938
 30
0.0
 11
28.116279865425582
 21
72.242473399999938
 31
0.0
  0
LINE
  5
2A2
100
AcDbEntity
  8
001
370
               5
390
0
 62
               7
100
AcDbLine
 10
37.928999865425482
 20
75.74427339999994
 30
0.0
 11
32.925879865425344
 21
75.74427339999994
 31
0.0
  0
LINE
  5
2A3
100
AcDbEntity
  8
001
370
               5
390
0
 62
               7
100
AcDbLine
 10
63.642199865425624
 20
99.306473399999959
 30
0.0
 11
60.440479865425402
 21
99.306473399999959
 31
0.0
  0
ARC
  5
2A4
100
AcDbEntity
  8
001
370
               5
390
0
 62
               7
100
AcDbCircle
 10
53.122399865425592
 20
79.746273400000007
 30
0.0
 40
16.378413882326843
100
AcDbArc
 50
342.58289311998709
 51
17.417240394249234
  0
LINE
  5
2A5
100
AcDbEntity
  8
001
370
               5
390
0
 62
               7
100
AcDbLine
 10
28.116279865425582
 20
72.242473399999938
 30
0.0
 11
27.423079865425507
 21
73.44307340000006
 31
0.0
  0
LINE
  5
2A6
100
AcDbEntity
  8
001
370
               5
390
0
 62
               7
100
AcDbLine
 10
28.116279865425582
 20
87.250193399999944
 30
0.0
 11
27.423079865425507
 21
86.049473399999954
 31
0.0
  0
ARC
  5
2A7
100
AcDbEntity
  8
001
370
               5
390
0
 62
               7
100
AcDbCircle
 10
37.923599865425473
 20
79.746273400000007
 30
0.0
 40
10.500496620103172
100
AcDbArc
 50
159.06498718906437
 51
200.93480895944901
  0
ARC
  5
2A8
100
AcDbEntity
  8
001
370
               5
390
0
 62
               7
100
AcDbCircle
 10
30.308199865425593
 20
74.118393400000002
 30
0.0
 40
2.884945929198742
100
AcDbArc
 50
139.44101282104896
 51
220.55786708774477
  0
ARC
  5
2A9
100
AcDbEntity
  8
001
370
               5
390
0
 62
               7
100
AcDbCircle
 10
30.308199865425593
 20
85.374193399999911
 30
0.0
 40
2.8849459291988904
100
AcDbArc
 50
139.44101282104552
 51
220.5589871789517
  0
LINE
  5
2AA
100
AcDbEntity
  8
001
370
               5
390
0
 62
               7
100
AcDbLine
 10
60.440479865425402
 20
-46.768206599999928
 30
0.0
 11
63.642199865425624
 21
-46.768206599999928
 31
0.0
  0
LINE
  5
2AB
100
AcDbEntity
  8
001
370
               5
390
0
 62
               7
100
AcDbLine
 10
93.897679865425431
 20
-6.2475265999999579
 30
0.0
 11
93.897679865425431
 21
-31.260326599999985
 31
0.0
  0
LINE
  5
2AC
100
AcDbEntity
  8
001
370
               5
390
0
 62
               7
100
AcDbLine
 10
57.839199865425371
 20
-7.74820660000006
 30
0.0
 11
57.839199865425371
 21
-32.761006599999916
 31
0.0
  0
LINE
  5
2AD
100
AcDbEntity
  8
001
370
               5
390
0
 62
               7
100
AcDbLine
 10
86.894079865425425
 20
-2.2454066000000239
 30
0.0
 11
86.894079865425425
 21
-6.2475265999999579
 31
0.0
  0
LINE
  5
2AE
100
AcDbEntity
  8
001
370
               5
390
0
 62
               7
100
AcDbLine
 10
82.891999865425589
 20
-2.2454066000000239
 30
0.0
 11
82.891999865425589
 21
-6.2475265999999579
 31
0.0
  0
LINE
  5
2AF
100
AcDbEntity
  8
001
370
               5
390
0
 62
               7
100
AcDbLine
 10
88.394799865425426
 20
1.256393399999979
 30
0.0
 11
88.394799865425426
 21
-2.2454066000000239
 31
0.0
  0
LINE
  5
2B0
100
AcDbEntity
  8
001
370
               5
390
0
 62
               7
100
AcDbLine
 10
81.391279865425588
 20
1.256393399999979
 30
0.0
 11
81.391279865425588
 21
-2.2454066000000239
 31
0.0
  0
LINE
  5
2B1
100
AcDbEntity
  8
001
370
               5
390
0
 62
               7
100
AcDbLine
 10
88.59859986542547
 20
-2.2454066000000239
 30
0.0
 11
81.589279865425539
 21
-2.2454066000000239
 31
0.0
  0
LINE
  5
2B2
100
AcDbEntity
  8
001
370
               5
390
0
 62
               7
100
AcDbLine
 10
93.897679865425431
 20
-6.2475265999999579
 30
0.0
 11
76.888999865425333
 21
-6.2475265999999579
 31
0.0
  0
ARC
  5
2B3
100
AcDbEntity
  8
001
370
               5
390
0
 62
               7
100
AcDbCircle
 10
76.388679865425416
 20
-5.4971266000000583
 30
0.0
 40
0.5003199999999168
100
AcDbArc
 50
0.0
 51
90.0
  0
LINE
  5
2B4
100
AcDbEntity
  8
001
370
               5
390
0
 62
               7
100
AcDbLine
 10
76.388679865425416
 20
-4.9968065999999567
 30
0.0
 11
63.642199865425624
 21
-4.9968065999999567
 31
0.0
  0
LINE
  5
2B5
100
AcDbEntity
  8
001
370
               5
390
0
 62
               7
100
AcDbLine
 10
77.377399865425517
 20
-33.65000660000004
 30
0.0
 11
91.896599865425429
 21
-33.308406599999955
 31
0.0
  0
LINE
  5
2B6
100
AcDbEntity
  8
001
370
               5
390
0
 62
               7
100
AcDbLine
 10
91.896599865425429
 20
-33.308326599999987
 30
0.0
 11
93.897679865425431
 21
-31.260326599999985
 31
0.0
  0
LINE
  5
2B7
100
AcDbEntity
  8
001
370
               5
390
0
 62
               7
100
AcDbLine
 10
76.888999865425333
 20
-5.4971266000000583
 30
0.0
 11
76.888999865425333
 21
-35.012206600000013
 31
0.0
  0
ARC
  5
2B8
100
AcDbEntity
  8
001
370
               5
390
0
 62
               7
100
AcDbCircle
 10
77.389199865425383
 20
-34.150206599999933
 30
0.0
 40
0.5003391649670149
100
AcDbArc
 50
91.35138908849251
 51
179.99083853869547
  0
ARC
  5
2B9
100
AcDbEntity
  8
001
370
               5
390
0
 62
               7
100
AcDbCircle
 10
76.388679865425416
 20
-35.012206600000013
 30
0.0
 40
0.5002000000000066
100
AcDbArc
 50
270.0
 51
0.0
  0
LINE
  5
2BA
100
AcDbEntity
  8
001
370
               5
390
0
 62
               7
100
AcDbLine
 10
76.388679865425416
 20
-35.51240660000002
 30
0.0
 11
63.642199865425624
 21
-35.51240660000002
 31
0.0
  0
LINE
  5
2BB
100
AcDbEntity
  8
001
370
               5
390
0
 62
               7
100
AcDbLine
 10
57.839199865425371
 20
-32.761006599999916
 30
0.0
 11
60.440479865425402
 21
-32.761006599999916
 31
0.0
  0
LINE
  5
2BC
100
AcDbEntity
  8
001
370
               5
390
0
 62
               7
100
AcDbLine
 10
57.839199865425371
 20
-7.74820660000006
 30
0.0
 11
60.440479865425402
 21
-7.74820660000006
 31
0.0
  0
LINE
  5
2BD
100
AcDbEntity
  8
001
370
               5
390
0
 62
               7
100
AcDbLine
 10
93.897679865425431
 20
-9.2490066000000297
 30
0.0
 11
91.896599865425429
 21
-7.2010065999999142
 31
0.0
  0
LINE
  5
2BE
100
AcDbEntity
  8
001
370
               5
390
0
 62
               7
100
AcDbLine
 10
88.895079865425629
 20
-6.2475265999999579
 30
0.0
 11
91.896599865425429
 21
-7.2010065999999142
 31
0.0
  0
LINE
  5
2BF
100
AcDbEntity
  8
001
370
               5
390
0
 62
               7
100
AcDbLine
 10
86.894079865425425
 20
-3.5461266000000364
 30
0.0
 11
82.891999865425589
 21
-3.5461266000000364
 31
0.0
  0
LINE
  5
2C0
100
AcDbEntity
  8
001
370
               5
390
0
 62
               7
100
AcDbLine
 10
86.493879865425384
 20
-6.2475265999999579
 30
0.0
 11
86.493879865425384
 21
-3.5461266000000364
 31
0.0
  0
LINE
  5
2C1
100
AcDbEntity
  8
001
370
               5
390
0
 62
               7
100
AcDbLine
 10
86.493879865425384
 20
-3.5461266000000364
 30
0.0
 11
86.894079865425425
 21
-2.8529265999999325
 31
0.0
  0
LINE
  5
2C2
100
AcDbEntity
  8
001
370
               5
390
0
 62
               7
100
AcDbLine
 10
83.29219986542563
 20
-3.5461266000000364
 30
0.0
 11
82.891999865425589
 21
-2.8529265999999325
 31
0.0
  0
LINE
  5
2C3
100
AcDbEntity
  8
001
370
               5
390
0
 62
               7
100
AcDbLine
 10
83.29219986542563
 20
-6.2475265999999579
 30
0.0
 11
83.29219986542563
 21
-3.5461266000000364
 31
0.0
  0
LINE
  5
2C4
100
AcDbEntity
  8
001
370
               5
390
0
  6
STYLE_13
 62
               7
100
AcDbLine
 10
84.892999865425423
 20
4.5645934000000352
 30
0.0
 11
84.892999865425423
 21
-14.760326599999985
 31
0.0
  0
LINE
  5
2C5
100
AcDbEntity
  8
001
370
               5
390
0
 62
               7
100
AcDbLine
 10
91.896599865425429
 20
-33.308406599999955
 30
0.0
 11
91.896599865425429
 21
-7.2009265999998888
 31
0.0
  0
LINE
  5
2C6
100
AcDbEntity
  8
001
370
               5
390
0
 62
               7
100
AcDbLine
 10
77.377399865425517
 20
-6.8593265999999744
 30
0.0
 11
91.896599865425429
 21
-7.2009265999998888
 31
0.0
  0
ARC
  5
2C7
100
AcDbEntity
  8
001
370
               5
390
0
 62
               7
100
AcDbCircle
 10
77.389199865425383
 20
-6.3591265999999678
 30
0.0
 40
0.5002000000000493
100
AcDbArc
 50
180.0
 51
268.64828675030441
  0
LINE
  5
2C8
100
AcDbEntity
  8
001
370
               5
390
0
 62
               7
100
AcDbLine
 10
57.839199865425371
 20
-14.50172659999987
 30
0.0
 11
54.328199865425319
 21
-14.50172659999987
 31
0.0
  0
LINE
  5
2C9
100
AcDbEntity
  8
001
370
               5
390
0
 62
               7
100
AcDbLine
 10
53.837199865425333
 20
-15.352126599999963
 30
0.0
 11
54.328199865425319
 21
-14.50172659999987
 31
0.0
  0
LINE
  5
2CA
100
AcDbEntity
  8
001
370
               5
390
0
 62
               7
100
AcDbLine
 10
53.837199865425333
 20
-15.352126599999963
 30
0.0
 11
53.837199865425333
 21
-25.157126599999913
 31
0.0
  0
LINE
  5
2CB
100
AcDbEntity
  8
001
370
               5
390
0
 62
               7
100
AcDbLine
 10
53.837199865425333
 20
-25.157126599999913
 30
0.0
 11
54.328199865425319
 21
-26.007606599999974
 31
0.0
  0
LINE
  5
2CC
100
AcDbEntity
  8
001
370
               5
390
0
 62
               7
100
AcDbLine
 10
57.839199865425371
 20
-26.007606599999974
 30
0.0
 11
54.328199865425319
 21
-26.007606599999974
 31
0.0
  0
ARC
  5
2CD
100
AcDbEntity
  8
001
370
               5
390
0
 62
               7
100
AcDbCircle
 10
56.498799865425497
 20
-24.569326600000011
 30
0.0
 40
2.6038286425954751
100
AcDbArc
 50
146.47227069186553
 51
213.52894920331545
  0
ARC
  5
2CE
100
AcDbEntity
  8
001
370
               5
390
0
 62
               7
100
AcDbCircle
 10
63.660799865425403
 20
-20.254606599999875
 30
0.0
 40
9.7658128038582053
100
AcDbArc
 50
162.87018233909768
 51
197.1305595887552
  0
LINE
  5
2CF
100
AcDbEntity
  8
001
370
               5
390
0
 62
               7
100
AcDbLine
 10
57.839199865425371
 20
-23.131126600000073
 30
0.0
 11
54.328199865425319
 21
-23.131126600000073
 31
0.0
  0
LINE
  5
2D0
100
AcDbEntity
  8
001
370
               5
390
0
 62
               7
100
AcDbLine
 10
57.839199865425371
 20
-17.378206599999999
 30
0.0
 11
54.328199865425319
 21
-17.378206599999999
 31
0.0
  0
ARC
  5
2D1
100
AcDbEntity
  8
001
370
               5
390
0
 62
               7
100
AcDbCircle
 10
56.498799865425497
 20
-15.939926600000035
 30
0.0
 40
2.6038286425956008
100
AcDbArc
 50
146.47227069186138
 51
213.52772930813444
  0
LINE
  5
2D2
100
AcDbEntity
  8
001
370
               5
390
0
 62
               7
100
AcDbLine
 10
71.646279865425498
 20
-35.428806599999916
 30
0.0
 11
68.884879865425361
 21
-35.51240660000002
 31
0.0
  0
LINE
  5
2D3
100
AcDbEntity
  8
001
370
               5
390
0
 62
               7
100
AcDbLine
 10
71.646279865425498
 20
-5.0805265999999278
 30
0.0
 11
68.884879865425361
 21
-4.9968065999999567
 31
0.0
  0
ARC
  5
2D4
100
AcDbEntity
  8
001
370
               5
390
0
 62
               7
100
AcDbCircle
 10
87.894599865425391
 20
1.256393399999979
 30
0.0
 40
0.5002000000000351
100
AcDbArc
 50
0.0
 51
90.0
  0
LINE
  5
2D5
100
AcDbEntity
  8
001
370
               5
390
0
 62
               7
100
AcDbLine
 10
81.891479865425623
 20
1.7565934000000425
 30
0.0
 11
87.894599865425391
 21
1.7565934000000425
 31
0.0
  0
ARC
  5
2D6
100
AcDbEntity
  8
001
370
               5
390
0
 62
               7
100
AcDbCircle
 10
81.891479865425623
 20
1.256393399999979
 30
0.0
 40
0.5002000000000635
100
AcDbArc
 50
90.0
 51
180.0
  0
LINE
  5
2D7
100
AcDbEntity
  8
001
370
               5
390
0
  6
STYLE_11
 62
               7
100
AcDbLine
 10
27.423079865425507
 20
86.049473399999954
 30
0.0
 11
27.423079865425507
 21
73.44307340000006
 31
0.0
  0
LINE
  5
2D8
100
AcDbEntity
  8
001
370
               5
390
0
 62
               7
100
AcDbLine
 10
-239.51972013457447
 20
-18.503726599999936
 30
0.0
 11
-240.3121201345744
 21
-18.503726599999936
 31
0.0
  0
LINE
  5
2D9
100
AcDbEntity
  8
001
370
               5
390
0
 62
               7
100
AcDbLine
 10
-239.5196001345746
 20
-18.503606600000069
 30
0.0
 11
-239.5196001345746
 21
-19.490806599999985
 31
0.0
  0
LINE
  5
2DA
100
AcDbEntity
  8
001
370
               5
390
0
 62
               7
100
AcDbLine
 10
-239.5196001345746
 20
-19.490806599999985
 30
0.0
 11
-239.11200013457454
 21
-19.89840659999993
 31
0.0
  0
LINE
  5
2DB
100
AcDbEntity
  8
001
370
               5
390
0
 62
               7
100
AcDbLine
 10
-238.20512013457443
 20
-19.898526599999968
 30
0.0
 11
-239.11192013457435
 21
-19.898526599999968
 31
0.0
  0
LINE
  5
2DC
100
AcDbEntity
  8
001
370
               5
390
0
 62
               7
100
AcDbLine
 10
-238.20512013457443
 20
-19.898526599999968
 30
0.0
 11
-238.20512013457443
 21
-20.690926600000068
 31
0.0
  0
LINE
  5
2DD
100
AcDbEntity
  8
001
370
               5
390
0
 62
               7
100
AcDbLine
 10
-238.20492013457437
 20
-20.690926600000068
 30
0.0
 11
-239.19212013457434
 21
-20.690926600000068
 31
0.0
  0
LINE
  5
2DE
100
AcDbEntity
  8
001
370
               5
390
0
 62
               7
100
AcDbLine
 10
-239.19212013457434
 20
-20.690926600000068
 30
0.0
 11
-239.5997201345744
 21
-21.098526599999957
 31
0.0
  0
LINE
  5
2DF
100
AcDbEntity
  8
001
370
               5
390
0
 62
               7
100
AcDbLine
 10
-239.59980013457459
 20
-22.005406600000072
 30
0.0
 11
-239.59980013457459
 21
-21.098606599999925
 31
0.0
  0
LINE
  5
2E0
100
AcDbEntity
  8
001
370
               5
390
0
 62
               7
100
AcDbLine
 10
-239.59980013457459
 20
-22.005526599999939
 30
0.0
 11
-240.39220013457447
 21
-22.005526599999939
 31
0.0
  0
LINE
  5
2E1
100
AcDbEntity
  8
001
370
               5
390
0
 62
               7
100
AcDbLine
 10
-240.39220013457447
 20
-22.005526599999939
 30
0.0
 11
-240.39220013457447
 21
-21.018406599999992
 31
0.0
  0
LINE
  5
2E2
100
AcDbEntity
  8
001
370
               5
390
0
 62
               7
100
AcDbLine
 10
-240.39220013457447
 20
-21.018406599999992
 30
0.0
 11
-240.79980013457458
 21
-20.610806599999876
 31
0.0
  0
LINE
  5
2E3
100
AcDbEntity
  8
001
370
               5
390
0
 62
               7
100
AcDbLine
 10
-241.70672013457437
 20
-20.610806599999876
 30
0.0
 11
-240.79992013457445
 21
-20.610806599999876
 31
0.0
  0
LINE
  5
2E4
100
AcDbEntity
  8
001
370
               5
390
0
 62
               7
100
AcDbLine
 10
-241.70680013457456
 20
-20.610806599999876
 30
0.0
 11
-241.70680013457456
 21
-19.818406600000003
 31
0.0
  0
LINE
  5
2E5
100
AcDbEntity
  8
001
370
               5
390
0
 62
               7
100
AcDbLine
 10
-241.70680013457456
 20
-19.818406600000003
 30
0.0
 11
-240.71972013457452
 21
-19.818406600000003
 31
0.0
  0
LINE
  5
2E6
100
AcDbEntity
  8
001
370
               5
390
0
 62
               7
100
AcDbLine
 10
-240.71972013457452
 20
-19.818326599999978
 30
0.0
 11
-240.3121201345744
 21
-19.410726599999919
 31
0.0
  0
LINE
  5
2E7
100
AcDbEntity
  8
001
370
               5
390
0
 62
               7
100
AcDbLine
 10
-240.3121201345744
 20
-18.503726599999936
 30
0.0
 11
-240.3121201345744
 21
-19.410606600000051
 31
0.0
  0
LINE
  5
2E8
100
AcDbEntity
  8
001
370
               5
390
0
 62
               7
100
AcDbLine
 10
-159.47880013457467
 20
-18.503726599999936
 30
0.0
 11
-160.27120013457454
 21
-18.503726599999936
 31
0.0
  0
LINE
  5
2E9
100
AcDbEntity
  8
001
370
               5
390
0
 62
               7
100
AcDbLine
 10
-159.47872013457447
 20
-18.503606600000069
 30
0.0
 11
-159.47872013457447
 21
-19.490806599999985
 31
0.0
  0
LINE
  5
2EA
100
AcDbEntity
  8
001
370
               5
390
0
 62
               7
100
AcDbLine
 10
-159.47872013457447
 20
-19.490806599999985
 30
0.0
 11
-159.07112013457441
 21
-19.89840659999993
 31
0.0
  0
LINE
  5
2EB
100
AcDbEntity
  8
001
370
               5
390
0
 62
               7
100
AcDbLine
 10
-158.16412013457443
 20
-19.898526599999968
 30
0.0
 11
-159.07092013457441
 21
-19.898526599999968
 31
0.0
  0
LINE
  5
2EC
100
AcDbEntity
  8
001
370
               5
390
0
 62
               7
100
AcDbLine
 10
-158.16412013457443
 20
-19.898526599999968
 30
0.0
 11
-158.16412013457443
 21
-20.690926600000068
 31
0.0
  0
LINE
  5
2ED
100
AcDbEntity
  8
001
370
               5
390
0
 62
               7
100
AcDbLine
 10
-158.16400013457456
 20
-20.690926600000068
 30
0.0
 11
-159.15112013457434
 21
-20.690926600000068
 31
0.0
  0
LINE
  5
2EE
100
AcDbEntity
  8
001
370
               5
390
0
 62
               7
100
AcDbLine
 10
-159.15112013457434
 20
-20.690926600000068
 30
0.0
 11
-159.5587201345744
 21
-21.098526599999957
 31
0.0
  0
LINE
  5
2EF
100
AcDbEntity
  8
001
370
               5
390
0
 62
               7
100
AcDbLine
 10
-159.5588001345746
 20
-22.005406600000072
 30
0.0
 11
-159.5588001345746
 21
-21.098606599999925
 31
0.0
  0
LINE
  5
2F0
100
AcDbEntity
  8
001
370
               5
390
0
 62
               7
100
AcDbLine
 10
-159.5588001345746
 20
-22.005526599999939
 30
0.0
 11
-160.35120013457447
 21
-22.005526599999939
 31
0.0
  0
LINE
  5
2F1
100
AcDbEntity
  8
001
370
               5
390
0
 62
               7
100
AcDbLine
 10
-160.35120013457447
 20
-22.005526599999939
 30
0.0
 11
-160.35120013457447
 21
-21.018406599999992
 31
0.0
  0
LINE
  5
2F2
100
AcDbEntity
  8
001
370
               5
390
0
 62
               7
100
AcDbLine
 10
-160.35120013457447
 20
-21.018406599999992
 30
0.0
 11
-160.75880013457459
 21
-20.610806599999876
 31
0.0
  0
LINE
  5
2F3
100
AcDbEntity
  8
001
370
               5
390
0
 62
               7
100
AcDbLine
 10
-161.66580013457457
 20
-20.610806599999876
 30
0.0
 11
-160.75892013457451
 21
-20.610806599999876
 31
0.0
  0
LINE
  5
2F4
100
AcDbEntity
  8
001
370
               5
390
0
 62
               7
100
AcDbLine
 10
-161.66592013457443
 20
-20.610806599999876
 30
0.0
 11
-161.66592013457443
 21
-19.818406600000003
 31
0.0
  0
LINE
  5
2F5
100
AcDbEntity
  8
001
370
               5
390
0
 62
               7
100
AcDbLine
 10
-161.66592013457443
 20
-19.818406600000003
 30
0.0
 11
-160.67880013457466
 21
-19.818406600000003
 31
0.0
  0
LINE
  5
2F6
100
AcDbEntity
  8
001
370
               5
390
0
 62
               7
100
AcDbLine
 10
-160.67880013457466
 20
-19.818326599999978
 30
0.0
 11
-160.27120013457454
 21
-19.410726599999919
 31
0.0
  0
LINE
  5
2F7
100
AcDbEntity
  8
001
370
               5
390
0
 62
               7
100
AcDbLine
 10
-160.27120013457454
 20
-18.503726599999936
 30
0.0
 11
-160.27120013457454
 21
-19.410606600000051
 31
0.0
  0
LINE
  5
2F8
100
AcDbEntity
  8
001
370
               5
390
0
 62
               7
100
AcDbLine
 10
-123.89660013457467
 20
-91.992526599999977
 30
0.0
 11
-123.89660013457467
 21
-94.292526599999974
 31
0.0
  0
LINE
  5
2F9
100
AcDbEntity
  8
001
370
               5
390
0
 62
               7
100
AcDbLine
 10
-130.90012013457454
 20
-91.992526599999977
 30
0.0
 11
-130.90012013457454
 21
-94.292526599999974
 31
0.0
  0
LINE
  5
2FA
100
AcDbEntity
  8
001
370
               5
390
0
 62
               7
100
AcDbLine
 10
116.40919986542545
 20
-91.691206599999873
 30
0.0
 11
116.40919986542545
 21
-94.292526599999974
 31
0.0
  0
LINE
  5
2FB
100
AcDbEntity
  8
001
370
               5
390
0
 62
               7
100
AcDbLine
 10
123.41279986542546
 20
-94.292526599999974
 30
0.0
 11
123.41279986542546
 21
-91.691206599999873
 31
0.0
  0
LINE
  5
2FC
100
AcDbEntity
  8
001
370
               5
390
0
 62
               7
100
AcDbLine
 10
176.4398798654253
 20
-94.292526599999974
 30
0.0
 11
176.4398798654253
 21
-91.691206599999873
 31
0.0
  0
LINE
  5
2FD
100
AcDbEntity
  8
001
370
               5
390
0
 62
               7
100
AcDbLine
 10
183.4434798654253
 20
-91.691206599999873
 30
0.0
 11
183.4434798654253
 21
-94.292526599999974
 31
0.0
  0
LINE
  5
2FE
100
AcDbEntity
  8
001
370
               5
390
0
 62
               7
100
AcDbLine
 10
71.646279865425498
 20
-20.254606599999875
 30
0.0
 11
68.884879865425361
 21
-21.84952659999999
 31
0.0
  0
LINE
  5
2FF
100
AcDbEntity
  8
001
370
               5
390
0
 62
               7
100
AcDbLine
 10
68.884879865425361
 20
-21.84952659999999
 30
0.0
 11
71.646279865425498
 21
-23.426926599999945
 31
0.0
  0
LINE
  5
300
100
AcDbEntity
  8
001
370
               5
390
0
 62
               7
100
AcDbLine
 10
71.646279865425498
 20
-23.427006599999913
 30
0.0
 11
68.884879865425361
 21
-24.96960660000002
 31
0.0
  0
LINE
  5
301
100
AcDbEntity
  8
001
370
               5
390
0
 62
               7
100
AcDbLine
 10
68.884879865425361
 20
-24.96960660000002
 30
0.0
 11
71.646279865425498
 21
-26.460526600000037
 31
0.0
  0
LINE
  5
302
100
AcDbEntity
  8
001
370
               5
390
0
 62
               7
100
AcDbLine
 10
71.646279865425498
 20
-26.460606600000006
 30
0.0
 11
68.884879865425361
 21
-27.883526599999982
 31
0.0
  0
LINE
  5
303
100
AcDbEntity
  8
001
370
               5
390
0
 62
               7
100
AcDbLine
 10
68.884879865425361
 20
-27.883526599999982
 30
0.0
 11
71.646279865425498
 21
-29.223006600000019
 31
0.0
  0
LINE
  5
304
100
AcDbEntity
  8
001
370
               5
390
0
 62
               7
100
AcDbLine
 10
71.646279865425498
 20
-29.222926600000051
 30
0.0
 11
68.884879865425361
 21
-30.464206600000011
 31
0.0
  0
LINE
  5
305
100
AcDbEntity
  8
001
370
               5
390
0
 62
               7
100
AcDbLine
 10
68.884879865425361
 20
-30.464126600000043
 30
0.0
 11
71.646279865425498
 21
-31.59340659999998
 31
0.0
  0
LINE
  5
306
100
AcDbEntity
  8
001
370
               5
390
0
 62
               7
100
AcDbLine
 10
71.646279865425498
 20
-31.593326600000012
 30
0.0
 11
68.884879865425361
 21
-32.598526599999957
 31
0.0
  0
LINE
  5
307
100
AcDbEntity
  8
001
370
               5
390
0
 62
               7
100
AcDbLine
 10
68.884879865425361
 20
-32.598526599999957
 30
0.0
 11
71.646279865425498
 21
-33.468326600000012
 31
0.0
  0
LINE
  5
308
100
AcDbEntity
  8
001
370
               5
390
0
 62
               7
100
AcDbLine
 10
71.646279865425498
 20
-33.468326600000012
 30
0.0
 11
68.884879865425361
 21
-34.193326599999978
 31
0.0
  0
LINE
  5
309
100
AcDbEntity
  8
001
370
               5
390
0
 62
               7
100
AcDbLine
 10
68.884879865425361
 20
-34.193406600000003
 30
0.0
 11
71.646279865425498
 21
-34.765726599999994
 31
0.0
  0
LINE
  5
30A
100
AcDbEntity
  8
001
370
               5
390
0
 62
               7
100
AcDbLine
 10
71.646279865425498
 20
-34.765726599999994
 30
0.0
 11
68.884879865425361
 21
-35.317206599999906
 31
0.0
  0
LINE
  5
30B
100
AcDbEntity
  8
001
370
               5
390
0
 62
               7
100
AcDbLine
 10
71.646279865425498
 20
-20.254606599999875
 30
0.0
 11
68.884879865425361
 21
-18.659806600000024
 31
0.0
  0
LINE
  5
30C
100
AcDbEntity
  8
001
370
               5
390
0
 62
               7
100
AcDbLine
 10
68.884879865425361
 20
-18.659726600000056
 30
0.0
 11
71.646279865425498
 21
-17.082326599999931
 31
0.0
  0
LINE
  5
30D
100
AcDbEntity
  8
001
370
               5
390
0
 62
               7
100
AcDbLine
 10
71.646279865425498
 20
-17.082326599999931
 30
0.0
 11
68.884879865425361
 21
-15.539726599999995
 31
0.0
  0
LINE
  5
30E
100
AcDbEntity
  8
001
370
               5
390
0
 62
               7
100
AcDbLine
 10
68.884879865425361
 20
-15.539726599999995
 30
0.0
 11
71.646279865425498
 21
-14.048806599999978
 31
0.0
  0
LINE
  5
30F
100
AcDbEntity
  8
001
370
               5
390
0
 62
               7
100
AcDbLine
 10
71.646279865425498
 20
-14.048726600000009
 30
0.0
 11
68.884879865425361
 21
-12.625726600000064
 31
0.0
  0
LINE
  5
310
100
AcDbEntity
  8
001
370
               5
390
0
 62
               7
100
AcDbLine
 10
68.884879865425361
 20
-12.625726600000064
 30
0.0
 11
71.646279865425498
 21
-11.286206599999957
 31
0.0
  0
LINE
  5
311
100
AcDbEntity
  8
001
370
               5
390
0
 62
               7
100
AcDbLine
 10
71.646279865425498
 20
-11.286406600000021
 30
0.0
 11
68.884879865425361
 21
-10.045126600000003
 31
0.0
  0
LINE
  5
312
100
AcDbEntity
  8
001
370
               5
390
0
 62
               7
100
AcDbLine
 10
68.884879865425361
 20
-10.045206599999972
 30
0.0
 11
71.646279865425498
 21
-8.9159266000000343
 31
0.0
  0
LINE
  5
313
100
AcDbEntity
  8
001
370
               5
390
0
 62
               7
100
AcDbLine
 10
71.646279865425498
 20
-8.9160066000000597
 30
0.0
 11
68.884879865425361
 21
-7.9108066000000576
 31
0.0
  0
LINE
  5
314
100
AcDbEntity
  8
001
370
               5
390
0
 62
               7
100
AcDbLine
 10
68.884879865425361
 20
-7.9108066000000576
 30
0.0
 11
71.646279865425498
 21
-7.0410066000000597
 31
0.0
  0
LINE
  5
315
100
AcDbEntity
  8
001
370
               5
390
0
 62
               7
100
AcDbLine
 10
71.646279865425498
 20
-7.0410066000000597
 30
0.0
 11
68.884879865425361
 21
-6.316006600000037
 31
0.0
  0
LINE
  5
316
100
AcDbEntity
  8
001
370
               5
390
0
 62
               7
100
AcDbLine
 10
68.884879865425361
 20
-6.3159266000000684
 30
0.0
 11
71.646279865425498
 21
-5.743606600000021
 31
0.0
  0
LINE
  5
317
100
AcDbEntity
  8
001
370
               5
390
0
 62
               7
100
AcDbLine
 10
71.646279865425498
 20
-5.743606600000021
 30
0.0
 11
68.884879865425361
 21
-5.1921265999999378
 31
0.0
  0
LINE
  5
318
100
AcDbEntity
  8
001
370
               5
390
0
 62
               7
100
AcDbLine
 10
68.884879865425361
 20
-5.1921265999999378
 30
0.0
 11
71.646279865425498
 21
-5.0805265999999278
 31
0.0
  0
LINE
  5
319
100
AcDbEntity
  8
001
370
               5
390
0
 62
               7
100
AcDbLine
 10
68.884879865425361
 20
-35.317206599999906
 30
0.0
 11
71.646279865425498
 21
-35.428806599999916
 31
0.0
  0
MTEXT
  5
31A
100
AcDbEntity
  8
001
390
0
 62
               7
100
AcDbMText
 10
0.161175278551223
 20
6.4413311144229182
 30
0.0
 40
8.7312499999999993
 41
0.0
 71
               1
 72
               1
  1
MIN. 30
  7
ＭＳ Ｐゴシック
 11
-0.0000000521540643
 21
0.9999999999999987
 31
0.0
 73
               1
 44
0.8762322015334064
  0
LINE
  5
31B
100
AcDbEntity
  8
001
370
               5
390
0
  6
STYLE_13
 62
               7
100
AcDbLine
 10
30.61639986542545
 20
79.746273400000007
 30
0.0
 11
90.060479865425492
 21
79.746273400000007
 31
0.0
  0
DIMENSION
  5
31C
100
AcDbEntity
  8
寸法
370
               5
390
0
  6
Continuous
 62
               7
100
AcDbDimension
  2
*D1
 10
-264.96880013457445
 20
105.0
 30
0.0
 11
-200.62020742522381
 21
105.05212
 31
0.0
 70
             128
 71
               5
 72
               1
 41
1.0
 42
0.0
  1
130
  3
中谷
100
AcDbAlignedDimension
 13
-134.90220013457434
 23
77.876073399999939
 33
0.0
 14
-264.96880013457445
 24
77.876073399999939
 34
0.0
100
AcDbRotatedDimension
1001
ACAD
1000
DSTYLE
1002
{
1070
             271
1070
               0
1070
             279
1070
               2
1070
             340
1005
3C
1070
              73
1070
               1
1070
              74
1070
               1
1070
             147
1040
0.05212
1002
}
  0
DIMENSION
  5
31D
100
AcDbEntity
  8
寸法
370
               5
390
0
  6
Continuous
 62
               7
100
AcDbDimension
  2
*D2
 10
-166.62000013457441
 20
99.306593399999997
 30
0.0
 11
-166.59000013457441
 21
30.882179837988346
 31
0.0
 70
             128
 71
               5
 72
               1
 41
1.0
 42
0.0
  3
中谷
100
AcDbAlignedDimension
 13
-168.6200001345743
 23
-20.254606599999875
 33
0.0
 14
-199.9355201345744
 24
99.306593399999997
 34
0.0
 50
90.0
100
AcDbRotatedDimension
1001
ACAD
1000
DSTYLE
1002
{
1070
             271
1070
               0
1070
             279
1070
               2
1070
             340
1005
3C
1070
             147
1040
0.03
1002
}
  0
MTEXT
  5
31E
100
AcDbEntity
  8
001
390
0
 62
               7
100
AcDbMText
 10
-339.62000013457441
 20
178.61272339999999
 30
0.0
 40
8.7312499999999993
 41
0.0
 71
               1
 72
               1
  1
ＣＭＳ-０２０シリーズ　外形図
  7
ＭＳ Ｐゴシック (bold)
 73
               1
 44
0.8762322015334064
  0
DIMENSION
  5
31F
100
AcDbEntity
  8
寸法
370
               5
390
0
  6
Continuous
 62
               7
100
AcDbDimension
  2
*D3
 10
-272.47260013457452
 20
-111.1185266
 30
0.0
 11
-199.9355001345746
 21
-111.1185266
 31
0.0
 71
               5
 72
               1
 41
1.0
 42
0.0
  3
中谷
100
AcDbAlignedDimension
 13
-127.39840013457467
 23
-101.1185266
 33
0.0
 14
-272.47260013457452
 24
-101.1185266
 34
0.0
100
AcDbRotatedDimension
1001
ACAD
1000
DSTYLE
1002
{
1070
             271
1070
               0
1070
             279
1070
               2
1070
             340
1005
3C
1070
             147
1040
0.03
1002
}
  0
DIMENSION
  5
320
100
AcDbEntity
  8
寸法
370
               5
390
0
  6
Continuous
 62
               7
100
AcDbDimension
  2
*D4
 10
-282.47772013457467
 20
-131.11852659999997
 30
0.0
 11
-199.9354601345747
 21
-131.11852659999997
 31
0.0
 71
               5
 72
               1
 41
1.0
 42
0.0
  3
中谷
100
AcDbAlignedDimension
 13
-117.39320013457473
 23
-94.292526599999974
 33
0.0
 14
-282.47772013457467
 24
-94.292526599999974
 34
0.0
100
AcDbRotatedDimension
1001
ACAD
1000
DSTYLE
1002
{
1070
             271
1070
               0
1070
             279
1070
               2
1070
             340
1005
3C
1070
             147
1040
0.03
1002
}
  0
DIMENSION
  5
321
100
AcDbEntity
  8
寸法
370
               5
390
0
  6
Continuous
 62
               7
100
AcDbDimension
  2
*D5
 10
-131.08288702229981
 20
-87.504539384919212
 30
0.0
 11
-97.620000134574042
 21
-124.87960712960954
 31
0.0
 70
               3
 71
               5
 72
               1
 41
1.0
 42
0.0
  1
4-φ7取付穴
  3
中谷
100
AcDbDiametricDimension
 15
-126.74711324684972
 25
-93.004673815079514
 35
0.0
 40
40.58796850253573
1001
ACAD
1000
DSTYLE
1002
{
1070
             172
1070
               0
1070
             289
1070
               0
1070
             342
1005
5C
1070
             340
1005
3C
1070
              73
1070
               1
1070
              74
1070
               1
1070
              75
1070
               1
1070
              76
1070
               1
1070
             174
1070
               0
1070
             147
1040
0.03
1002
}
  0
DIMENSION
  5
322
100
AcDbEntity
  8
寸法
370
               5
390
0
  6
Continuous
 62
               7
100
AcDbDimension
  2
*D6
 10
-110.62000013457472
 20
-94.292526599999974
 30
0.0
 11
-110.59000013457472
 21
-84.538006599999875
 31
0.0
 70
             128
 71
               5
 72
               1
 41
1.0
 42
0.0
  3
中谷
100
AcDbAlignedDimension
 13
-117.39320013457473
 23
-91.99120659999987
 33
0.0
 14
-117.39320013457473
 24
-94.292526599999974
 34
0.0
 50
90.0
100
AcDbRotatedDimension
1001
ACAD
1000
DSTYLE
1002
{
1070
             279
1070
               2
1070
             340
1005
3C
1070
             174
1070
               0
1070
             147
1040
0.03
1002
}
  0
DIMENSION
  5
323
100
AcDbEntity
  8
寸法
370
               5
390
0
  6
Continuous
 62
               7
100
AcDbDimension
  2
*D7
 10
-93.620000134574369
 20
-94.292526599999974
 30
0.0
 11
-93.590000134574368
 21
-55.118043660546796
 31
0.0
 70
             128
 71
               5
 72
               1
 41
1.0
 42
0.0
  3
中谷
100
AcDbAlignedDimension
 13
-134.90220013457434
 23
-20.254606599999875
 33
0.0
 14
-117.39320013457473
 24
-94.292526599999974
 34
0.0
 50
90.0
100
AcDbRotatedDimension
1001
ACAD
1000
DSTYLE
1002
{
1070
             271
1070
               0
1070
             279
1070
               2
1070
             340
1005
3C
1070
             147
1040
0.03
1002
}
  0
DIMENSION
  5
324
100
AcDbEntity
  8
寸法
370
               5
390
0
  6
Continuous
 62
               7
100
AcDbDimension
  2
*D8
 10
-73.620000134574354
 20
-94.292526599999974
 30
0.0
 11
-73.590000134574353
 21
-5.1175424935546658
 31
0.0
 70
             128
 71
               5
 72
               1
 41
1.0
 42
0.0
  3
中谷
100
AcDbAlignedDimension
 13
-137.60360013457466
 23
79.796593400000006
 33
0.0
 14
-117.39320013457473
 24
-94.292526599999974
 34
0.0
 50
90.0
100
AcDbRotatedDimension
1001
ACAD
1000
DSTYLE
1002
{
1070
             271
1070
               0
1070
             279
1070
               2
1070
             340
1005
3C
1070
             147
1040
0.03
1002
}
  0
DIMENSION
  5
325
100
AcDbEntity
  8
寸法
370
               5
390
0
  6
Continuous
 62
               7
100
AcDbDimension
  2
*D9
 10
73.314863479738818
 20
-28.975881431166613
 30
0.0
 11
46.379999865424246
 21
-90.118526599999498
 31
0.0
 70
               3
 71
               5
 72
               1
 41
1.0
 42
0.0
  1
歯数30枚
  3
中谷
100
AcDbDiametricDimension
 15
70.855136251112384
 25
-35.533331768833136
 35
0.0
 40
58.299011181742358
1001
ACAD
1000
DSTYLE
1002
{
1070
             172
1070
               0
1070
             289
1070
               0
1070
             342
1005
5C
1070
             340
1005
3C
1070
              73
1070
               1
1070
              74
1070
               1
1070
              75
1070
               1
1070
              76
1070
               1
1070
             174
1070
               0
1070
             147
1040
0.03
1002
}
  0
DIMENSION
  5
326
100
AcDbEntity
  8
寸法
370
               5
390
0
  6
Continuous
 62
               7
100
AcDbDimension
  2
*D10
 10
109.90579986542548
 20
-131.11852659999997
 30
0.0
 11
149.92629986542548
 21
-131.11852659999997
 31
0.0
 71
               5
 72
               1
 41
1.0
 42
0.0
  3
中谷
100
AcDbAlignedDimension
 13
189.94679986542548
 23
-94.292526599999974
 33
0.0
 14
109.90579986542548
 24
-94.292526599999974
 34
0.0
100
AcDbRotatedDimension
1001
ACAD
1000
DSTYLE
1002
{
1070
             271
1070
               0
1070
             279
1070
               2
1070
             340
1005
3C
1070
             147
1040
0.03
1002
}
  0
DIMENSION
  5
327
100
AcDbEntity
  8
寸法
370
               5
390
0
  6
Continuous
 62
               7
100
AcDbDimension
  2
*D11
 10
109.90579986542548
 20
-111.1185266
 30
0.0
 11
109.37987986542548
 21
-111.08852659999999
 31
0.0
 70
             128
 71
               5
 72
               1
 41
1.0
 42
0.0
  3
中谷
100
AcDbAlignedDimension
 13
119.91099986542545
 23
-100.89500659999999
 33
0.0
 14
109.90579986542548
 24
-95.118526599999996
 34
0.0
100
AcDbRotatedDimension
1001
ACAD
1000
DSTYLE
1002
{
1070
             271
1070
               0
1070
             279
1070
               2
1070
             340
1005
3C
1070
             174
1070
               0
1070
             147
1040
0.03
1002
}
  0
DIMENSION
  5
328
100
AcDbEntity
  8
寸法
370
               5
390
0
  6
Continuous
 62
               7
100
AcDbDimension
  2
*D12
 10
119.91099986542545
 20
-111.1185266
 30
0.0
 11
149.92633986542538
 21
-111.1185266
 31
0.0
 71
               5
 72
               1
 41
1.0
 42
0.0
  1
60
  3
中谷
100
AcDbAlignedDimension
 13
179.9416798654253
 23
-101.1185266
 33
0.0
 14
119.91099986542545
 24
-101.1185266
 34
0.0
100
AcDbRotatedDimension
1001
ACAD
1000
DSTYLE
1002
{
1070
             271
1070
               0
1070
             279
1070
               2
1070
             340
1005
3C
1070
              73
1070
               1
1070
              74
1070
               1
1070
             147
1040
0.03
1002
}
  0
DIMENSION
  5
329
100
AcDbEntity
  8
寸法
370
               5
390
0
  6
Continuous
 62
               7
100
AcDbDimension
  2
*D13
 10
179.9416798654253
 20
-111.11852659999997
 30
0.0
 11
199.37999986542548
 21
-111.08852659999997
 31
0.0
 70
             128
 71
               5
 72
               1
 41
1.0
 42
0.0
  3
中谷
100
AcDbAlignedDimension
 13
189.94679986542548
 23
-94.292526599999974
 33
0.0
 14
179.9416798654253
 24
-100.06900659999997
 34
0.0
100
AcDbRotatedDimension
1001
ACAD
1000
DSTYLE
1002
{
1070
             271
1070
               0
1070
             279
1070
               2
1070
             340
1005
3C
1070
             174
1070
               0
1070
             147
1040
0.03
1002
}
  0
DIMENSION
  5
32A
100
AcDbEntity
  8
寸法
370
               5
390
0
  6
Continuous
 62
               7
100
AcDbDimension
  2
*D14
 10
157.3799998654253
 20
51.782193399999983
 30
0.0
 11
157.40999986542531
 21
-7.119334778710936
 31
0.0
 70
             128
 71
               5
 72
               1
 41
1.0
 42
0.0
  3
中谷
100
AcDbAlignedDimension
 13
151.3799998654253
 23
-94.292526599999974
 33
0.0
 14
151.3799998654253
 24
51.782193399999983
 34
0.0
 50
90.0
100
AcDbRotatedDimension
1001
ACAD
1000
DSTYLE
1002
{
1070
             271
1070
               0
1070
             279
1070
               2
1070
             340
1005
3C
1070
             147
1040
0.03
1002
}
  0
DIMENSION
  5
32B
100
AcDbEntity
  8
寸法
370
               5
390
0
  6
Continuous
 62
               7
100
AcDbDimension
  2
*D15
 10
95.898679865425635
 20
101.13907357259374
 30
0.0
 11
118.44188003801941
 21
101.16907357259375
 31
0.0
 70
             128
 71
               5
 72
               1
 41
1.0
 42
0.0
  3
中谷
100
AcDbAlignedDimension
 13
133.91807986542557
 23
88.881473399999948
 33
0.0
 14
95.898679865425635
 24
78.595873399999959
 34
0.0
100
AcDbRotatedDimension
1001
ACAD
1000
DSTYLE
1002
{
1070
             271
1070
               0
1070
             279
1070
               2
1070
             340
1005
3C
1070
             147
1040
0.03
1002
}
  0
DIMENSION
  5
32C
100
AcDbEntity
  8
寸法
370
               5
390
0
  6
Continuous
 62
               7
100
AcDbDimension
  2
*D16
 10
130.3799998654253
 20
41.881473399999948
 30
0.0
 11
154.62109321233646
 21
100.88141203259764
 31
0.0
 70
               3
 71
               5
 72
               1
 41
1.0
 42
0.0
  1
2-φ21電線口×2ヶ
  3
中谷
100
AcDbDiametricDimension
 15
137.1945998654254
 25
61.745073400000024
 35
0.0
 40
41.375399999999999
1001
ACAD
1000
DSTYLE
1002
{
1070
             172
1070
               0
1070
             289
1070
               0
1070
             342
1005
5C
1070
             340
1005
3C
1070
              73
1070
               1
1070
              74
1070
               1
1070
              75
1070
               1
1070
              76
1070
               1
1070
             174
1070
               0
1070
             147
1040
0.05
1002
}
  0
DIMENSION
  5
32D
100
AcDbEntity
  8
寸法
370
               5
390
0
  6
Continuous
 62
               7
100
AcDbDimension
  2
*D17
 10
95.898679865425635
 20
116.88147339999996
 30
0.0
 11
178.94117986542557
 21
116.88147339999996
 31
0.0
 71
               5
 72
               1
 41
1.0
 42
0.0
  3
中谷
100
AcDbAlignedDimension
 13
261.98367986542553
 23
59.944273400000043
 33
0.0
 14
95.898679865425635
 24
78.595873399999959
 34
0.0
100
AcDbRotatedDimension
1001
ACAD
1000
DSTYLE
1002
{
1070
             271
1070
               0
1070
             279
1070
               2
1070
             340
1005
3C
1070
             147
1040
0.03
1002
}
  0
DIMENSION
  5
32E
100
AcDbEntity
  8
寸法
370
               5
390
0
  6
Continuous
 62
               7
100
AcDbDimension
  2
*D18
 10
60.440479865425402
 20
116.88147340000005
 30
0.0
 11
78.169579865425519
 21
116.88147340000005
 31
0.0
 71
               5
 72
               1
 41
1.0
 42
0.0
  3
中谷
100
AcDbAlignedDimension
 13
95.898679865425635
 23
78.595873399999959
 33
0.0
 14
60.440479865425402
 24
99.067673400000047
 34
0.0
100
AcDbRotatedDimension
1001
ACAD
1000
DSTYLE
1002
{
1070
             271
1070
               0
1070
             279
1070
               2
1070
             340
1005
3C
1070
             147
1040
0.03
1002
}
  0
DIMENSION
  5
32F
100
AcDbEntity
  8
寸法
370
               5
390
0
  6
Continuous
 62
               7
100
AcDbDimension
  2
*D19
 10
51.935679865425527
 20
116.88151340000005
 30
0.0
 11
47.379999865425681
 21
116.91151340000005
 31
0.0
 70
             128
 71
               5
 72
               1
 41
1.0
 42
0.0
  3
中谷
100
AcDbAlignedDimension
 13
60.440479865425402
 23
99.278393400000084
 33
0.0
 14
51.935679865425527
 24
64.933873400000095
 34
0.0
100
AcDbRotatedDimension
1001
ACAD
1000
DSTYLE
1002
{
1070
             271
1070
               0
1070
             279
1070
               2
1070
             340
1005
3C
1070
             174
1070
               0
1070
             147
1040
0.03
1002
}
  0
DIMENSION
  5
330
100
AcDbEntity
  8
寸法
370
               5
390
0
  6
Continuous
 62
               7
100
AcDbDimension
  2
*D20
 10
27.423079865425507
 20
136.88151340000007
 30
0.0
 11
144.70337986542552
 21
136.88151340000007
 31
0.0
 71
               5
 72
               1
 41
1.0
 42
0.0
  3
中谷
100
AcDbAlignedDimension
 13
261.98367986542553
 23
59.944273400000043
 33
0.0
 14
27.423079865425507
 24
66.089473399999974
 34
0.0
100
AcDbRotatedDimension
1001
ACAD
1000
DSTYLE
1002
{
1070
             271
1070
               0
1070
             279
1070
               2
1070
             340
1005
3C
1070
             147
1040
0.03
1002
}
  0
DIMENSION
  5
331
100
AcDbEntity
  8
寸法
370
               5
390
0
  6
Continuous
 62
               7
100
AcDbDimension
  2
*D21
 10
-3.6200001345743331
 20
-20.254606599999875
 30
0.0
 11
-3.6200001345743331
 21
29.745833400000066
 31
0.0
 71
               5
 72
               1
 41
1.0
 42
0.0
  3
中谷
100
AcDbAlignedDimension
 13
30.61639986542545
 23
79.746273400000007
 33
0.0
 14
51.379999865425305
 24
-20.254606599999875
 34
0.0
 50
90.0
100
AcDbRotatedDimension
1001
ACAD
1000
DSTYLE
1002
{
1070
             279
1070
               2
1070
             340
1005
3C
1070
               3
1000
MAX.<>
1070
             147
1040
0.03
1002
}
  0
DIMENSION
  5
332
100
AcDbEntity
  8
寸法
370
               5
390
0
  6
Continuous
 62
               7
100
AcDbDimension
  2
*D22
 10
51.973982757791276
 20
83.418905619314444
 30
0.0
 11
44.379999865424956
 21
37.841498342112011
 31
0.0
 70
               3
 71
               5
 72
               1
 41
1.0
 42
0.0
  1
8.2
  3
中谷
100
AcDbDiametricDimension
 15
51.329376973058658
 25
75.244281180672374
 35
0.0
 40
37.51888843491421
1001
ACAD
1000
DSTYLE
1002
{
1070
             172
1070
               0
1070
             289
1070
               0
1070
             342
1005
5C
1070
             340
1005
3C
1070
              73
1070
               1
1070
              74
1070
               1
1070
              75
1070
               1
1070
              76
1070
               1
1070
             174
1070
               0
1070
             147
1040
0.05
1002
}
  0
MTEXT
  5
333
100
AcDbEntity
  8
001
390
0
 62
               7
100
AcDbMText
 10
-216.92320013457464
 20
-3.6832765999999317
 30
0.0
 40
8.7312499999999993
 41
0.0
 71
               1
 72
               1
  1
O
  7
ＭＳ Ｐゴシック
 73
               1
 44
0.8762322015334064
  0
MTEXT
  5
334
100
AcDbEntity
  8
001
390
0
 62
               7
100
AcDbMText
 10
-186.90780013457436
 20
-3.6832765999999317
 30
0.0
 40
8.7312499999999993
 41
0.0
 71
               1
 72
               1
  1
S
  7
ＭＳ Ｐゴシック
 73
               1
 44
0.8762322015334064
  0
DIMENSION
  5
335
100
AcDbEntity
  8
寸法
370
               5
390
0
  6
Continuous
 62
               7
100
AcDbDimension
  2
*D23
 10
95.898679865425635
 20
-131.1185266
 30
0.0
 11
103.8986798829345
 21
-131.08852659999999
 31
0.0
 70
             128
 71
               5
 72
               1
 41
1.0
 42
0.0
  3
中谷
100
AcDbAlignedDimension
 13
109.90579986542548
 23
-94.292526599999974
 33
0.0
 14
95.898679865425635
 24
-86.118526585098834
 34
0.0
100
AcDbRotatedDimension
1001
ACAD
1000
DSTYLE
1002
{
1070
             271
1070
               0
1070
             279
1070
               2
1070
             340
1005
3C
1070
             147
1040
0.03
1002
}
  0
LINE
  5
336
100
AcDbEntity
  8
001
370
               5
390
0
 62
               7
100
AcDbLine
 10
-282.47772013457467
 20
-91.992526599999977
 30
0.0
 11
-282.47772013457467
 21
-94.292526599999974
 31
0.0
  0
LINE
  5
337
100
AcDbEntity
  8
001
370
               5
390
0
 62
               7
100
AcDbLine
 10
-268.97080013457452
 20
-91.992526599999977
 30
0.0
 11
-268.97080013457452
 21
-94.292526599999974
 31
0.0
  0
LINE
  5
338
100
AcDbEntity
  8
001
370
               5
390
0
 62
               7
100
AcDbLine
 10
-275.97440013457452
 20
-91.992526599999977
 30
0.0
 11
-275.97440013457452
 21
-94.292526599999974
 31
0.0
  0
LINE
  5
339
100
AcDbEntity
  8
一般
370
               5
390
0
  6
STYLE_01
 62
               7
100
AcDbLine
 10
-264.96880013457445
 20
125.79659340000001
 30
0.0
 11
-264.96880013457445
 21
79.796593400000006
 31
0.0
  0
LINE
  5
33A
100
AcDbEntity
  8
一般
370
               5
390
0
  6
STYLE_01
 62
               7
100
AcDbLine
 10
-134.90220013457434
 20
125.79659340000001
 30
0.0
 11
-134.90220013457434
 21
79.796593400000006
 31
0.0
  0
MTEXT
  5
33B
100
AcDbEntity
  8
一般
390
0
 62
               7
100
AcDbMText
 10
-199.9354601345745
 20
134.09267673333335
 30
0.0
 40
6.790972222222222
 41
0.0
 71
               2
 72
               1
  1
電々ポジショナ付
  7
ＭＳ Ｐゴシック
 73
               1
 44
0.8762322015334064
  0
POLYLINE
  5
33C
100
AcDbEntity
  8
一般
370
               5
390
0
  6
STYLE_01
 62
               7
100
AcDb2dPolyline
 66
               1
 10
0.0
 20
0.0
 30
0.0
 70
               1
 75
               5
  0
VERTEX
  5
33D
100
AcDbEntity
  8
一般
370
               5
390
0
  6
STYLE_01
 62
               7
100
AcDbVertex
100
AcDb2dVertex
 10
93.86541986542548
 20
135.79659340000001
 30
0.0
  0
VERTEX
  5
33E
100
AcDbEntity
  8
一般
370
               5
390
0
  6
STYLE_01
 62
               7
100
AcDbVertex
100
AcDb2dVertex
 10
257.86541986542545
 20
135.79659340000001
 30
0.0
  0
VERTEX
  5
33F
100
AcDbEntity
  8
一般
370
               5
390
0
  6
STYLE_01
 62
               7
100
AcDbVertex
100
AcDb2dVertex
 10
257.86541986542545
 20
125.79659340000001
 30
0.0
  0
VERTEX
  5
340
100
AcDbEntity
  8
一般
370
               5
390
0
  6
STYLE_01
 62
               7
100
AcDbVertex
100
AcDb2dVertex
 10
93.86541986542548
 20
125.79659340000001
 30
0.0
  0
SEQEND
  5
341
100
AcDbEntity
  8
一般
370
               5
390
0
  6
STYLE_01
 62
               7
  0
LINE
  5
342
100
AcDbEntity
  8
一般
370
               5
390
0
  6
STYLE_01
 62
               7
100
AcDbLine
 10
255.89867986542561
 20
125.79659340000001
 30
0.0
 11
255.89867986542561
 21
70.796593400000006
 31
0.0
  0
LINE
  5
343
100
AcDbEntity
  8
一般
370
               5
390
0
  6
STYLE_01
 62
               7
100
AcDbLine
 10
95.898679865425635
 20
125.79659340000001
 30
0.0
 11
95.898679865425635
 21
79.796593400000006
 31
0.0
  0
LINE
  5
344
100
AcDbEntity
  8
一般
370
               5
390
0
  6
STYLE_01
 62
               7
100
AcDbLine
 10
171.9375998654254
 20
70.792473400000006
 30
0.0
 11
255.89867986542561
 21
70.796593400000006
 31
0.0
  0
DIMENSION
  5
345
100
AcDbEntity
  8
寸法
370
               5
390
0
  6
Continuous
 62
               7
100
AcDbDimension
  2
*D24
 10
-73.620000134574354
 20
79.796473400000082
 30
0.0
 11
-73.590000134574353
 21
108.4818376028809
 31
0.0
 70
             128
 71
               5
 72
               1
 41
1.0
 42
0.0
  3
中谷
100
AcDbAlignedDimension
 13
-132.9354601345745
 23
135.79659340000001
 33
0.0
 14
-136.10280013457447
 24
79.796473400000082
 34
0.0
 50
90.0
100
AcDbRotatedDimension
1001
ACAD
1000
DSTYLE
1002
{
1070
             271
1070
               0
1070
             279
1070
               2
1070
             340
1005
3C
1070
             147
1040
0.03
1002
}
  0
ENDSEC
  0
SECTION
  2
OBJECTS
  0
DICTIONARY
  5
19
100
AcDbDictionary
280
               0
281
               1
  3
ACAD_GROUP
350
1A
  3
ACAD_MLINESTYLE
350
1B
  3
ACAD_LAYOUT
350
1E
  3
ACAD_PLOTSETTINGS
350
22
  3
ACAD_PLOTSTYLENAME
350
1F
  3
ACAD_WIPEOUT_VARS
350
23
  0
DICTIONARY
  5
1A
102
{ACAD_REACTORS
330
19
102
}
100
AcDbDictionary
280
               0
281
               1
  0
DICTIONARY
  5
1B
102
{ACAD_REACTORS
330
19
102
}
100
AcDbDictionary
280
               0
281
               1
  3
Standard
350
1C
  0
MLINESTYLE
  5
1C
102
{ACAD_REACTORS
330
1B
102
}
100
AcDbMlineStyle
  2
Standard
 70
               0
  3

 62
               0
 51
90.0
 52
90.0
 71
               2
 49
0.5
 62
             256
  6
ByLayer
 49
-0.5
 62
             256
  6
ByLayer
  0
ACDBDICTIONARYWDFLT
  5
1F
102
{ACAD_REACTORS
330
19
102
}
100
AcDbDictionary
281
               1
  3
Normal
350
1D
100
AcDbDictionaryWithDefault
340
1D
  0
ACDBPLACEHOLDER
  5
1D
102
{ACAD_REACTORS
330
1F
102
}
  0
LAYOUT
  5
20
102
{ACAD_REACTORS
330
1E
102
}
100
AcDbPlotSettings
  1

  2

  4

  6

 40
0.0
 41
0.0
 42
0.0
 43
0.0
 44
0.0
 45
0.0
 46
0.0
 47
0.0
 48
0.0
 49
0.0
140
0.0
141
0.0
142
1.0
143
1.0
 70
            1024
 72
               0
 73
               0
 74
               0
  7

 75
               0
147
1.0
148
0.0
149
0.0
100
AcDbLayout
  1
Model
 70
               0
 71
               0
 10
0.0
 20
0.0
 11
0.0
 21
0.0
 12
0.0
 22
0.0
 32
0.0
 14
0.0
 24
0.0
 34
0.0
 15
0.0
 25
0.0
 35
0.0
146
0.0
 13
0.0
 23
0.0
 33
0.0
 16
0.0
 26
0.0
 36
0.0
 17
0.0
 27
0.0
 37
0.0
 76
               0
330
A
331
0
345
0
346
0
  0
LAYOUT
  5
21
102
{ACAD_REACTORS
330
1E
102
}
100
AcDbPlotSettings
  1

  2

  4

  6

 40
0.0
 41
0.0
 42
0.0
 43
0.0
 44
0.0
 45
0.0
 46
0.0
 47
0.0
 48
0.0
 49
0.0
140
0.0
141
0.0
142
1.0
143
1.0
 70
               0
 72
               0
 73
               0
 74
               0
  7

 75
               0
147
1.0
148
0.0
149
0.0
100
AcDbLayout
  1
Layout1
 70
               0
 71
               0
 10
0.0
 20
0.0
 11
0.0
 21
0.0
 12
0.0
 22
0.0
 32
0.0
 14
0.0
 24
0.0
 34
0.0
 15
0.0
 25
0.0
 35
0.0
146
0.0
 13
0.0
 23
0.0
 33
0.0
 16
0.0
 26
0.0
 36
0.0
 17
0.0
 27
0.0
 37
0.0
 76
               0
330
B
331
0
345
0
346
0
  0
DICTIONARY
  5
1E
102
{ACAD_REACTORS
330
19
102
}
100
AcDbDictionary
280
               0
281
               1
  3
Layout1
350
21
  3
Model
350
20
  0
DICTIONARY
  5
22
102
{ACAD_REACTORS
330
19
102
}
100
AcDbDictionary
280
               0
281
               1
  0
WIPEOUTVARIABLES
  5
23
100
AcDbWipeoutVariables
 70
               0
  0
ENDSEC
  0
EOF
