  0
SECTION
  2
HEADER
  9
$ACADVER
  1
AC1015
  9
$ACADMAINTVER
 70
               6
  9
$DWGCODEPAGE
  3
ANSI_932
  9
$INSBASE
 10
0.0
 20
0.0
 30
0.0
  9
$EXTMIN
 10
-309.0
 20
-134.86392000000009
 30
0.0
  9
$EXTMAX
 10
423.52000215318469
 20
191.05807999999988
 30
0.0
  9
$LIMMIN
 10
0.0
 20
0.0
  9
$LIMMAX
 10
0.0
 20
0.0
  9
$ORTHOMODE
 70
               0
  9
$REGENMODE
 70
               1
  9
$FILLMODE
 70
               1
  9
$QTEXTMODE
 70
               0
  9
$MIRRTEXT
 70
               1
  9
$LTSCALE
 40
50.799999999999997
  9
$ATTMODE
 70
               1
  9
$TEXTSIZE
 40
0.2
  9
$TRACEWID
 40
1.0
  9
$TEXTSTYLE
  7
Standard
  9
$CLAYER
  8
一般
  9
$CELTYPE
  6
Continuous
  9
$CECOLOR
 62
             256
  9
$CELTSCALE
 40
1.0
  9
$DISPSILH
 70
               0
  9
$DIMSCALE
 40
1.0
  9
$DIMASZ
 40
6.0027343749999993
  9
$DIMEXO
 40
3.9999999999999996
  9
$DIMDLI
 40
7.0
  9
$DIMRND
 40
0.0
  9
$DIMDLE
 40
0.0
  9
$DIMEXE
 40
3.9999999999999996
  9
$DIMTP
 40
0.0
  9
$DIMTM
 40
0.0
  9
$DIMTXT
 40
8.7312499999999993
  9
$DIMCEN
 40
0.0
  9
$DIMTSZ
 40
0.0
  9
$DIMTOL
 70
               0
  9
$DIMLIM
 70
               0
  9
$DIMTIH
 70
               0
  9
$DIMTOH
 70
               0
  9
$DIMSE1
 70
               0
  9
$DIMSE2
 70
               0
  9
$DIMTAD
 70
               1
  9
$DIMZIN
 70
              11
  9
$DIMBLK
  1
VW_FILLEDARROW
  9
$DIMASO
 70
               1
  9
$DIMSHO
 70
               1
  9
$DIMPOST
  1
<>
  9
$DIMAPOST
  1
[]
  9
$DIMALT
 70
               0
  9
$DIMALTD
 70
               2
  9
$DIMALTF
 40
1.0
  9
$DIMLFAC
 40
1.0
  9
$DIMTOFL
 70
               1
  9
$DIMTVP
 40
0.0
  9
$DIMTIX
 70
               1
  9
$DIMSOXD
 70
               0
  9
$DIMSAH
 70
               0
  9
$DIMBLK1
  1

  9
$DIMBLK2
  1

  9
$DIMSTYLE
  2
中谷
  9
$DIMCLRD
 70
               0
  9
$DIMCLRE
 70
               0
  9
$DIMCLRT
 70
               0
  9
$DIMTFAC
 40
1.0
  9
$DIMGAP
 40
0.0099999999627471
  9
$DIMJUST
 70
               0
  9
$DIMSD1
 70
               0
  9
$DIMSD2
 70
               0
  9
$DIMTOLJ
 70
               1
  9
$DIMTZIN
 70
              11
  9
$DIMALTZ
 70
              11
  9
$DIMALTTZ
 70
              11
  9
$DIMUPT
 70
               0
  9
$DIMDEC
 70
               2
  9
$DIMTDEC
 70
               2
  9
$DIMALTU
 70
               2
  9
$DIMALTTD
 70
               2
  9
$DIMTXSTY
  7
ＭＳ Ｐゴシック
  9
$DIMAUNIT
 70
               0
  9
$DIMADEC
 70
               0
  9
$DIMALTRND
 40
0.0
  9
$DIMAZIN
 70
               0
  9
$DIMDSEP
 70
              46
  9
$DIMATFIT
 70
               0
  9
$DIMFRAC
 70
               2
  9
$DIMLDRBLK
  1

  9
$DIMLUNIT
 70
               2
  9
$DIMLWD
 70
              -2
  9
$DIMLWE
 70
              -2
  9
$DIMTMOVE
 70
               0
  9
$LUNITS
 70
               2
  9
$LUPREC
 70
               4
  9
$SKETCHINC
 40
0.1
  9
$FILLETRAD
 40
0.0
  9
$AUNITS
 70
               0
  9
$AUPREC
 70
               0
  9
$MENU
  1
acad
  9
$ELEVATION
 40
0.0
  9
$PELEVATION
 40
0.0
  9
$THICKNESS
 40
0.0
  9
$LIMCHECK
 70
               0
  9
$CHAMFERA
 40
0.0
  9
$CHAMFERB
 40
0.0
  9
$CHAMFERC
 40
0.0
  9
$CHAMFERD
 40
0.0
  9
$SKPOLY
 70
               0
  9
$TDCREATE
 40
2454365.679641204
  9
$TDUCREATE
 40
0.000000000
  9
$TDUPDATE
 40
2454365.679641204
  9
$TDUUPDATE
 40
0.000000000
  9
$TDINDWG
 40
0.0000000000
  9
$TDUSRTIMER
 40
0.0000000000
  9
$USRTIMER
 70
               1
  9
$ANGBASE
 50
0.0
  9
$ANGDIR
 70
               0
  9
$PDMODE
 70
               1
  9
$PDSIZE
 40
-2.0
  9
$PLINEWID
 40
0.0
  9
$SPLFRAME
 70
               0
  9
$SPLINETYPE
 70
               6
  9
$SPLINESEGS
 70
               8
  9
$HANDSEED
  5
3D5
  9
$SURFTAB1
 70
               6
  9
$SURFTAB2
 70
               6
  9
$SURFTYPE
 70
               6
  9
$SURFU
 70
               6
  9
$SURFV
 70
               6
  9
$UCSBASE
  2

  9
$UCSNAME
  2

  9
$UCSORG
 10
0.0
 20
0.0
 30
0.0
  9
$UCSXDIR
 10
1.0
 20
0.0
 30
0.0
  9
$UCSYDIR
 10
0.0
 20
1.0
 30
0.0
  9
$UCSORTHOREF
  2

  9
$UCSORTHOVIEW
 70
               0
  9
$UCSORGTOP
 10
0.0
 20
0.0
 30
0.0
  9
$UCSORGBOTTOM
 10
0.0
 20
0.0
 30
0.0
  9
$UCSORGLEFT
 10
0.0
 20
0.0
 30
0.0
  9
$UCSORGRIGHT
 10
0.0
 20
0.0
 30
0.0
  9
$UCSORGFRONT
 10
0.0
 20
0.0
 30
0.0
  9
$UCSORGBACK
 10
0.0
 20
0.0
 30
0.0
  9
$PUCSBASE
  2

  9
$PUCSNAME
  2

  9
$PUCSORG
 10
0.0
 20
0.0
 30
0.0
  9
$PUCSXDIR
 10
1.0
 20
0.0
 30
0.0
  9
$PUCSYDIR
 10
0.0
 20
1.0
 30
0.0
  9
$PUCSORTHOREF
  2

  9
$PUCSORTHOVIEW
 70
               0
  9
$PUCSORGTOP
 10
0.0
 20
0.0
 30
0.0
  9
$PUCSORGBOTTOM
 10
0.0
 20
0.0
 30
0.0
  9
$PUCSORGLEFT
 10
0.0
 20
0.0
 30
0.0
  9
$PUCSORGRIGHT
 10
0.0
 20
0.0
 30
0.0
  9
$PUCSORGFRONT
 10
0.0
 20
0.0
 30
0.0
  9
$PUCSORGBACK
 10
0.0
 20
0.0
 30
0.0
  9
$USERI1
 70
               0
  9
$USERI2
 70
               0
  9
$USERI3
 70
               0
  9
$USERI4
 70
               0
  9
$USERI5
 70
               0
  9
$USERR1
 40
0.0
  9
$USERR2
 40
0.0
  9
$USERR3
 40
0.0
  9
$USERR4
 40
0.0
  9
$USERR5
 40
0.0
  9
$WORLDVIEW
 70
               1
  9
$SHADEDGE
 70
               3
  9
$SHADEDIF
 70
              70
  9
$TILEMODE
 70
               1
  9
$MAXACTVP
 70
              64
  9
$PINSBASE
 10
0.0
 20
0.0
 30
0.0
  9
$PLIMCHECK
 70
               0
  9
$PEXTMIN
 10
1.0000000000000000E+20
 20
1.0000000000000000E+20
 30
1.0000000000000000E+20
  9
$PEXTMAX
 10
-1.0000000000000000E+20
 20
-1.0000000000000000E+20
 30
-1.0000000000000000E+20
  9
$PLIMMIN
 10
0.0
 20
0.0
  9
$PLIMMAX
 10
12.0
 20
9.0
  9
$UNITMODE
 70
               0
  9
$VISRETAIN
 70
               0
  9
$PLINEGEN
 70
               1
  9
$PSLTSCALE
 70
               0
  9
$TREEDEPTH
 70
            3020
  9
$CMLSTYLE
  2
Standard
  9
$CMLJUST
 70
               0
  9
$CMLSCALE
 40
1.0
  9
$PROXYGRAPHICS
 70
               0
  9
$MEASUREMENT
 70
               1
  9
$CELWEIGHT
370
               0
  9
$ENDCAPS
280
               0
  9
$JOINSTYLE
280
               0
  9
$LWDISPLAY
290
               1
  9
$INSUNITS
 70
               4
  9
$HYPERLINKBASE
  1

  9
$STYLESHEET
  1

  9
$XEDIT
290
               1
  9
$CEPSNTYPE
380
               0
  9
$PSTYLEMODE
290
               1
  9
$FINGERPRINTGUID
  2

  9
$VERSIONGUID
  2

  9
$EXTNAMES
290
               1
  9
$PSVPSCALE
 40
0.0
  0
ENDSEC
  0
SECTION
  2
CLASSES
  0
CLASS
  1
LWPOLYLINE
  2
AcDbPolyline
  3
AutoCAD 2000
 90
        0
280
               0
281
               1
  0
CLASS
  1
IMAGE
  2
AcDbRasterImage
  3
ISM
 90
      127
280
               0
281
               1
  0
CLASS
  1
OLE2FRAME
  2
AcDbOle2Frame
  3
AutoCAD 2000
 90
        0
280
               0
281
               1
  0
CLASS
  1
HATCH
  2
AcDbHatch
  3
AutoCAD 2000
 90
        0
280
               0
281
               1
  0
CLASS
  1
DICTIONARYVAR
  2
AcDbDictionaryVar
  3
AutoCAD 2000
 90
        0
280
               0
281
               0
  0
CLASS
  1
RASTERVARIABLES
  2
AcDbRasterVariables
  3
ISM
 90
        0
280
               0
281
               0
  0
CLASS
  1
IMAGEDEF
  2
AcDbRasterImageDef
  3
ISM
 90
        0
280
               0
281
               0
  0
CLASS
  1
IMAGEDEF_REACTOR
  2
AcDbRasterImageDefReactor
  3
ISM
 90
        1
280
               0
281
               0
  0
CLASS
  1
IDBUFFER
  2
AcDbIdBuffer
  3
AutoCAD 2000
 90
        0
280
               0
281
               0
  0
CLASS
  1
SPATIAL_FILTER
  2
AcDbSpatialFilter
  3
AutoCAD 2000
 90
        0
280
               0
281
               0
  0
CLASS
  1
XRECORD
  2
AcDbXrecord
  3
AutoCAD 2000
 90
        0
280
               0
281
               0
  0
CLASS
  1
SORTENTSTABLE
  2
AcDbSortentsTable
  3
AutoCAD 2000
 90
        0
280
               0
281
               0
  0
CLASS
  1
LAYER_INDEX
  2
AcDbLayerIndex
  3
AutoCAD 2000
 90
        0
280
               0
281
               0
  0
CLASS
  1
SPATIAL_INDEX
  2
AcDbSpatialIndex
  3
AutoCAD 2000
 90
        0
280
               0
281
               0
  0
CLASS
  1
OBJECT_PTR
  2
CAseDLPNTableRecord
  3
"ASE-LPNTableRecord"
 90
        1
280
               0
281
               0
  0
CLASS
  1
LAYOUT
  2
AcDbLayout
  3
AutoCAD 2000
 90
        0
280
               0
281
               0
  0
CLASS
  1
PLOTSETTINGS
  2
AcDbPlotSettings
  3
AutoCAD 2000
 90
        0
280
               0
281
               0
  0
CLASS
  1
ACDBDICTIONARYWDFLT
  2
AcDbDictionaryWithDefault
  3
AutoCAD 2000
 90
        0
280
               0
281
               0
  0
CLASS
  1
ACDBPLACEHOLDER
  2
AcDbPlaceHolder
  3
AutoCAD 2000
 90
        0
280
               0
281
               0
  0
CLASS
  1
VBA_PROJECT
  2
AcDbVbaProject
  3
acadvba
 90
        0
280
               0
281
               0
  0
CLASS
  1
WIPEOUT
  2
AcDbWipeout
  3
WipeOut|AutoCAD Express Tool|expresstools@autodesk.com
 90
      127
280
               0
281
               1
  0
CLASS
  1
WIPEOUTVARIABLES
  2
AcDbWipeoutVariables
  3
WipeOut|AutoCAD Express Tool|expresstools@autodesk.com
 90
        0
280
               0
281
               0
  0
CLASS
  1
RTEXT
  2
RText
  3
RText|AutoCAD Express Tool|expresstools@autodesk.com
 90
        0
280
               0
281
               1
  0
CLASS
  1
ARCALIGNEDTEXT
  2
AcDbArcAlignedText
  3
ATEXT|AutoCAD Express Tool|expresstools@autodesk.com
 90
        0
280
               0
281
               1
  0
ENDSEC
  0
SECTION
  2
TABLES
  0
TABLE
  2
VPORT
  5
7
100
AcDbSymbolTable
 70
               1
  0
VPORT
  5
15
100
AcDbSymbolTableRecord
100
AcDbViewportTableRecord
  2
*ACTIVE
 70
               0
 10
0.0
 20
0.0
 11
1.0
 21
1.0
 12
57.260001076592346
 22
28.097079999999892
 13
0.0
 23
0.0
 14
1.0
 24
1.0
 15
0.0
 25
0.0
 16
0.0
 26
0.0
 36
1.0
 17
0.0
 27
0.0
 37
0.0
 40
325.92199999999997
 41
0.688564
 42
50.0
 43
0.0
 44
0.0
 50
0.0
 51
0.0
 71
               0
 72
            2000
 73
               1
 74
               1
 75
               0
 76
               0
 77
               0
 78
               0
281
               0
 65
               0
110
0.0
120
0.0
130
0.0
111
1.0
121
0.0
131
0.0
112
0.0
122
1.0
132
0.0
345
0
346
0
 79
               0
146
0.0
  0
ENDTAB
  0
TABLE
  2
LTYPE
  5
4
100
AcDbSymbolTable
 70
              27
  0
LTYPE
  5
11
100
AcDbSymbolTableRecord
100
AcDbLinetypeTableRecord
  2
ByBlock
 70
              64
  3

 72
              65
 73
               0
 40
0.0
  0
LTYPE
  5
12
100
AcDbSymbolTableRecord
100
AcDbLinetypeTableRecord
  2
ByLayer
 70
              64
  3

 72
              65
 73
               0
 40
0.0
  0
LTYPE
  5
13
100
AcDbSymbolTableRecord
100
AcDbLinetypeTableRecord
  2
Continuous
 70
              64
  3
Solid line
 72
              65
 73
               0
 40
0.0
  0
LTYPE
  5
3E
100
AcDbSymbolTableRecord
100
AcDbLinetypeTableRecord
  2
STYLE_01
 70
               0
  3

 72
              65
 73
               2
 40
0.166656494140625
 49
0.08331298828125
 74
               0
 49
-0.083343505859375
 74
               0
  0
LTYPE
  5
3F
100
AcDbSymbolTableRecord
100
AcDbLinetypeTableRecord
  2
STYLE_02
 70
               0
  3

 72
              65
 73
               2
 40
0.27777099609375
 49
0.194427490234375
 74
               0
 49
-0.083343505859375
 74
               0
  0
LTYPE
  5
40
100
AcDbSymbolTableRecord
100
AcDbLinetypeTableRecord
  2
STYLE_03
 70
               0
  3

 72
              65
 73
               2
 40
0.5
 49
0.416656494140625
 74
               0
 49
-0.083343505859375
 74
               0
  0
LTYPE
  5
41
100
AcDbSymbolTableRecord
100
AcDbLinetypeTableRecord
  2
STYLE_04
 70
               0
  3

 72
              65
 73
               2
 40
0.611083984375
 49
0.52777099609375
 74
               0
 49
-0.08331298828125
 74
               0
  0
LTYPE
  5
42
100
AcDbSymbolTableRecord
100
AcDbLinetypeTableRecord
  2
STYLE_05
 70
               0
  3

 72
              65
 73
               2
 40
0.08331298828125
 49
0.02777099609375
 74
               0
 49
-0.0555419921875
 74
               0
  0
LTYPE
  5
43
100
AcDbSymbolTableRecord
100
AcDbLinetypeTableRecord
  2
STYLE_06
 70
               0
  3

 72
              65
 73
               4
 40
0.3055419921875
 49
0.166656494140625
 74
               0
 49
-0.055572509765625
 74
               0
 49
0.02777099609375
 74
               0
 49
-0.0555419921875
 74
               0
  0
LTYPE
  5
44
100
AcDbSymbolTableRecord
100
AcDbLinetypeTableRecord
  2
STYLE_07
 70
               0
  3

 72
              65
 73
               6
 40
0.75
 49
0.25
 74
               0
 49
-0.08331298828125
 74
               0
 49
0.25
 74
               0
 49
-0.083343505859375
 74
               0
 49
0.02777099609375
 74
               0
 49
-0.055572509765625
 74
               0
  0
LTYPE
  5
45
100
AcDbSymbolTableRecord
100
AcDbLinetypeTableRecord
  2
STYLE_08
 70
               0
  3

 72
              65
 73
               6
 40
0.5
 49
0.25
 74
               0
 49
-0.08331298828125
 74
               0
 49
0.02777099609375
 74
               0
 49
-0.055572509765625
 74
               0
 49
0.02777099609375
 74
               0
 49
-0.055572509765625
 74
               0
  0
LTYPE
  5
46
100
AcDbSymbolTableRecord
100
AcDbLinetypeTableRecord
  2
STYLE_09
 70
               0
  3

 72
              65
 73
               4
 40
0.3055419921875
 49
0.138885498046875
 74
               0
 49
-0.055572509765625
 74
               0
 49
0.0555419921875
 74
               0
 49
-0.0555419921875
 74
               0
  0
LTYPE
  5
47
100
AcDbSymbolTableRecord
100
AcDbLinetypeTableRecord
  2
STYLE_10
 70
               0
  3

 72
              65
 73
               6
 40
2.375
 49
1.5
 74
               0
 49
-0.111114501953125
 74
               0
 49
0.27777099609375
 74
               0
 49
-0.111114501953125
 74
               0
 49
0.25
 74
               0
 49
-0.125
 74
               0
  0
LTYPE
  5
48
100
AcDbSymbolTableRecord
100
AcDbLinetypeTableRecord
  2
STYLE_11
 70
               0
  3

 72
              65
 73
               2
 40
0.403472900390625
 49
0.26898193359375
 74
               0
 49
-0.134490966796875
 74
               0
  0
LTYPE
  5
49
100
AcDbSymbolTableRecord
100
AcDbLinetypeTableRecord
  2
STYLE_12
 70
               0
  3

 72
              65
 73
               2
 40
0.20172119140625
 49
0.134490966796875
 74
               0
 49
-0.067230224609375
 74
               0
  0
LTYPE
  5
4A
100
AcDbSymbolTableRecord
100
AcDbLinetypeTableRecord
  2
STYLE_13
 70
               0
  3

 72
              65
 73
               4
 40
1.075927734375
 49
0.672454833984375
 74
               0
 49
-0.134490966796875
 74
               0
 49
0.134490966796875
 74
               0
 49
-0.134490966796875
 74
               0
  0
LTYPE
  5
4B
100
AcDbSymbolTableRecord
100
AcDbLinetypeTableRecord
  2
STYLE_14
 70
               0
  3

 72
              65
 73
               6
 40
1.34490966796875
 49
0.672454833984375
 74
               0
 49
-0.134490966796875
 74
               0
 49
0.134490966796875
 74
               0
 49
-0.134490966796875
 74
               0
 49
0.134490966796875
 74
               0
 49
-0.134490966796875
 74
               0
  0
LTYPE
  5
4C
100
AcDbSymbolTableRecord
100
AcDbLinetypeTableRecord
  2
STYLE_15
 70
               0
  3

 72
              65
 73
               4
 40
0.5
 49
0.25
 74
               0
 49
-0.083343505859375
 74
               0
 49
0.08331298828125
 74
               0
 49
-0.083343505859375
 74
               0
  0
LTYPE
  5
4D
100
AcDbSymbolTableRecord
100
AcDbLinetypeTableRecord
  2
STYLE_16
 70
               0
  3

 72
              65
 73
               6
 40
0.52777099609375
 49
0.22222900390625
 74
               0
 49
-0.08331298828125
 74
               0
 49
0.0555419921875
 74
               0
 49
-0.055572509765625
 74
               0
 49
0.055572509765625
 74
               0
 49
-0.0555419921875
 74
               0
  0
LTYPE
  5
4E
100
AcDbSymbolTableRecord
100
AcDbLinetypeTableRecord
  2
STYLE_17
 70
               0
  3

 72
              65
 73
               2
 40
0.40191650390625
 49
0.2679443359375
 74
               0
 49
-0.13397216796875
 74
               0
  0
LTYPE
  5
4F
100
AcDbSymbolTableRecord
100
AcDbLinetypeTableRecord
  2
STYLE_18
 70
               0
  3

 72
              65
 73
               4
 40
2.14361572265625
 49
1.33978271484375
 74
               0
 49
-0.2679443359375
 74
               0
 49
0.2679443359375
 74
               0
 49
-0.2679443359375
 74
               0
  0
LTYPE
  5
50
100
AcDbSymbolTableRecord
100
AcDbLinetypeTableRecord
  2
STYLE_19
 70
               0
  3

 72
              65
 73
               2
 40
0.803863525390625
 49
0.535919189453125
 74
               0
 49
-0.2679443359375
 74
               0
  0
LTYPE
  5
51
100
AcDbSymbolTableRecord
100
AcDbLinetypeTableRecord
  2
STYLE_20
 70
               0
  3

 72
              65
 73
               4
 40
2.0
 49
1.5
 74
               0
 49
-0.111114501953125
 74
               0
 49
0.27777099609375
 74
               0
 49
-0.111114501953125
 74
               0
  0
LTYPE
  5
52
100
AcDbSymbolTableRecord
100
AcDbLinetypeTableRecord
  2
STYLE_21
 70
               0
  3

 72
              65
 73
               4
 40
0.52777099609375
 49
0.27777099609375
 74
               0
 49
-0.083343505859375
 74
               0
 49
0.083343505859375
 74
               0
 49
-0.08331298828125
 74
               0
  0
LTYPE
  5
53
100
AcDbSymbolTableRecord
100
AcDbLinetypeTableRecord
  2
STYLE_22
 70
               0
  3

 72
              65
 73
               4
 40
1.27984619140625
 49
0.7999267578125
 74
               0
 49
-0.15997314453125
 74
               0
 49
0.15997314453125
 74
               0
 49
-0.15997314453125
 74
               0
  0
LTYPE
  5
54
100
AcDbSymbolTableRecord
100
AcDbLinetypeTableRecord
  2
STYLE_23
 70
               0
  3

 72
              65
 73
               6
 40
1.59979248046875
 49
0.7999267578125
 74
               0
 49
-0.15997314453125
 74
               0
 49
0.15997314453125
 74
               0
 49
-0.15997314453125
 74
               0
 49
0.15997314453125
 74
               0
 49
-0.15997314453125
 74
               0
  0
LTYPE
  5
55
100
AcDbSymbolTableRecord
100
AcDbLinetypeTableRecord
  2
STYLE_24
 70
               0
  3

 72
              65
 73
               2
 40
0.479949951171875
 49
0.319976806640625
 74
               0
 49
-0.15997314453125
 74
               0
  0
ENDTAB
  0
TABLE
  2
LAYER
  5
2
100
AcDbSymbolTable
 70
               7
  0
LAYER
  5
14
100
AcDbSymbolTableRecord
100
AcDbLayerTableRecord
  2
0
 70
               0
 62
               7
  6
Continuous
290
               1
370
              15
390
1D
  0
LAYER
  5
56
100
AcDbSymbolTableRecord
100
AcDbLayerTableRecord
  2
Defpoints
 70
               0
 62
               7
  6
Continuous
290
               0
370
              -3
390
1D
  0
LAYER
  5
57
100
AcDbSymbolTableRecord
100
AcDbLayerTableRecord
  2
一般
 70
               0
 62
               7
  6
Continuous
290
               1
370
               5
390
1D
  0
LAYER
  5
58
100
AcDbSymbolTableRecord
100
AcDbLayerTableRecord
  2
寸法
 70
               0
 62
               7
  6
Continuous
290
               1
370
               5
390
1D
  0
LAYER
  5
59
100
AcDbSymbolTableRecord
100
AcDbLayerTableRecord
  2
001
 70
               0
 62
               7
  6
Continuous
290
               1
370
              15
390
1D
  0
LAYER
  5
5A
100
AcDbSymbolTableRecord
100
AcDbLayerTableRecord
  2
255
 70
               0
 62
               7
  6
Continuous
290
               1
370
              15
390
1D
  0
LAYER
  5
5B
100
AcDbSymbolTableRecord
100
AcDbLayerTableRecord
  2
003
 70
               0
 62
               7
  6
Continuous
290
               1
370
              15
390
1D
  0
ENDTAB
  0
TABLE
  2
STYLE
  5
3
100
AcDbSymbolTable
 70
               4
  0
STYLE
  5
17
100
AcDbSymbolTableRecord
100
AcDbTextStyleTableRecord
  2
Standard
 70
               0
 40
0.0
 41
1.0
 50
0.0
 71
               0
 42
0.0
  3
txt
  4
BIGFONT.SHX
  0
STYLE
  5
3B
100
AcDbSymbolTableRecord
100
AcDbTextStyleTableRecord
  2
ＭＳ Ｐゴシック
 70
               0
 40
0.0
 41
1.0
 50
0.0
 71
               0
 42
0.0
  3

  4
ＭＳ Ｐゴシック
1001
ACAD
1000
ＭＳ Ｐゴシック
1071
        0
  0
STYLE
  5
3C
100
AcDbSymbolTableRecord
100
AcDbTextStyleTableRecord
  2
ＭＳ Ｐゴシック (bold)
 70
               0
 40
0.0
 41
1.0
 50
0.0
 71
               0
 42
0.0
  3

  4
ＭＳ Ｐゴシック
1001
ACAD
1000
ＭＳ Ｐゴシック
1071
 33554432
  0
STYLE
  5
3D
100
AcDbSymbolTableRecord
100
AcDbTextStyleTableRecord
  2
ＭＳ ゴシック
 70
               0
 40
0.0
 41
1.0
 50
0.0
 71
               0
 42
0.0
  3

  4
ＭＳ ゴシック
1001
ACAD
1000
ＭＳ ゴシック
1071
        0
  0
ENDTAB
  0
TABLE
  2
VIEW
  5
5
100
AcDbSymbolTable
 70
               0
  0
ENDTAB
  0
TABLE
  2
UCS
  5
6
100
AcDbSymbolTable
 70
               0
  0
ENDTAB
  0
TABLE
  2
APPID
  5
8
100
AcDbSymbolTable
 70
               1
  0
APPID
  5
16
100
AcDbSymbolTableRecord
100
AcDbRegAppTableRecord
  2
ACAD
 70
               0
  0
ENDTAB
  0
TABLE
  2
DIMSTYLE
  5
9
100
AcDbSymbolTable
 70
               2
100
AcDbDimStyleTable
 71
               0
  0
DIMSTYLE
105
18
100
AcDbSymbolTableRecord
100
AcDbDimStyleTableRecord
  2
Standard
 70
               0
  3

  4

 40
1.0
 41
0.18
 42
0.0625
 43
0.38
 44
0.18
 45
0.0
 46
0.0
 47
0.0
 48
0.0
 71
               0
 72
               0
 73
               1
 74
               1
 75
               0
 76
               0
 77
               0
 78
               0
 79
               0
140
0.18
141
0.09
142
0.0
143
25.399999999999999
144
1.0
145
0.0
146
1.0
147
0.09
148
0.0
170
               0
171
               2
172
               0
173
               0
174
               0
175
               0
176
               0
177
               0
178
               0
179
               0
271
               4
272
               4
273
               2
274
               2
275
               0
276
               0
277
               2
278
              46
279
               0
280
               0
281
               0
282
               0
283
               1
284
               0
285
               0
286
               0
288
               0
289
               3
340
17
341
0
342
0
343
0
344
0
371
              -2
372
              -2
  0
DIMSTYLE
105
60
100
AcDbSymbolTableRecord
100
AcDbDimStyleTableRecord
  2
中谷
 70
               0
  3
<>
  4
[]
 40
1.0
 41
6.0027343749999993
 42
3.9999999999999996
 43
7.0
 44
3.9999999999999996
 45
0.0
 46
0.0
 47
0.0
 48
0.0
 71
               0
 72
               0
 73
               0
 74
               0
 75
               0
 76
               0
 77
               1
 78
              11
 79
               0
140
8.7312499999999993
141
0.0
142
0.0
143
1.0
144
1.0
145
0.0
146
1.0
147
0.0099999999627471
148
0.0
170
               0
171
               2
172
               1
173
               0
174
               1
175
               0
176
               0
177
               0
178
               0
179
               0
271
               2
272
               2
273
               2
274
               2
275
               0
276
               2
277
               2
278
              46
279
               0
280
               0
281
               0
282
               0
283
               1
284
              11
285
              11
286
              11
288
               0
289
               0
340
3B
341
5C
342
5C
343
0
344
0
371
              -2
372
              -2
  0
ENDTAB
  0
TABLE
  2
BLOCK_RECORD
  5
1
100
AcDbSymbolTable
 70
              24
  0
BLOCK_RECORD
  5
A
100
AcDbSymbolTableRecord
100
AcDbBlockTableRecord
  2
*MODEL_SPACE
340
20
  0
BLOCK_RECORD
  5
B
100
AcDbSymbolTableRecord
100
AcDbBlockTableRecord
  2
*PAPER_SPACE
340
21
  0
BLOCK_RECORD
  5
5C
100
AcDbSymbolTableRecord
100
AcDbBlockTableRecord
  2
VW_FILLEDARROW
340
0
  0
BLOCK_RECORD
  5
24
100
AcDbSymbolTableRecord
100
AcDbBlockTableRecord
  2
*D1
340
0
  0
BLOCK_RECORD
  5
25
100
AcDbSymbolTableRecord
100
AcDbBlockTableRecord
  2
*D2
340
0
  0
BLOCK_RECORD
  5
26
100
AcDbSymbolTableRecord
100
AcDbBlockTableRecord
  2
*D3
340
0
  0
BLOCK_RECORD
  5
27
100
AcDbSymbolTableRecord
100
AcDbBlockTableRecord
  2
*D4
340
0
  0
BLOCK_RECORD
  5
28
100
AcDbSymbolTableRecord
100
AcDbBlockTableRecord
  2
*D5
340
0
  0
BLOCK_RECORD
  5
29
100
AcDbSymbolTableRecord
100
AcDbBlockTableRecord
  2
*D6
340
0
  0
BLOCK_RECORD
  5
2A
100
AcDbSymbolTableRecord
100
AcDbBlockTableRecord
  2
*D7
340
0
  0
BLOCK_RECORD
  5
2B
100
AcDbSymbolTableRecord
100
AcDbBlockTableRecord
  2
*D8
340
0
  0
BLOCK_RECORD
  5
2C
100
AcDbSymbolTableRecord
100
AcDbBlockTableRecord
  2
*D9
340
0
  0
BLOCK_RECORD
  5
2D
100
AcDbSymbolTableRecord
100
AcDbBlockTableRecord
  2
*D10
340
0
  0
BLOCK_RECORD
  5
2E
100
AcDbSymbolTableRecord
100
AcDbBlockTableRecord
  2
*D11
340
0
  0
BLOCK_RECORD
  5
2F
100
AcDbSymbolTableRecord
100
AcDbBlockTableRecord
  2
*D12
340
0
  0
BLOCK_RECORD
  5
30
100
AcDbSymbolTableRecord
100
AcDbBlockTableRecord
  2
*D13
340
0
  0
BLOCK_RECORD
  5
31
100
AcDbSymbolTableRecord
100
AcDbBlockTableRecord
  2
*D14
340
0
  0
BLOCK_RECORD
  5
32
100
AcDbSymbolTableRecord
100
AcDbBlockTableRecord
  2
*D15
340
0
  0
BLOCK_RECORD
  5
33
100
AcDbSymbolTableRecord
100
AcDbBlockTableRecord
  2
*D16
340
0
  0
BLOCK_RECORD
  5
34
100
AcDbSymbolTableRecord
100
AcDbBlockTableRecord
  2
*D17
340
0
  0
BLOCK_RECORD
  5
35
100
AcDbSymbolTableRecord
100
AcDbBlockTableRecord
  2
*D18
340
0
  0
BLOCK_RECORD
  5
36
100
AcDbSymbolTableRecord
100
AcDbBlockTableRecord
  2
*D19
340
0
  0
BLOCK_RECORD
  5
37
100
AcDbSymbolTableRecord
100
AcDbBlockTableRecord
  2
*D20
340
0
  0
BLOCK_RECORD
  5
38
100
AcDbSymbolTableRecord
100
AcDbBlockTableRecord
  2
*D21
340
0
  0
BLOCK_RECORD
  5
39
100
AcDbSymbolTableRecord
100
AcDbBlockTableRecord
  2
*D22
340
0
  0
BLOCK_RECORD
  5
3A
100
AcDbSymbolTableRecord
100
AcDbBlockTableRecord
  2
*D23
340
0
  0
ENDTAB
  0
ENDSEC
  0
SECTION
  2
BLOCKS
  0
BLOCK
  5
D
100
AcDbEntity
  8
0
390
0
100
AcDbBlockBegin
  2
*MODEL_SPACE
 70
               0
 10
0.0
 20
0.0
 30
0.0
  3
*MODEL_SPACE
  1

  0
ENDBLK
  5
E
100
AcDbEntity
  8
0
390
0
100
AcDbBlockEnd
  0
BLOCK
  5
F
100
AcDbEntity
 67
               1
  8
0
390
0
100
AcDbBlockBegin
  2
*PAPER_SPACE
 70
               0
 10
0.0
 20
0.0
 30
0.0
  3
*PAPER_SPACE
  1

  0
ENDBLK
  5
10
100
AcDbEntity
 67
               1
  8
0
390
0
100
AcDbBlockEnd
  0
BLOCK
  5
5D
100
AcDbEntity
  8
0
370
              -2
390
0
  6
ByBlock
 62
               0
100
AcDbBlockBegin
  2
VW_FILLEDARROW
 70
               0
 10
0.0
 20
0.0
 30
0.0
  3
VW_FILLEDARROW
  1

  0
SOLID
  5
5E
100
AcDbEntity
  8
0
370
              -2
390
0
 62
               0
100
AcDbTrace
 10
0.0
 20
0.0
 30
0.0
 11
-0.998388671875
 21
-0.2122140633040501
 31
0.0
 12
-0.998388671875
 22
0.2122140633040499
 32
0.0
 13
-0.998388671875
 23
0.2122140633040499
 33
0.0
  0
ENDBLK
  5
5F
100
AcDbEntity
  8
0
390
0
100
AcDbBlockEnd
  0
BLOCK
  5
61
100
AcDbEntity
  8
寸法
390
0
100
AcDbBlockBegin
  2
*D1
 70
               1
 10
0.0
 20
0.0
 30
0.0
  3
*D1
  1

  0
LINE
  5
62
100
AcDbEntity
  8
寸法
370
              -2
390
0
  6
Continuous
 62
               0
100
AcDbLine
 10
-274.34880000000021
 20
82.130679999999813
 30
0.0
 11
-274.34880000000021
 21
119.63607999999982
 31
0.0
  0
LINE
  5
63
100
AcDbEntity
  8
寸法
370
              -2
390
0
  6
Continuous
 62
               0
100
AcDbLine
 10
-144.28219999999999
 20
82.130679999999813
 30
0.0
 11
-144.28219999999999
 21
119.63607999999982
 31
0.0
  0
LINE
  5
64
100
AcDbEntity
  8
寸法
370
              -2
390
0
  6
Continuous
 62
               0
100
AcDbLine
 10
-274.34880000000021
 20
115.63607999999982
 30
0.0
 11
-144.28219999999999
 21
115.63607999999982
 31
0.0
  0
SOLID
  5
65
100
AcDbEntity
  8
寸法
370
              -2
390
0
 62
               0
100
AcDbTrace
 10
-274.34880000000021
 20
115.63607999999982
 30
0.0
 11
-268.34606562500022
 21
116.91200057936827
 31
0.0
 12
-268.34606562500022
 22
114.36015942063138
 32
0.0
 13
-268.34606562500022
 23
114.36015942063138
 33
0.0
  0
SOLID
  5
66
100
AcDbEntity
  8
寸法
370
              -2
390
0
 62
               0
100
AcDbTrace
 10
-144.28219999999999
 20
115.63607999999982
 30
0.0
 11
-150.28493437499998
 21
114.36015942063138
 31
0.0
 12
-150.28493437499998
 22
116.91200057936827
 32
0.0
 13
-150.28493437499998
 23
116.91200057936827
 33
0.0
  0
MTEXT
  5
67
100
AcDbEntity
  8
寸法
390
0
 62
               0
100
AcDbMText
 10
-219.52520796351973
 20
126.19744999999982
 30
0.0
 40
8.7312499999999993
 41
0.0
 71
               1
 72
               1
  1
130
  7
ＭＳ Ｐゴシック
 73
               1
 44
0.8762322015334064
  0
POINT
  5
68
100
AcDbEntity
  8
Defpoints
370
               0
390
0
 62
               0
100
AcDbPoint
 10
-144.28219999999999
 20
78.130679999999813
 30
0.0
  0
POINT
  5
69
100
AcDbEntity
  8
Defpoints
370
               0
390
0
 62
               0
100
AcDbPoint
 10
-274.34880000000021
 20
78.130679999999813
 30
0.0
  0
POINT
  5
6A
100
AcDbEntity
  8
Defpoints
370
               0
390
0
 62
               0
100
AcDbPoint
 10
-274.34880000000021
 20
115.63607999999982
 30
0.0
  0
ENDBLK
  5
6B
100
AcDbEntity
  8
寸法
390
0
100
AcDbBlockEnd
  0
BLOCK
  5
6C
100
AcDbEntity
  8
寸法
390
0
100
AcDbBlockBegin
  2
*D2
 70
               1
 10
0.0
 20
0.0
 30
0.0
  3
*D2
  1

  0
LINE
  5
6D
100
AcDbEntity
  8
寸法
370
              -2
390
0
  6
Continuous
 62
               0
100
AcDbLine
 10
-205.31552000000011
 20
99.561199999999872
 30
0.0
 11
-172.00000000000011
 21
99.561199999999872
 31
0.0
  0
LINE
  5
6E
100
AcDbEntity
  8
寸法
370
              -2
390
0
  6
Continuous
 62
               0
100
AcDbLine
 10
-174.0
 20
-20.0
 30
0.0
 11
-172.00000000000011
 21
-20.0
 31
0.0
  0
LINE
  5
6F
100
AcDbEntity
  8
寸法
370
              -2
390
0
  6
Continuous
 62
               0
100
AcDbLine
 10
-176.00000000000011
 20
99.561199999999872
 30
0.0
 11
-176.00000000000011
 21
-20.0
 31
0.0
  0
SOLID
  5
70
100
AcDbEntity
  8
寸法
370
              -2
390
0
 62
               0
100
AcDbTrace
 10
-176.00000000000011
 20
99.561199999999872
 30
0.0
 11
-174.72407942063165
 21
93.558465624999869
 31
0.0
 12
-177.27592057936857
 22
93.558465624999869
 32
0.0
 13
-177.27592057936857
 23
93.558465624999869
 33
0.0
  0
SOLID
  5
71
100
AcDbEntity
  8
寸法
370
              -2
390
0
 62
               0
100
AcDbTrace
 10
-176.00000000000011
 20
-20.0
 30
0.0
 11
-177.27592057936857
 21
-13.997265625000001
 31
0.0
 12
-174.72407942063165
 22
-13.997265625000001
 32
0.0
 13
-174.72407942063165
 23
-13.997265625000001
 33
0.0
  0
MTEXT
  5
72
100
AcDbEntity
  8
寸法
390
0
 62
               0
100
AcDbMText
 10
-186.53925000000012
 20
21.611785765118007
 30
0.0
 40
8.7312499999999993
 41
0.0
 71
               1
 72
               1
  1
120
  7
ＭＳ Ｐゴシック
 11
0.0
 21
1.0
 31
0.0
 73
               1
 44
0.8762322015334064
  0
POINT
  5
73
100
AcDbEntity
  8
Defpoints
370
               0
390
0
 62
               0
100
AcDbPoint
 10
-178.0
 20
-20.0
 30
0.0
  0
POINT
  5
74
100
AcDbEntity
  8
Defpoints
370
               0
390
0
 62
               0
100
AcDbPoint
 10
-209.31552000000011
 20
99.561199999999872
 30
0.0
  0
POINT
  5
75
100
AcDbEntity
  8
Defpoints
370
               0
390
0
 62
               0
100
AcDbPoint
 10
-176.00000000000011
 20
99.561199999999872
 30
0.0
  0
ENDBLK
  5
76
100
AcDbEntity
  8
寸法
390
0
100
AcDbBlockEnd
  0
BLOCK
  5
77
100
AcDbEntity
  8
寸法
390
0
100
AcDbBlockBegin
  2
*D3
 70
               1
 10
0.0
 20
0.0
 30
0.0
  3
*D3
  1

  0
LINE
  5
78
100
AcDbEntity
  8
寸法
370
              -2
390
0
  6
Continuous
 62
               0
100
AcDbLine
 10
-281.85259999999982
 20
-104.86392000000012
 30
0.0
 11
-281.85259999999982
 21
-114.86392000000012
 31
0.0
  0
LINE
  5
79
100
AcDbEntity
  8
寸法
370
              -2
390
0
  6
Continuous
 62
               0
100
AcDbLine
 10
-136.77839999999998
 20
-104.86392000000012
 30
0.0
 11
-136.77839999999998
 21
-114.86392000000012
 31
0.0
  0
LINE
  5
7A
100
AcDbEntity
  8
寸法
370
              -2
390
0
  6
Continuous
 62
               0
100
AcDbLine
 10
-281.85259999999982
 20
-110.86392000000012
 30
0.0
 11
-136.77839999999998
 21
-110.86392000000012
 31
0.0
  0
SOLID
  5
7B
100
AcDbEntity
  8
寸法
370
              -2
390
0
 62
               0
100
AcDbTrace
 10
-281.85259999999982
 20
-110.86392000000012
 30
0.0
 11
-275.84986562499984
 21
-109.58799942063168
 31
0.0
 12
-275.84986562499984
 22
-112.13984057936857
 32
0.0
 13
-275.84986562499984
 23
-112.13984057936857
 33
0.0
  0
SOLID
  5
7C
100
AcDbEntity
  8
寸法
370
              -2
390
0
 62
               0
100
AcDbTrace
 10
-136.77839999999998
 20
-110.86392000000012
 30
0.0
 11
-142.78113437499997
 21
-112.13984057936857
 31
0.0
 12
-142.78113437499997
 22
-109.58799942063168
 32
0.0
 13
-142.78113437499997
 23
-109.58799942063168
 33
0.0
  0
MTEXT
  5
7D
100
AcDbEntity
  8
寸法
390
0
 62
               0
100
AcDbMText
 10
-218.84050067287012
 20
-100.32467000000011
 30
0.0
 40
8.7312499999999993
 41
0.0
 71
               1
 72
               1
  1
145
  7
ＭＳ Ｐゴシック
 73
               1
 44
0.8762322015334064
  0
POINT
  5
7E
100
AcDbEntity
  8
Defpoints
370
               0
390
0
 62
               0
100
AcDbPoint
 10
-136.77839999999998
 20
-100.86392000000012
 30
0.0
  0
POINT
  5
7F
100
AcDbEntity
  8
Defpoints
370
               0
390
0
 62
               0
100
AcDbPoint
 10
-281.85259999999982
 20
-100.86392000000012
 30
0.0
  0
POINT
  5
80
100
AcDbEntity
  8
Defpoints
370
               0
390
0
 62
               0
100
AcDbPoint
 10
-281.85259999999982
 20
-110.86392000000012
 30
0.0
  0
ENDBLK
  5
81
100
AcDbEntity
  8
寸法
390
0
100
AcDbBlockEnd
  0
BLOCK
  5
82
100
AcDbEntity
  8
寸法
390
0
100
AcDbBlockBegin
  2
*D4
 70
               1
 10
0.0
 20
0.0
 30
0.0
  3
*D4
  1

  0
LINE
  5
83
100
AcDbEntity
  8
寸法
370
              -2
390
0
  6
Continuous
 62
               0
100
AcDbLine
 10
-291.85771999999997
 20
-98.037920000000099
 30
0.0
 11
-291.85771999999997
 21
-134.86392000000009
 31
0.0
  0
LINE
  5
84
100
AcDbEntity
  8
寸法
370
              -2
390
0
  6
Continuous
 62
               0
100
AcDbLine
 10
-126.77319999999997
 20
-98.037920000000099
 30
0.0
 11
-126.77319999999997
 21
-134.86392000000009
 31
0.0
  0
LINE
  5
85
100
AcDbEntity
  8
寸法
370
              -2
390
0
  6
Continuous
 62
               0
100
AcDbLine
 10
-291.85771999999997
 20
-130.86392000000009
 30
0.0
 11
-126.77319999999997
 21
-130.86392000000009
 31
0.0
  0
SOLID
  5
86
100
AcDbEntity
  8
寸法
370
              -2
390
0
 62
               0
100
AcDbTrace
 10
-291.85771999999997
 20
-130.86392000000009
 30
0.0
 11
-285.85498562499998
 21
-129.58799942063163
 31
0.0
 12
-285.85498562499998
 22
-132.13984057936855
 32
0.0
 13
-285.85498562499998
 23
-132.13984057936855
 33
0.0
  0
SOLID
  5
87
100
AcDbEntity
  8
寸法
370
              -2
390
0
 62
               0
100
AcDbTrace
 10
-126.77319999999997
 20
-130.86392000000009
 30
0.0
 11
-132.77593437499996
 21
-132.13984057936855
 31
0.0
 12
-132.77593437499996
 22
-129.58799942063163
 32
0.0
 13
-132.77593437499996
 23
-129.58799942063163
 33
0.0
  0
MTEXT
  5
88
100
AcDbEntity
  8
寸法
390
0
 62
               0
100
AcDbMText
 10
-218.84046067287019
 20
-120.32467000000008
 30
0.0
 40
8.7312499999999993
 41
0.0
 71
               1
 72
               1
  1
165
  7
ＭＳ Ｐゴシック
 73
               1
 44
0.8762322015334064
  0
POINT
  5
89
100
AcDbEntity
  8
Defpoints
370
               0
390
0
 62
               0
100
AcDbPoint
 10
-126.77319999999997
 20
-94.037920000000099
 30
0.0
  0
POINT
  5
8A
100
AcDbEntity
  8
Defpoints
370
               0
390
0
 62
               0
100
AcDbPoint
 10
-291.85771999999997
 20
-94.037920000000099
 30
0.0
  0
POINT
  5
8B
100
AcDbEntity
  8
Defpoints
370
               0
390
0
 62
               0
100
AcDbPoint
 10
-291.85771999999997
 20
-130.86392000000009
 30
0.0
  0
ENDBLK
  5
8C
100
AcDbEntity
  8
寸法
390
0
100
AcDbBlockEnd
  0
BLOCK
  5
8D
100
AcDbEntity
  8
寸法
390
0
100
AcDbBlockBegin
  2
*D5
 70
               1
 10
0.0
 20
0.0
 30
0.0
  3
*D5
  1

  0
LINE
  5
8E
100
AcDbEntity
  8
寸法
370
              -2
390
0
  6
Continuous
 62
               0
100
AcDbLine
 10
-136.4789199999999
 20
-92.99412000000018
 30
0.0
 11
-122.00007407569603
 21
-116.86390052960988
 31
0.0
  0
SOLID
  5
8F
100
AcDbEntity
  8
寸法
370
              -2
390
0
 62
               0
100
AcDbTrace
 10
-136.4789199999999
 20
-92.99412000000018
 30
0.0
 11
-132.29360584437597
 21
-97.482319942114657
 31
0.0
 12
-134.48096064223103
 22
-98.796615299986755
 32
0.0
 13
-134.48096064223103
 23
-98.796615299986755
 33
0.0
  0
LINE
  5
90
100
AcDbEntity
  8
寸法
370
              -2
390
0
  6
Continuous
 62
               0
100
AcDbLine
 10
-122.00007407569603
 20
-116.86390052960988
 30
0.0
 11
-118.00007407569603
 21
-116.86390052960988
 31
0.0
  0
MTEXT
  5
91
100
AcDbEntity
  8
寸法
390
0
 62
               0
100
AcDbMText
 10
-118.00007407569603
 20
-112.70465052960986
 30
0.0
 40
8.7312499999999993
 41
0.0
 71
               1
 72
               1
  1
4-φ7取付穴
  7
ＭＳ Ｐゴシック
 73
               1
 44
0.8762322015334064
  0
POINT
  5
92
100
AcDbEntity
  8
Defpoints
370
               0
390
0
 62
               0
100
AcDbPoint
 10
-140.11111999999991
 20
-87.006000000000199
 30
0.0
  0
POINT
  5
93
100
AcDbEntity
  8
Defpoints
370
               0
390
0
 62
               0
100
AcDbPoint
 10
-136.4789199999999
 20
-92.99412000000018
 30
0.0
  0
ENDBLK
  5
94
100
AcDbEntity
  8
寸法
390
0
100
AcDbBlockEnd
  0
BLOCK
  5
95
100
AcDbEntity
  8
寸法
390
0
100
AcDbBlockBegin
  2
*D6
 70
               1
 10
0.0
 20
0.0
 30
0.0
  3
*D6
  1

  0
LINE
  5
96
100
AcDbEntity
  8
寸法
370
              -2
390
0
  6
Continuous
 62
               0
100
AcDbLine
 10
-122.77319999999997
 20
-94.037920000000099
 30
0.0
 11
-115.99999999999997
 21
-94.037920000000099
 31
0.0
  0
LINE
  5
97
100
AcDbEntity
  8
寸法
370
              -2
390
0
  6
Continuous
 62
               0
100
AcDbLine
 10
-122.77319999999997
 20
-91.736599999999996
 30
0.0
 11
-115.99999999999997
 21
-91.736599999999996
 31
0.0
  0
LINE
  5
98
100
AcDbEntity
  8
寸法
370
              -2
390
0
  6
Continuous
 62
               0
100
AcDbLine
 10
-119.99999999999997
 20
-91.736599999999996
 30
0.0
 11
-119.99999999999997
 21
-94.037920000000099
 31
0.0
  0
LINE
  5
99
100
AcDbEntity
  8
寸法
370
              -2
390
0
  6
Continuous
 62
               0
100
AcDbLine
 10
-119.99999999999997
 20
-94.037920000000099
 30
0.0
 11
-119.99999999999997
 21
-102.0379200000001
 31
0.0
  0
SOLID
  5
9A
100
AcDbEntity
  8
寸法
370
              -2
390
0
 62
               0
100
AcDbTrace
 10
-119.99999999999997
 20
-94.037920000000099
 30
0.0
 11
-118.72407942063153
 21
-100.0406543750001
 31
0.0
 12
-121.27592057936842
 22
-100.0406543750001
 32
0.0
 13
-121.27592057936842
 23
-100.0406543750001
 33
0.0
  0
LINE
  5
9B
100
AcDbEntity
  8
寸法
370
              -2
390
0
  6
Continuous
 62
               0
100
AcDbLine
 10
-119.99999999999997
 20
-91.736599999999996
 30
0.0
 11
-119.99999999999997
 21
-69.043399730851917
 31
0.0
  0
SOLID
  5
9C
100
AcDbEntity
  8
寸法
370
              -2
390
0
 62
               0
100
AcDbTrace
 10
-119.99999999999997
 20
-91.736599999999996
 30
0.0
 11
-121.27592057936842
 21
-85.733865624999993
 31
0.0
 12
-118.72407942063153
 22
-85.733865624999993
 32
0.0
 13
-118.72407942063153
 23
-85.733865624999993
 33
0.0
  0
MTEXT
  5
9D
100
AcDbEntity
  8
寸法
390
0
 62
               0
100
AcDbMText
 10
-130.53924999999995
 20
-84.2834
 30
0.0
 40
8.7312499999999993
 41
0.0
 71
               1
 72
               1
  1
2.3
  7
ＭＳ Ｐゴシック
 11
0.0
 21
1.0
 31
0.0
 73
               1
 44
0.8762322015334064
  0
POINT
  5
9E
100
AcDbEntity
  8
Defpoints
370
               0
390
0
 62
               0
100
AcDbPoint
 10
-126.77319999999997
 20
-91.736599999999996
 30
0.0
  0
POINT
  5
9F
100
AcDbEntity
  8
Defpoints
370
               0
390
0
 62
               0
100
AcDbPoint
 10
-126.77319999999997
 20
-94.037920000000099
 30
0.0
  0
POINT
  5
A0
100
AcDbEntity
  8
Defpoints
370
               0
390
0
 62
               0
100
AcDbPoint
 10
-119.99999999999997
 20
-94.037920000000099
 30
0.0
  0
ENDBLK
  5
A1
100
AcDbEntity
  8
寸法
390
0
100
AcDbBlockEnd
  0
BLOCK
  5
A2
100
AcDbEntity
  8
寸法
390
0
100
AcDbBlockBegin
  2
*D7
 70
               1
 10
0.0
 20
0.0
 30
0.0
  3
*D7
  1

  0
LINE
  5
A3
100
AcDbEntity
  8
寸法
370
              -2
390
0
  6
Continuous
 62
               0
100
AcDbLine
 10
-122.77319999999997
 20
-94.037920000000099
 30
0.0
 11
-94.999999999999972
 21
-94.037920000000099
 31
0.0
  0
LINE
  5
A4
100
AcDbEntity
  8
寸法
370
              -2
390
0
  6
Continuous
 62
               0
100
AcDbLine
 10
-140.28219999999999
 20
-20.0
 30
0.0
 11
-94.999999999999972
 21
-20.0
 31
0.0
  0
LINE
  5
A5
100
AcDbEntity
  8
寸法
370
              -2
390
0
  6
Continuous
 62
               0
100
AcDbLine
 10
-98.999999999999972
 20
-94.037920000000099
 30
0.0
 11
-98.999999999999972
 21
-20.0
 31
0.0
  0
SOLID
  5
A6
100
AcDbEntity
  8
寸法
370
              -2
390
0
 62
               0
100
AcDbTrace
 10
-98.999999999999972
 20
-94.037920000000099
 30
0.0
 11
-100.27592057936842
 21
-88.035185625000096
 31
0.0
 12
-97.724079420631526
 22
-88.035185625000096
 32
0.0
 13
-97.724079420631526
 23
-88.035185625000096
 33
0.0
  0
SOLID
  5
A7
100
AcDbEntity
  8
寸法
370
              -2
390
0
 62
               0
100
AcDbTrace
 10
-98.999999999999972
 20
-20.0
 30
0.0
 11
-97.724079420631526
 21
-26.002734374999999
 31
0.0
 12
-100.27592057936842
 22
-26.002734374999999
 32
0.0
 13
-100.27592057936842
 23
-26.002734374999999
 33
0.0
  0
MTEXT
  5
A8
100
AcDbEntity
  8
寸法
390
0
 62
               0
100
AcDbMText
 10
-109.53924999999997
 20
-61.213437060546923
 30
0.0
 40
8.7312499999999993
 41
0.0
 71
               1
 72
               1
  1
74
  7
ＭＳ Ｐゴシック
 11
0.0
 21
1.0
 31
0.0
 73
               1
 44
0.8762322015334064
  0
POINT
  5
A9
100
AcDbEntity
  8
Defpoints
370
               0
390
0
 62
               0
100
AcDbPoint
 10
-144.28219999999999
 20
-20.0
 30
0.0
  0
POINT
  5
AA
100
AcDbEntity
  8
Defpoints
370
               0
390
0
 62
               0
100
AcDbPoint
 10
-126.77319999999997
 20
-94.037920000000099
 30
0.0
  0
POINT
  5
AB
100
AcDbEntity
  8
Defpoints
370
               0
390
0
 62
               0
100
AcDbPoint
 10
-98.999999999999972
 20
-94.037920000000099
 30
0.0
  0
ENDBLK
  5
AC
100
AcDbEntity
  8
寸法
390
0
100
AcDbBlockEnd
  0
BLOCK
  5
AD
100
AcDbEntity
  8
寸法
390
0
100
AcDbBlockBegin
  2
*D8
 70
               1
 10
0.0
 20
0.0
 30
0.0
  3
*D8
  1

  0
LINE
  5
AE
100
AcDbEntity
  8
寸法
370
              -2
390
0
  6
Continuous
 62
               0
100
AcDbLine
 10
-122.77319999999997
 20
-94.037920000000099
 30
0.0
 11
-70.999999999999972
 21
-94.037920000000099
 31
0.0
  0
LINE
  5
AF
100
AcDbEntity
  8
寸法
370
              -2
390
0
  6
Continuous
 62
               0
100
AcDbLine
 10
-142.98359999999991
 20
80.051199999999881
 30
0.0
 11
-70.999999999999972
 21
80.051199999999881
 31
0.0
  0
LINE
  5
B0
100
AcDbEntity
  8
寸法
370
              -2
390
0
  6
Continuous
 62
               0
100
AcDbLine
 10
-74.999999999999972
 20
-94.037920000000099
 30
0.0
 11
-74.999999999999972
 21
80.051199999999881
 31
0.0
  0
SOLID
  5
B1
100
AcDbEntity
  8
寸法
370
              -2
390
0
 62
               0
100
AcDbTrace
 10
-74.999999999999972
 20
-94.037920000000099
 30
0.0
 11
-76.275920579368417
 21
-88.035185625000096
 31
0.0
 12
-73.724079420631526
 22
-88.035185625000096
 32
0.0
 13
-73.724079420631526
 23
-88.035185625000096
 33
0.0
  0
SOLID
  5
B2
100
AcDbEntity
  8
寸法
370
              -2
390
0
 62
               0
100
AcDbTrace
 10
-74.999999999999972
 20
80.051199999999881
 30
0.0
 11
-73.724079420631526
 21
74.048465624999878
 31
0.0
 12
-76.275920579368417
 22
74.048465624999878
 32
0.0
 13
-76.275920579368417
 23
74.048465624999878
 33
0.0
  0
MTEXT
  5
B3
100
AcDbEntity
  8
寸法
390
0
 62
               0
100
AcDbMText
 10
-85.539249999999967
 20
-14.387936566425003
 30
0.0
 40
8.7312499999999993
 41
0.0
 71
               1
 72
               1
  1
174
  7
ＭＳ Ｐゴシック
 11
0.0
 21
1.0
 31
0.0
 73
               1
 44
0.8762322015334064
  0
POINT
  5
B4
100
AcDbEntity
  8
Defpoints
370
               0
390
0
 62
               0
100
AcDbPoint
 10
-146.98359999999991
 20
80.051199999999881
 30
0.0
  0
POINT
  5
B5
100
AcDbEntity
  8
Defpoints
370
               0
390
0
 62
               0
100
AcDbPoint
 10
-126.77319999999997
 20
-94.037920000000099
 30
0.0
  0
POINT
  5
B6
100
AcDbEntity
  8
Defpoints
370
               0
390
0
 62
               0
100
AcDbPoint
 10
-74.999999999999972
 20
-94.037920000000099
 30
0.0
  0
ENDBLK
  5
B7
100
AcDbEntity
  8
寸法
390
0
100
AcDbBlockEnd
  0
BLOCK
  5
B8
100
AcDbEntity
  8
寸法
390
0
100
AcDbBlockBegin
  2
*D9
 70
               1
 10
0.0
 20
0.0
 30
0.0
  3
*D9
  1

  0
LINE
  5
B9
100
AcDbEntity
  8
寸法
370
              -2
390
0
  6
Continuous
 62
               0
100
AcDbLine
 10
101.1019325280453
 20
-35.113322649580709
 30
0.0
 11
77.887870049782876
 21
-80.19743031613433
 31
0.0
  0
SOLID
  5
BA
100
AcDbEntity
  8
寸法
370
              -2
390
0
 62
               0
100
AcDbTrace
 10
101.1019325280453
 20
-35.113322649580709
 30
0.0
 11
99.410390444257999
 21
-41.01243094494528
 31
0.0
 12
97.157248435792923
 22
-39.814414088171709
 32
0.0
 13
97.157248435792923
 23
-39.814414088171709
 33
0.0
  0
LINE
  5
BB
100
AcDbEntity
  8
寸法
370
              -2
390
0
  6
Continuous
 62
               0
100
AcDbLine
 10
77.887870049782876
 20
-80.19743031613433
 30
0.0
 11
73.887870049782876
 21
-80.19743031613433
 31
0.0
  0
MTEXT
  5
BC
100
AcDbEntity
  8
寸法
390
0
 62
               0
100
AcDbMText
 10
23.087870049782879
 20
-76.038180316134316
 30
0.0
 40
8.7312499999999993
 41
0.0
 71
               1
 72
               1
  1
歯数30枚
  7
ＭＳ Ｐゴシック
 73
               1
 44
0.8762322015334064
  0
POINT
  5
BD
100
AcDbEntity
  8
Defpoints
370
               0
390
0
 62
               0
100
AcDbPoint
 10
104.30806747195456
 20
-28.886677350419291
 30
0.0
  0
POINT
  5
BE
100
AcDbEntity
  8
Defpoints
370
               0
390
0
 62
               0
100
AcDbPoint
 10
101.1019325280453
 20
-35.113322649580709
 30
0.0
  0
ENDBLK
  5
BF
100
AcDbEntity
  8
寸法
390
0
100
AcDbBlockEnd
  0
BLOCK
  5
C0
100
AcDbEntity
  8
寸法
390
0
100
AcDbBlockBegin
  2
*D10
 70
               1
 10
0.0
 20
0.0
 30
0.0
  3
*D10
  1

  0
LINE
  5
C1
100
AcDbEntity
  8
寸法
370
              -2
390
0
  6
Continuous
 62
               0
100
AcDbLine
 10
126.51872000000003
 20
-78.196800000000053
 30
0.0
 11
126.51872000000003
 21
-134.86392000000006
 31
0.0
  0
LINE
  5
C2
100
AcDbEntity
  8
寸法
370
              -2
390
0
  6
Continuous
 62
               0
100
AcDbLine
 10
140.52580000000017
 20
-98.037920000000099
 30
0.0
 11
140.52580000000017
 21
-134.86392000000006
 31
0.0
  0
LINE
  5
C3
100
AcDbEntity
  8
寸法
370
              -2
390
0
  6
Continuous
 62
               0
100
AcDbLine
 10
140.52580000000017
 20
-130.86392000000006
 30
0.0
 11
126.51872000000003
 21
-130.86392000000006
 31
0.0
  0
LINE
  5
C4
100
AcDbEntity
  8
寸法
370
              -2
390
0
  6
Continuous
 62
               0
100
AcDbLine
 10
126.51872000000003
 20
-130.86392000000006
 30
0.0
 11
118.51872000000003
 21
-130.86392000000006
 31
0.0
  0
SOLID
  5
C5
100
AcDbEntity
  8
寸法
370
              -2
390
0
 62
               0
100
AcDbTrace
 10
126.51872000000003
 20
-130.86392000000006
 30
0.0
 11
120.51598562500003
 21
-132.13984057936852
 31
0.0
 12
120.51598562500003
 22
-129.5879994206316
 32
0.0
 13
120.51598562500003
 23
-129.5879994206316
 33
0.0
  0
LINE
  5
C6
100
AcDbEntity
  8
寸法
370
              -2
390
0
  6
Continuous
 62
               0
100
AcDbLine
 10
140.52580000000017
 20
-130.86392000000006
 30
0.0
 11
148.52580000000017
 21
-130.86392000000006
 31
0.0
  0
SOLID
  5
C7
100
AcDbEntity
  8
寸法
370
              -2
390
0
 62
               0
100
AcDbTrace
 10
140.52580000000017
 20
-130.86392000000006
 30
0.0
 11
146.52853437500016
 21
-129.5879994206316
 31
0.0
 12
146.52853437500016
 22
-132.13984057936852
 32
0.0
 13
146.52853437500016
 23
-132.13984057936852
 33
0.0
  0
MTEXT
  5
C8
100
AcDbEntity
  8
寸法
390
0
 62
               0
100
AcDbMText
 10
126.14998424865732
 20
-120.32467000000005
 30
0.0
 40
8.7312499999999993
 41
0.0
 71
               1
 72
               1
  1
14
  7
ＭＳ Ｐゴシック
 73
               1
 44
0.8762322015334064
  0
POINT
  5
C9
100
AcDbEntity
  8
Defpoints
370
               0
390
0
 62
               0
100
AcDbPoint
 10
140.52580000000017
 20
-94.037920000000099
 30
0.0
  0
POINT
  5
CA
100
AcDbEntity
  8
Defpoints
370
               0
390
0
 62
               0
100
AcDbPoint
 10
126.51872000000003
 20
-74.196800000000053
 30
0.0
  0
POINT
  5
CB
100
AcDbEntity
  8
Defpoints
370
               0
390
0
 62
               0
100
AcDbPoint
 10
126.51872000000003
 20
-130.86392000000006
 30
0.0
  0
ENDBLK
  5
CC
100
AcDbEntity
  8
寸法
390
0
100
AcDbBlockEnd
  0
BLOCK
  5
CD
100
AcDbEntity
  8
寸法
390
0
100
AcDbBlockBegin
  2
*D11
 70
               1
 10
0.0
 20
0.0
 30
0.0
  3
*D11
  1

  0
LINE
  5
CE
100
AcDbEntity
  8
寸法
370
              -2
390
0
  6
Continuous
 62
               0
100
AcDbLine
 10
140.52580000000017
 20
-98.037920000000099
 30
0.0
 11
140.52580000000017
 21
-134.86392000000009
 31
0.0
  0
LINE
  5
CF
100
AcDbEntity
  8
寸法
370
              -2
390
0
  6
Continuous
 62
               0
100
AcDbLine
 10
220.5667999999998
 20
-98.037920000000099
 30
0.0
 11
220.5667999999998
 21
-134.86392000000009
 31
0.0
  0
LINE
  5
D0
100
AcDbEntity
  8
寸法
370
              -2
390
0
  6
Continuous
 62
               0
100
AcDbLine
 10
140.52580000000017
 20
-130.86392000000009
 30
0.0
 11
220.5667999999998
 21
-130.86392000000009
 31
0.0
  0
SOLID
  5
D1
100
AcDbEntity
  8
寸法
370
              -2
390
0
 62
               0
100
AcDbTrace
 10
140.52580000000017
 20
-130.86392000000009
 30
0.0
 11
146.52853437500016
 21
-129.58799942063163
 31
0.0
 12
146.52853437500016
 22
-132.13984057936855
 32
0.0
 13
146.52853437500016
 23
-132.13984057936855
 33
0.0
  0
SOLID
  5
D2
100
AcDbEntity
  8
寸法
370
              -2
390
0
 62
               0
100
AcDbTrace
 10
220.5667999999998
 20
-130.86392000000009
 30
0.0
 11
214.56406562499981
 21
-132.13984057936855
 31
0.0
 12
214.56406562499981
 22
-129.58799942063163
 32
0.0
 13
214.56406562499981
 23
-129.58799942063163
 33
0.0
  0
MTEXT
  5
D3
100
AcDbEntity
  8
寸法
390
0
 62
               0
100
AcDbMText
 10
174.19629999999998
 20
-120.32467000000008
 30
0.0
 40
8.7312499999999993
 41
0.0
 71
               1
 72
               1
  1
80
  7
ＭＳ Ｐゴシック
 73
               1
 44
0.8762322015334064
  0
POINT
  5
D4
100
AcDbEntity
  8
Defpoints
370
               0
390
0
 62
               0
100
AcDbPoint
 10
220.5667999999998
 20
-94.037920000000099
 30
0.0
  0
POINT
  5
D5
100
AcDbEntity
  8
Defpoints
370
               0
390
0
 62
               0
100
AcDbPoint
 10
140.52580000000017
 20
-94.037920000000099
 30
0.0
  0
POINT
  5
D6
100
AcDbEntity
  8
Defpoints
370
               0
390
0
 62
               0
100
AcDbPoint
 10
140.52580000000017
 20
-130.86392000000009
 30
0.0
  0
ENDBLK
  5
D7
100
AcDbEntity
  8
寸法
390
0
100
AcDbBlockEnd
  0
BLOCK
  5
D8
100
AcDbEntity
  8
寸法
390
0
100
AcDbBlockBegin
  2
*D12
 70
               1
 10
0.0
 20
0.0
 30
0.0
  3
*D12
  1

  0
LINE
  5
D9
100
AcDbEntity
  8
寸法
370
              -2
390
0
  6
Continuous
 62
               0
100
AcDbLine
 10
140.52580000000017
 20
-98.863920000000121
 30
0.0
 11
140.52580000000017
 21
-114.86392000000012
 31
0.0
  0
LINE
  5
DA
100
AcDbEntity
  8
寸法
370
              -2
390
0
  6
Continuous
 62
               0
100
AcDbLine
 10
150.52580000000017
 20
-105.0408000000001
 30
0.0
 11
150.52580000000017
 21
-114.86392000000012
 31
0.0
  0
LINE
  5
DB
100
AcDbEntity
  8
寸法
370
              -2
390
0
  6
Continuous
 62
               0
100
AcDbLine
 10
150.52580000000017
 20
-110.86392000000012
 30
0.0
 11
140.52580000000017
 21
-110.86392000000012
 31
0.0
  0
LINE
  5
DC
100
AcDbEntity
  8
寸法
370
              -2
390
0
  6
Continuous
 62
               0
100
AcDbLine
 10
140.52580000000017
 20
-110.86392000000012
 30
0.0
 11
132.52580000000017
 21
-110.86392000000012
 31
0.0
  0
SOLID
  5
DD
100
AcDbEntity
  8
寸法
370
              -2
390
0
 62
               0
100
AcDbTrace
 10
140.52580000000017
 20
-110.86392000000012
 30
0.0
 11
134.52306562500019
 21
-112.13984057936857
 31
0.0
 12
134.52306562500019
 22
-109.58799942063168
 32
0.0
 13
134.52306562500019
 23
-109.58799942063168
 33
0.0
  0
LINE
  5
DE
100
AcDbEntity
  8
寸法
370
              -2
390
0
  6
Continuous
 62
               0
100
AcDbLine
 10
150.52580000000017
 20
-110.86392000000012
 30
0.0
 11
158.52580000000017
 21
-110.86392000000012
 31
0.0
  0
SOLID
  5
DF
100
AcDbEntity
  8
寸法
370
              -2
390
0
 62
               0
100
AcDbTrace
 10
150.52580000000017
 20
-110.86392000000012
 30
0.0
 11
156.52853437500016
 21
-109.58799942063168
 31
0.0
 12
156.52853437500016
 22
-112.13984057936857
 32
0.0
 13
156.52853437500016
 23
-112.13984057936857
 33
0.0
  0
MTEXT
  5
E0
100
AcDbEntity
  8
寸法
390
0
 62
               0
100
AcDbMText
 10
139.17580000000018
 20
-100.32467000000011
 30
0.0
 40
8.7312499999999993
 41
0.0
 71
               1
 72
               1
  1
10
  7
ＭＳ Ｐゴシック
 73
               1
 44
0.8762322015334064
  0
POINT
  5
E1
100
AcDbEntity
  8
Defpoints
370
               0
390
0
 62
               0
100
AcDbPoint
 10
150.52580000000017
 20
-101.0408000000001
 30
0.0
  0
POINT
  5
E2
100
AcDbEntity
  8
Defpoints
370
               0
390
0
 62
               0
100
AcDbPoint
 10
140.52580000000017
 20
-94.863920000000121
 30
0.0
  0
POINT
  5
E3
100
AcDbEntity
  8
Defpoints
370
               0
390
0
 62
               0
100
AcDbPoint
 10
140.52580000000017
 20
-110.86392000000012
 30
0.0
  0
ENDBLK
  5
E4
100
AcDbEntity
  8
寸法
390
0
100
AcDbBlockEnd
  0
BLOCK
  5
E5
100
AcDbEntity
  8
寸法
390
0
100
AcDbBlockBegin
  2
*D13
 70
               1
 10
0.0
 20
0.0
 30
0.0
  3
*D13
  1

  0
LINE
  5
E6
100
AcDbEntity
  8
寸法
370
              -2
390
0
  6
Continuous
 62
               0
100
AcDbLine
 10
150.52580000000017
 20
-105.0408000000001
 30
0.0
 11
150.52580000000017
 21
-114.86392000000011
 31
0.0
  0
LINE
  5
E7
100
AcDbEntity
  8
寸法
370
              -2
390
0
  6
Continuous
 62
               0
100
AcDbLine
 10
210.52580000000017
 20
-104.09512000000018
 30
0.0
 11
210.52580000000017
 21
-114.86392000000011
 31
0.0
  0
LINE
  5
E8
100
AcDbEntity
  8
寸法
370
              -2
390
0
  6
Continuous
 62
               0
100
AcDbLine
 10
150.52580000000017
 20
-110.86392000000011
 30
0.0
 11
210.52580000000017
 21
-110.86392000000011
 31
0.0
  0
SOLID
  5
E9
100
AcDbEntity
  8
寸法
370
              -2
390
0
 62
               0
100
AcDbTrace
 10
150.52580000000017
 20
-110.86392000000011
 30
0.0
 11
156.52853437500016
 21
-109.58799942063166
 31
0.0
 12
156.52853437500016
 22
-112.13984057936855
 32
0.0
 13
156.52853437500016
 23
-112.13984057936855
 33
0.0
  0
SOLID
  5
EA
100
AcDbEntity
  8
寸法
370
              -2
390
0
 62
               0
100
AcDbTrace
 10
210.52580000000017
 20
-110.86392000000011
 30
0.0
 11
204.52306562500019
 21
-112.13984057936855
 31
0.0
 12
204.52306562500019
 22
-109.58799942063166
 32
0.0
 13
204.52306562500019
 23
-109.58799942063166
 33
0.0
  0
MTEXT
  5
EB
100
AcDbEntity
  8
寸法
390
0
 62
               0
100
AcDbMText
 10
174.17580000000018
 20
-100.3246700000001
 30
0.0
 40
8.7312499999999993
 41
0.0
 71
               1
 72
               1
  1
60
  7
ＭＳ Ｐゴシック
 73
               1
 44
0.8762322015334064
  0
POINT
  5
EC
100
AcDbEntity
  8
Defpoints
370
               0
390
0
 62
               0
100
AcDbPoint
 10
210.52580000000017
 20
-100.09512000000018
 30
0.0
  0
POINT
  5
ED
100
AcDbEntity
  8
Defpoints
370
               0
390
0
 62
               0
100
AcDbPoint
 10
150.52580000000017
 20
-101.0408000000001
 30
0.0
  0
POINT
  5
EE
100
AcDbEntity
  8
Defpoints
370
               0
390
0
 62
               0
100
AcDbPoint
 10
150.52580000000017
 20
-110.86392000000011
 30
0.0
  0
ENDBLK
  5
EF
100
AcDbEntity
  8
寸法
390
0
100
AcDbBlockEnd
  0
BLOCK
  5
F0
100
AcDbEntity
  8
寸法
390
0
100
AcDbBlockBegin
  2
*D14
 70
               1
 10
0.0
 20
0.0
 30
0.0
  3
*D14
  1

  0
LINE
  5
F1
100
AcDbEntity
  8
寸法
370
              -2
390
0
  6
Continuous
 62
               0
100
AcDbLine
 10
210.52580000000017
 20
-103.81142269189635
 30
0.0
 11
210.52580000000017
 21
-114.86392000000018
 31
0.0
  0
LINE
  5
F2
100
AcDbEntity
  8
寸法
370
              -2
390
0
  6
Continuous
 62
               0
100
AcDbLine
 10
220.5667999999998
 20
-98.037920000000099
 30
0.0
 11
220.5667999999998
 21
-114.86392000000018
 31
0.0
  0
LINE
  5
F3
100
AcDbEntity
  8
寸法
370
              -2
390
0
  6
Continuous
 62
               0
100
AcDbLine
 10
220.5667999999998
 20
-110.86392000000018
 30
0.0
 11
210.52580000000017
 21
-110.86392000000018
 31
0.0
  0
LINE
  5
F4
100
AcDbEntity
  8
寸法
370
              -2
390
0
  6
Continuous
 62
               0
100
AcDbLine
 10
210.52580000000017
 20
-110.86392000000018
 30
0.0
 11
202.52580000000017
 21
-110.86392000000018
 31
0.0
  0
SOLID
  5
F5
100
AcDbEntity
  8
寸法
370
              -2
390
0
 62
               0
100
AcDbTrace
 10
210.52580000000017
 20
-110.86392000000018
 30
0.0
 11
204.52306562500019
 21
-112.13984057936862
 31
0.0
 12
204.52306562500019
 22
-109.58799942063173
 32
0.0
 13
204.52306562500019
 23
-109.58799942063173
 33
0.0
  0
LINE
  5
F6
100
AcDbEntity
  8
寸法
370
              -2
390
0
  6
Continuous
 62
               0
100
AcDbLine
 10
220.5667999999998
 20
-110.86392000000018
 30
0.0
 11
228.5667999999998
 21
-110.86392000000018
 31
0.0
  0
SOLID
  5
F7
100
AcDbEntity
  8
寸法
370
              -2
390
0
 62
               0
100
AcDbTrace
 10
220.5667999999998
 20
-110.86392000000018
 30
0.0
 11
226.56953437499979
 21
-109.58799942063173
 31
0.0
 12
226.56953437499979
 22
-112.13984057936862
 32
0.0
 13
226.56953437499979
 23
-112.13984057936862
 33
0.0
  0
MTEXT
  5
F8
100
AcDbEntity
  8
寸法
390
0
 62
               0
100
AcDbMText
 10
209.19629999999998
 20
-100.32467000000017
 30
0.0
 40
8.7312499999999993
 41
0.0
 71
               1
 72
               1
  1
10
  7
ＭＳ Ｐゴシック
 73
               1
 44
0.8762322015334064
  0
POINT
  5
F9
100
AcDbEntity
  8
Defpoints
370
               0
390
0
 62
               0
100
AcDbPoint
 10
220.5667999999998
 20
-94.037920000000099
 30
0.0
  0
POINT
  5
FA
100
AcDbEntity
  8
Defpoints
370
               0
390
0
 62
               0
100
AcDbPoint
 10
210.52580000000017
 20
-99.811422691896354
 30
0.0
  0
POINT
  5
FB
100
AcDbEntity
  8
Defpoints
370
               0
390
0
 62
               0
100
AcDbPoint
 10
210.52580000000017
 20
-110.86392000000018
 30
0.0
  0
ENDBLK
  5
FC
100
AcDbEntity
  8
寸法
390
0
100
AcDbBlockEnd
  0
BLOCK
  5
FD
100
AcDbEntity
  8
寸法
390
0
100
AcDbBlockBegin
  2
*D15
 70
               1
 10
0.0
 20
0.0
 30
0.0
  3
*D15
  1

  0
LINE
  5
FE
100
AcDbEntity
  8
寸法
370
              -2
390
0
  6
Continuous
 62
               0
100
AcDbLine
 10
186.0
 20
52.036799999999857
 30
0.0
 11
192.0
 21
52.036799999999857
 31
0.0
  0
LINE
  5
FF
100
AcDbEntity
  8
寸法
370
              -2
390
0
  6
Continuous
 62
               0
100
AcDbLine
 10
186.0
 20
-94.037920000000099
 30
0.0
 11
192.0
 21
-94.037920000000099
 31
0.0
  0
LINE
  5
100
100
AcDbEntity
  8
寸法
370
              -2
390
0
  6
Continuous
 62
               0
100
AcDbLine
 10
188.0
 20
52.036799999999857
 30
0.0
 11
188.0
 21
-94.037920000000099
 31
0.0
  0
SOLID
  5
101
100
AcDbEntity
  8
寸法
370
              -2
390
0
 62
               0
100
AcDbTrace
 10
188.0
 20
52.036799999999857
 30
0.0
 11
189.27592057936846
 21
46.034065624999855
 31
0.0
 12
186.72407942063154
 22
46.034065624999862
 32
0.0
 13
186.72407942063154
 23
46.034065624999862
 33
0.0
  0
SOLID
  5
102
100
AcDbEntity
  8
寸法
370
              -2
390
0
 62
               0
100
AcDbTrace
 10
188.0
 20
-94.037920000000099
 30
0.0
 11
186.72407942063154
 21
-88.035185625000096
 31
0.0
 12
189.27592057936846
 22
-88.035185625000096
 32
0.0
 13
189.27592057936846
 23
-88.035185625000096
 33
0.0
  0
MTEXT
  5
103
100
AcDbEntity
  8
寸法
390
0
 62
               0
100
AcDbMText
 10
177.46074999999999
 20
-16.389728851581275
 30
0.0
 40
8.7312499999999993
 41
0.0
 71
               1
 72
               1
  1
146
  7
ＭＳ Ｐゴシック
 11
0.0
 21
1.0
 31
0.0
 73
               1
 44
0.8762322015334064
  0
POINT
  5
104
100
AcDbEntity
  8
Defpoints
370
               0
390
0
 62
               0
100
AcDbPoint
 10
182.0
 20
-94.037920000000099
 30
0.0
  0
POINT
  5
105
100
AcDbEntity
  8
Defpoints
370
               0
390
0
 62
               0
100
AcDbPoint
 10
182.0
 20
52.036799999999857
 30
0.0
  0
POINT
  5
106
100
AcDbEntity
  8
Defpoints
370
               0
390
0
 62
               0
100
AcDbPoint
 10
188.0
 20
52.036799999999857
 30
0.0
  0
ENDBLK
  5
107
100
AcDbEntity
  8
寸法
390
0
100
AcDbBlockEnd
  0
BLOCK
  5
108
100
AcDbEntity
  8
寸法
390
0
100
AcDbBlockBegin
  2
*D16
 70
               1
 10
0.0
 20
0.0
 30
0.0
  3
*D16
  1

  0
LINE
  5
109
100
AcDbEntity
  8
寸法
370
              -2
390
0
  6
Continuous
 62
               0
100
AcDbLine
 10
126.51872000000003
 20
82.850479999999834
 30
0.0
 11
126.51872000000003
 21
101.13607999999984
 31
0.0
  0
LINE
  5
10A
100
AcDbEntity
  8
寸法
370
              -2
390
0
  6
Continuous
 62
               0
100
AcDbLine
 10
164.53811999999999
 20
93.136079999999822
 30
0.0
 11
164.53811999999999
 21
101.13607999999984
 31
0.0
  0
LINE
  5
10B
100
AcDbEntity
  8
寸法
370
              -2
390
0
  6
Continuous
 62
               0
100
AcDbLine
 10
126.51872000000003
 20
97.136079999999836
 30
0.0
 11
164.53811999999999
 21
97.136079999999836
 31
0.0
  0
SOLID
  5
10C
100
AcDbEntity
  8
寸法
370
              -2
390
0
 62
               0
100
AcDbTrace
 10
126.51872000000003
 20
97.136079999999836
 30
0.0
 11
132.52145437500002
 21
98.412000579368282
 31
0.0
 12
132.52145437500002
 22
95.860159420631391
 32
0.0
 13
132.52145437500002
 23
95.860159420631391
 33
0.0
  0
SOLID
  5
10D
100
AcDbEntity
  8
寸法
370
              -2
390
0
 62
               0
100
AcDbTrace
 10
164.53811999999999
 20
97.136079999999836
 30
0.0
 11
158.535385625
 21
95.860159420631391
 31
0.0
 12
158.535385625
 22
98.412000579368282
 32
0.0
 13
158.535385625
 23
98.412000579368282
 33
0.0
  0
MTEXT
  5
10E
100
AcDbEntity
  8
寸法
390
0
 62
               0
100
AcDbMText
 10
139.17842000000002
 20
107.67532999999985
 30
0.0
 40
8.7312499999999993
 41
0.0
 71
               1
 72
               1
  1
38
  7
ＭＳ Ｐゴシック
 73
               1
 44
0.8762322015334064
  0
POINT
  5
10F
100
AcDbEntity
  8
Defpoints
370
               0
390
0
 62
               0
100
AcDbPoint
 10
164.53811999999999
 20
89.136079999999822
 30
0.0
  0
POINT
  5
110
100
AcDbEntity
  8
Defpoints
370
               0
390
0
 62
               0
100
AcDbPoint
 10
126.51872000000003
 20
78.850479999999834
 30
0.0
  0
POINT
  5
111
100
AcDbEntity
  8
Defpoints
370
               0
390
0
 62
               0
100
AcDbPoint
 10
126.51872000000003
 20
97.136079999999836
 30
0.0
  0
ENDBLK
  5
112
100
AcDbEntity
  8
寸法
390
0
100
AcDbBlockEnd
  0
BLOCK
  5
113
100
AcDbEntity
  8
寸法
390
0
100
AcDbBlockBegin
  2
*D17
 70
               1
 10
0.0
 20
0.0
 30
0.0
  3
*D17
  1

  0
LINE
  5
114
100
AcDbEntity
  8
寸法
370
              -2
390
0
  6
Continuous
 62
               0
100
AcDbLine
 10
167.10632000000004
 20
62.215079999999944
 30
0.0
 11
179.00006719048699
 21
106.93169641602529
 31
0.0
  0
SOLID
  5
115
100
AcDbEntity
  8
寸法
370
              -2
390
0
 62
               0
100
AcDbTrace
 10
167.10632000000004
 20
62.215079999999944
 30
0.0
 11
167.42749733903591
 21
68.343508707144409
 31
0.0
 12
169.89238661884733
 22
67.683043615186818
 32
0.0
 13
169.89238661884733
 23
67.683043615186818
 33
0.0
  0
LINE
  5
116
100
AcDbEntity
  8
寸法
370
              -2
390
0
  6
Continuous
 62
               0
100
AcDbLine
 10
179.00006719048699
 20
106.93169641602529
 30
0.0
 11
183.00006719048699
 21
106.93169641602529
 31
0.0
  0
MTEXT
  5
117
100
AcDbEntity
  8
寸法
390
0
 62
               0
100
AcDbMText
 10
183.00006719048699
 20
111.0909464160253
 30
0.0
 40
8.7312499999999993
 41
0.0
 71
               1
 72
               1
  1
2-φ21電線口×2ヶ
  7
ＭＳ Ｐゴシック
 73
               1
 44
0.8762322015334064
  0
POINT
  5
118
100
AcDbEntity
  8
Defpoints
370
               0
390
0
 62
               0
100
AcDbPoint
 10
161.7083200000001
 20
41.920679999999948
 30
0.0
  0
POINT
  5
119
100
AcDbEntity
  8
Defpoints
370
               0
390
0
 62
               0
100
AcDbPoint
 10
167.10632000000004
 20
62.215079999999944
 30
0.0
  0
ENDBLK
  5
11A
100
AcDbEntity
  8
寸法
390
0
100
AcDbBlockEnd
  0
BLOCK
  5
11B
100
AcDbEntity
  8
寸法
390
0
100
AcDbBlockBegin
  2
*D18
 70
               1
 10
0.0
 20
0.0
 30
0.0
  3
*D18
  1

  0
LINE
  5
11C
100
AcDbEntity
  8
寸法
370
              -2
390
0
  6
Continuous
 62
               0
100
AcDbLine
 10
126.51872000000003
 20
82.850479999999834
 30
0.0
 11
126.51872000000003
 21
121.13607999999984
 31
0.0
  0
LINE
  5
11D
100
AcDbEntity
  8
寸法
370
              -2
390
0
  6
Continuous
 62
               0
100
AcDbLine
 10
312.6037199999999
 20
68.136079999999879
 30
0.0
 11
312.6037199999999
 21
121.13607999999984
 31
0.0
  0
LINE
  5
11E
100
AcDbEntity
  8
寸法
370
              -2
390
0
  6
Continuous
 62
               0
100
AcDbLine
 10
126.51872000000003
 20
117.13607999999984
 30
0.0
 11
312.6037199999999
 21
117.13607999999984
 31
0.0
  0
SOLID
  5
11F
100
AcDbEntity
  8
寸法
370
              -2
390
0
 62
               0
100
AcDbTrace
 10
126.51872000000003
 20
117.13607999999984
 30
0.0
 11
132.52145437500002
 21
118.41200057936828
 31
0.0
 12
132.52145437500002
 22
115.86015942063139
 32
0.0
 13
132.52145437500002
 23
115.86015942063139
 33
0.0
  0
SOLID
  5
120
100
AcDbEntity
  8
寸法
370
              -2
390
0
 62
               0
100
AcDbTrace
 10
312.6037199999999
 20
117.13607999999984
 30
0.0
 11
306.60098562499991
 21
115.86015942063139
 31
0.0
 12
306.60098562499991
 22
118.41200057936828
 32
0.0
 13
306.60098562499991
 23
118.41200057936828
 33
0.0
  0
MTEXT
  5
121
100
AcDbEntity
  8
寸法
390
0
 62
               0
100
AcDbMText
 10
210.03621932712974
 20
127.67532999999985
 30
0.0
 40
8.7312499999999993
 41
0.0
 71
               1
 72
               1
  1
186
  7
ＭＳ Ｐゴシック
 73
               1
 44
0.8762322015334064
  0
POINT
  5
122
100
AcDbEntity
  8
Defpoints
370
               0
390
0
 62
               0
100
AcDbPoint
 10
312.6037199999999
 20
64.136079999999879
 30
0.0
  0
POINT
  5
123
100
AcDbEntity
  8
Defpoints
370
               0
390
0
 62
               0
100
AcDbPoint
 10
126.51872000000003
 20
78.850479999999834
 30
0.0
  0
POINT
  5
124
100
AcDbEntity
  8
Defpoints
370
               0
390
0
 62
               0
100
AcDbPoint
 10
126.51872000000003
 20
117.13607999999984
 30
0.0
  0
ENDBLK
  5
125
100
AcDbEntity
  8
寸法
390
0
100
AcDbBlockEnd
  0
BLOCK
  5
126
100
AcDbEntity
  8
寸法
390
0
100
AcDbBlockBegin
  2
*D19
 70
               1
 10
0.0
 20
0.0
 30
0.0
  3
*D19
  1

  0
LINE
  5
127
100
AcDbEntity
  8
寸法
370
              -2
390
0
  6
Continuous
 62
               0
100
AcDbLine
 10
91.060519999999826
 20
103.32227999999992
 30
0.0
 11
91.060519999999826
 21
121.13607999999992
 31
0.0
  0
LINE
  5
128
100
AcDbEntity
  8
寸法
370
              -2
390
0
  6
Continuous
 62
               0
100
AcDbLine
 10
126.51872000000003
 20
82.850479999999834
 30
0.0
 11
126.51872000000003
 21
121.13607999999992
 31
0.0
  0
LINE
  5
129
100
AcDbEntity
  8
寸法
370
              -2
390
0
  6
Continuous
 62
               0
100
AcDbLine
 10
91.060519999999826
 20
117.13607999999992
 30
0.0
 11
126.51872000000003
 21
117.13607999999992
 31
0.0
  0
SOLID
  5
12A
100
AcDbEntity
  8
寸法
370
              -2
390
0
 62
               0
100
AcDbTrace
 10
91.060519999999826
 20
117.13607999999992
 30
0.0
 11
97.063254374999829
 21
118.41200057936837
 31
0.0
 12
97.063254374999829
 22
115.86015942063148
 32
0.0
 13
97.063254374999829
 23
115.86015942063148
 33
0.0
  0
SOLID
  5
12B
100
AcDbEntity
  8
寸法
370
              -2
390
0
 62
               0
100
AcDbTrace
 10
126.51872000000003
 20
117.13607999999992
 30
0.0
 11
120.51598562500003
 21
115.86015942063148
 31
0.0
 12
120.51598562500003
 22
118.41200057936837
 32
0.0
 13
120.51598562500003
 23
118.41200057936837
 33
0.0
  0
MTEXT
  5
12C
100
AcDbEntity
  8
寸法
390
0
 62
               0
100
AcDbMText
 10
102.43961999999993
 20
127.67532999999993
 30
0.0
 40
8.7312499999999993
 41
0.0
 71
               1
 72
               1
  1
35
  7
ＭＳ Ｐゴシック
 73
               1
 44
0.8762322015334064
  0
POINT
  5
12D
100
AcDbEntity
  8
Defpoints
370
               0
390
0
 62
               0
100
AcDbPoint
 10
126.51872000000003
 20
78.850479999999834
 30
0.0
  0
POINT
  5
12E
100
AcDbEntity
  8
Defpoints
370
               0
390
0
 62
               0
100
AcDbPoint
 10
91.060519999999826
 20
99.322279999999921
 30
0.0
  0
POINT
  5
12F
100
AcDbEntity
  8
Defpoints
370
               0
390
0
 62
               0
100
AcDbPoint
 10
91.060519999999826
 20
117.13607999999992
 30
0.0
  0
ENDBLK
  5
130
100
AcDbEntity
  8
寸法
390
0
100
AcDbBlockEnd
  0
BLOCK
  5
131
100
AcDbEntity
  8
寸法
390
0
100
AcDbBlockBegin
  2
*D20
 70
               1
 10
0.0
 20
0.0
 30
0.0
  3
*D20
  1

  0
LINE
  5
132
100
AcDbEntity
  8
寸法
370
              -2
390
0
  6
Continuous
 62
               0
100
AcDbLine
 10
82.555719999999923
 20
69.188479999999913
 30
0.0
 11
82.555719999999923
 21
121.13607999999992
 31
0.0
  0
LINE
  5
133
100
AcDbEntity
  8
寸法
370
              -2
390
0
  6
Continuous
 62
               0
100
AcDbLine
 10
91.060519999999826
 20
103.53299999999996
 30
0.0
 11
91.060519999999826
 21
121.13607999999992
 31
0.0
  0
LINE
  5
134
100
AcDbEntity
  8
寸法
370
              -2
390
0
  6
Continuous
 62
               0
100
AcDbLine
 10
91.060519999999826
 20
117.13607999999992
 30
0.0
 11
82.555719999999923
 21
117.13607999999992
 31
0.0
  0
LINE
  5
135
100
AcDbEntity
  8
寸法
370
              -2
390
0
  6
Continuous
 62
               0
100
AcDbLine
 10
82.555719999999923
 20
117.13607999999992
 30
0.0
 11
74.650000000000006
 21
117.13607999999992
 31
0.0
  0
SOLID
  5
136
100
AcDbEntity
  8
寸法
370
              -2
390
0
 62
               0
100
AcDbTrace
 10
82.555719999999923
 20
117.13607999999992
 30
0.0
 11
76.55298562499992
 21
115.86015942063148
 31
0.0
 12
76.55298562499992
 22
118.41200057936837
 32
0.0
 13
76.55298562499992
 23
118.41200057936837
 33
0.0
  0
LINE
  5
137
100
AcDbEntity
  8
寸法
370
              -2
390
0
  6
Continuous
 62
               0
100
AcDbLine
 10
91.060519999999826
 20
117.13607999999992
 30
0.0
 11
99.060519999999826
 21
117.13607999999992
 31
0.0
  0
SOLID
  5
138
100
AcDbEntity
  8
寸法
370
              -2
390
0
 62
               0
100
AcDbTrace
 10
91.060519999999826
 20
117.13607999999992
 30
0.0
 11
97.063254374999829
 21
118.41200057936837
 31
0.0
 12
97.063254374999829
 22
115.86015942063148
 32
0.0
 13
97.063254374999829
 23
115.86015942063148
 33
0.0
  0
MTEXT
  5
139
100
AcDbEntity
  8
寸法
390
0
 62
               0
100
AcDbMText
 10
74.650000000000006
 20
127.67532999999993
 30
0.0
 40
8.7312499999999993
 41
0.0
 71
               1
 72
               1
  1
9
  7
ＭＳ Ｐゴシック
 73
               1
 44
0.8762322015334064
  0
POINT
  5
13A
100
AcDbEntity
  8
Defpoints
370
               0
390
0
 62
               0
100
AcDbPoint
 10
91.060519999999826
 20
99.532999999999959
 30
0.0
  0
POINT
  5
13B
100
AcDbEntity
  8
Defpoints
370
               0
390
0
 62
               0
100
AcDbPoint
 10
82.555719999999923
 20
65.188479999999913
 30
0.0
  0
POINT
  5
13C
100
AcDbEntity
  8
Defpoints
370
               0
390
0
 62
               0
100
AcDbPoint
 10
82.555719999999923
 20
117.13607999999992
 30
0.0
  0
ENDBLK
  5
13D
100
AcDbEntity
  8
寸法
390
0
100
AcDbBlockEnd
  0
BLOCK
  5
13E
100
AcDbEntity
  8
寸法
390
0
100
AcDbBlockBegin
  2
*D21
 70
               1
 10
0.0
 20
0.0
 30
0.0
  3
*D21
  1

  0
LINE
  5
13F
100
AcDbEntity
  8
寸法
370
              -2
390
0
  6
Continuous
 62
               0
100
AcDbLine
 10
58.043079999999833
 20
90.304079999999857
 30
0.0
 11
58.043079999999833
 21
141.13611999999995
 31
0.0
  0
LINE
  5
140
100
AcDbEntity
  8
寸法
370
              -2
390
0
  6
Continuous
 62
               0
100
AcDbLine
 10
312.6037199999999
 20
68.136079999999879
 30
0.0
 11
312.6037199999999
 21
141.13611999999995
 31
0.0
  0
LINE
  5
141
100
AcDbEntity
  8
寸法
370
              -2
390
0
  6
Continuous
 62
               0
100
AcDbLine
 10
58.043079999999833
 20
137.13611999999995
 30
0.0
 11
312.6037199999999
 21
137.13611999999995
 31
0.0
  0
SOLID
  5
142
100
AcDbEntity
  8
寸法
370
              -2
390
0
 62
               0
100
AcDbTrace
 10
58.043079999999833
 20
137.13611999999995
 30
0.0
 11
64.045814374999836
 21
138.41204057936841
 31
0.0
 12
64.045814374999836
 22
135.86019942063149
 32
0.0
 13
64.045814374999836
 23
135.86019942063149
 33
0.0
  0
SOLID
  5
143
100
AcDbEntity
  8
寸法
370
              -2
390
0
 62
               0
100
AcDbTrace
 10
312.6037199999999
 20
137.13611999999995
 30
0.0
 11
306.60098562499991
 21
135.86019942063149
 31
0.0
 12
306.60098562499991
 22
138.41204057936841
 32
0.0
 13
306.60098562499991
 23
138.41204057936841
 33
0.0
  0
MTEXT
  5
144
100
AcDbEntity
  8
寸法
390
0
 62
               0
100
AcDbMText
 10
175.79839932712966
 20
147.67536999999993
 30
0.0
 40
8.7312499999999993
 41
0.0
 71
               1
 72
               1
  1
255
  7
ＭＳ Ｐゴシック
 73
               1
 44
0.8762322015334064
  0
POINT
  5
145
100
AcDbEntity
  8
Defpoints
370
               0
390
0
 62
               0
100
AcDbPoint
 10
312.6037199999999
 20
64.136079999999879
 30
0.0
  0
POINT
  5
146
100
AcDbEntity
  8
Defpoints
370
               0
390
0
 62
               0
100
AcDbPoint
 10
58.043079999999833
 20
86.304079999999857
 30
0.0
  0
POINT
  5
147
100
AcDbEntity
  8
Defpoints
370
               0
390
0
 62
               0
100
AcDbPoint
 10
58.043079999999833
 20
137.13611999999995
 30
0.0
  0
ENDBLK
  5
148
100
AcDbEntity
  8
寸法
390
0
100
AcDbBlockEnd
  0
BLOCK
  5
149
100
AcDbEntity
  8
寸法
390
0
100
AcDbBlockBegin
  2
*D22
 70
               1
 10
0.0
 20
0.0
 30
0.0
  3
*D22
  1

  0
LINE
  5
14A
100
AcDbEntity
  8
寸法
370
              -2
390
0
  6
Continuous
 62
               0
100
AcDbLine
 10
78.0
 20
-20.0
 30
0.0
 11
19.000000000000021
 21
-20.0
 31
0.0
  0
LINE
  5
14B
100
AcDbEntity
  8
寸法
370
              -2
390
0
  6
Continuous
 62
               0
100
AcDbLine
 10
57.236400000000145
 20
80.00087999999991
 30
0.0
 11
19.000000000000021
 21
80.00087999999991
 31
0.0
  0
LINE
  5
14C
100
AcDbEntity
  8
寸法
370
              -2
390
0
  6
Continuous
 62
               0
100
AcDbLine
 10
23.000000000000021
 20
-20.0
 30
0.0
 11
23.000000000000021
 21
80.00087999999991
 31
0.0
  0
SOLID
  5
14D
100
AcDbEntity
  8
寸法
370
              -2
390
0
 62
               0
100
AcDbTrace
 10
23.000000000000021
 20
-20.0
 30
0.0
 11
21.724079420631572
 21
-13.997265625000001
 31
0.0
 12
24.275920579368471
 22
-13.997265625000001
 32
0.0
 13
24.275920579368471
 23
-13.997265625000001
 33
0.0
  0
SOLID
  5
14E
100
AcDbEntity
  8
寸法
370
              -2
390
0
 62
               0
100
AcDbTrace
 10
23.000000000000021
 20
80.00087999999991
 30
0.0
 11
24.275920579368471
 21
73.998145624999907
 31
0.0
 12
21.724079420631568
 22
73.998145624999907
 32
0.0
 13
21.724079420631568
 23
73.998145624999907
 33
0.0
  0
MTEXT
  5
14F
100
AcDbEntity
  8
寸法
390
0
 62
               0
100
AcDbMText
 10
12.460750000000022
 20
6.6959381697929814
 30
0.0
 40
8.7312499999999993
 41
0.0
 71
               1
 72
               1
  1
MAX.100
  7
ＭＳ Ｐゴシック
 11
0.0
 21
1.0
 31
0.0
 73
               1
 44
0.8762322015334064
  0
POINT
  5
150
100
AcDbEntity
  8
Defpoints
370
               0
390
0
 62
               0
100
AcDbPoint
 10
61.236400000000145
 20
80.00087999999991
 30
0.0
  0
POINT
  5
151
100
AcDbEntity
  8
Defpoints
370
               0
390
0
 62
               0
100
AcDbPoint
 10
82.0
 20
-20.0
 30
0.0
  0
POINT
  5
152
100
AcDbEntity
  8
Defpoints
370
               0
390
0
 62
               0
100
AcDbPoint
 10
23.000000000000021
 20
-20.0
 30
0.0
  0
ENDBLK
  5
153
100
AcDbEntity
  8
寸法
390
0
100
AcDbBlockEnd
  0
BLOCK
  5
154
100
AcDbEntity
  8
寸法
390
0
100
AcDbBlockBegin
  2
*D23
 70
               1
 10
0.0
 20
0.0
 30
0.0
  3
*D23
  1

  0
LINE
  5
155
100
AcDbEntity
  8
寸法
370
              -2
390
0
  6
Continuous
 62
               0
100
AcDbLine
 10
82.159608095369919
 20
75.48773310023293
 30
0.0
 11
80.999999999999957
 21
33.096022681433574
 31
0.0
  0
SOLID
  5
156
100
AcDbEntity
  8
寸法
370
              -2
390
0
 62
               0
100
AcDbTrace
 10
82.159608095369919
 20
75.48773310023293
 30
0.0
 11
83.225259009869333
 21
69.44412644277341
 31
0.0
 12
80.674972363817901
 22
69.53318441487805
 32
0.0
 13
80.674972363817901
 23
69.53318441487805
 33
0.0
  0
LINE
  5
157
100
AcDbEntity
  8
寸法
370
              -2
390
0
  6
Continuous
 62
               0
100
AcDbLine
 10
80.999999999999957
 20
33.096022681433574
 30
0.0
 11
76.999999999999957
 21
33.096022681433574
 31
0.0
  0
MTEXT
  5
158
100
AcDbEntity
  8
寸法
390
0
 62
               0
100
AcDbMText
 10
49.059998385111456
 20
37.255272681433581
 30
0.0
 40
8.7312499999999993
 41
0.0
 71
               1
 72
               1
  1
φ8.5
  7
ＭＳ Ｐゴシック
 73
               1
 44
0.8762322015334064
  0
POINT
  5
159
100
AcDbEntity
  8
Defpoints
370
               0
390
0
 62
               0
100
AcDbPoint
 10
82.383831904629915
 20
83.684666899768985
 30
0.0
  0
POINT
  5
15A
100
AcDbEntity
  8
Defpoints
370
               0
390
0
 62
               0
100
AcDbPoint
 10
82.159608095369919
 20
75.48773310023293
 30
0.0
  0
ENDBLK
  5
15B
100
AcDbEntity
  8
寸法
390
0
100
AcDbBlockEnd
  0
ENDSEC
  0
SECTION
  2
ENTITIES
  0
WIPEOUT
  5
15C
100
AcDbEntity
  8
一般
370
               5
390
0
  6
Continuous
 62
               7
 92
        0
100
AcDbWipeout
 90
        0
 10
239.59052000000011
 20
-0.9809200000001965
 30
0.0
 11
54.999999999999972
 21
0.0
 31
0.0
 12
0.0
 22
54.999999999999972
 32
0.0
 13
1.0
 23
1.0
340
0
 70
               7
280
               1
281
              50
282
              50
283
               0
360
0
 71
               2
 91
        5
 14
-0.5
 24
-0.1727272727272731
 14
0.5
 24
-0.1727272727272731
 14
0.5
 24
0.5
 14
-0.5
 24
0.5
 14
-0.5
 24
-0.1727272727272731
  0
POLYLINE
  5
15D
100
AcDbEntity
  8
一般
370
               5
390
0
  6
Continuous
 62
               7
100
AcDb2dPolyline
 66
               1
 10
0.0
 20
0.0
 30
0.0
 70
               1
 75
               5
  0
VERTEX
  5
15E
100
AcDbEntity
  8
一般
370
               5
390
0
  6
Continuous
 62
               7
100
AcDbVertex
100
AcDb2dVertex
 10
239.59052000000011
 20
36.019079999999803
 30
0.0
  0
VERTEX
  5
15F
100
AcDbEntity
  8
一般
370
               5
390
0
  6
Continuous
 62
               7
100
AcDbVertex
100
AcDb2dVertex
 10
294.59052000000008
 20
36.019079999999803
 30
0.0
  0
VERTEX
  5
160
100
AcDbEntity
  8
一般
370
               5
390
0
  6
Continuous
 62
               7
100
AcDbVertex
100
AcDb2dVertex
 10
294.59052000000008
 20
-0.9809200000001965
 30
0.0
  0
VERTEX
  5
161
100
AcDbEntity
  8
一般
370
               5
390
0
  6
Continuous
 62
               7
100
AcDbVertex
100
AcDb2dVertex
 10
239.59052000000011
 20
-0.9809200000001965
 30
0.0
  0
SEQEND
  5
162
100
AcDbEntity
  8
一般
370
               5
390
0
  6
Continuous
 62
               7
  0
POLYLINE
  5
163
102
{ACAD_REACTORS
330
169
102
}
100
AcDbEntity
  8
一般
370
               5
390
0
  6
Continuous
 62
               7
100
AcDb2dPolyline
 66
               1
 10
0.0
 20
0.0
 30
0.0
 70
               1
 75
               5
  0
VERTEX
  5
164
100
AcDbEntity
  8
一般
370
               5
390
0
  6
Continuous
 62
               7
100
AcDbVertex
100
AcDb2dVertex
 10
223.56831999999994
 20
6.1716799999998102
 30
0.0
  0
VERTEX
  5
165
100
AcDbEntity
  8
一般
370
               5
390
0
  6
Continuous
 62
               7
100
AcDbVertex
100
AcDb2dVertex
 10
230.57191999999998
 20
6.1716799999998102
 30
0.0
  0
VERTEX
  5
166
100
AcDbEntity
  8
一般
370
               5
390
0
  6
Continuous
 62
               7
100
AcDbVertex
100
AcDb2dVertex
 10
230.57191999999998
 20
4.136079999999879
 30
0.0
  0
VERTEX
  5
167
100
AcDbEntity
  8
一般
370
               5
390
0
  6
Continuous
 62
               7
100
AcDbVertex
100
AcDb2dVertex
 10
223.56831999999994
 20
4.136079999999879
 30
0.0
  0
SEQEND
  5
168
100
AcDbEntity
  8
一般
370
               5
390
0
  6
Continuous
 62
               7
  0
HATCH
  5
169
100
AcDbEntity
  8
一般
370
               0
390
0
  6
Continuous
 62
               9
100
AcDbHatch
 10
0.0
 20
0.0
 30
0.0
210
0.0
220
0.0
230
1.0
  2
SOLID
 70
               1
 71
               1
 91
        1
 92
        1
 93
        4
 72
               1
 10
223.56831999999994
 20
6.1716799999998102
 11
230.57191999999998
 21
6.1716799999998102
 72
               1
 10
230.57191999999998
 20
6.1716799999998102
 11
230.57191999999998
 21
4.136079999999879
 72
               1
 10
230.57191999999998
 20
4.136079999999879
 11
223.56831999999994
 21
4.136079999999879
 72
               1
 10
223.56831999999994
 20
4.136079999999879
 11
223.56831999999994
 21
6.1716799999998102
 97
        1
330
163
 75
               0
 76
               1
 98
        1
 10
0.0
 20
0.0
  0
POLYLINE
  5
16A
102
{ACAD_REACTORS
330
170
102
}
100
AcDbEntity
  8
一般
370
               5
390
0
  6
Continuous
 62
               7
100
AcDb2dPolyline
 66
               1
 10
0.0
 20
0.0
 30
0.0
 70
               1
 75
               5
  0
VERTEX
  5
16B
100
AcDbEntity
  8
一般
370
               5
390
0
  6
Continuous
 62
               7
100
AcDbVertex
100
AcDb2dVertex
 10
225.3565999999999
 20
-3.649520000000166
 30
0.0
  0
VERTEX
  5
16C
100
AcDbEntity
  8
一般
370
               5
390
0
  6
Continuous
 62
               7
100
AcDbVertex
100
AcDb2dVertex
 10
232.47191999999995
 20
-3.649520000000166
 30
0.0
  0
VERTEX
  5
16D
100
AcDbEntity
  8
一般
370
               5
390
0
  6
Continuous
 62
               7
100
AcDbVertex
100
AcDb2dVertex
 10
232.47191999999995
 20
-5.6505200000001423
 30
0.0
  0
VERTEX
  5
16E
100
AcDbEntity
  8
一般
370
               5
390
0
  6
Continuous
 62
               7
100
AcDbVertex
100
AcDb2dVertex
 10
225.3565999999999
 20
-5.6505200000001423
 30
0.0
  0
SEQEND
  5
16F
100
AcDbEntity
  8
一般
370
               5
390
0
  6
Continuous
 62
               7
  0
HATCH
  5
170
100
AcDbEntity
  8
一般
370
               0
390
0
  6
Continuous
 62
               1
100
AcDbHatch
 10
0.0
 20
0.0
 30
0.0
210
0.0
220
0.0
230
1.0
  2
SOLID
 70
               1
 71
               1
 91
        1
 92
        1
 93
        4
 72
               1
 10
225.3565999999999
 20
-3.649520000000166
 11
232.47191999999995
 21
-3.649520000000166
 72
               1
 10
232.47191999999995
 20
-3.649520000000166
 11
232.47191999999995
 21
-5.6505200000001423
 72
               1
 10
232.47191999999995
 20
-5.6505200000001423
 11
225.3565999999999
 21
-5.6505200000001423
 72
               1
 10
225.3565999999999
 20
-5.6505200000001423
 11
225.3565999999999
 21
-3.649520000000166
 97
        1
330
16A
 75
               0
 76
               1
 98
        1
 10
0.0
 20
0.0
  0
POLYLINE
  5
171
102
{ACAD_REACTORS
330
177
102
}
100
AcDbEntity
  8
一般
370
               5
390
0
  6
Continuous
 62
               7
100
AcDb2dPolyline
 66
               1
 10
0.0
 20
0.0
 30
0.0
 70
               1
 75
               5
  0
VERTEX
  5
172
100
AcDbEntity
  8
一般
370
               5
390
0
  6
Continuous
 62
               7
100
AcDbVertex
100
AcDb2dVertex
 10
223.56831999999994
 20
-21.995200000000182
 30
0.0
  0
VERTEX
  5
173
100
AcDbEntity
  8
一般
370
               5
390
0
  6
Continuous
 62
               7
100
AcDbVertex
100
AcDb2dVertex
 10
230.57191999999998
 20
-21.995200000000182
 30
0.0
  0
VERTEX
  5
174
100
AcDbEntity
  8
一般
370
               5
390
0
  6
Continuous
 62
               7
100
AcDbVertex
100
AcDb2dVertex
 10
230.57191999999998
 20
-23.85172
 30
0.0
  0
VERTEX
  5
175
100
AcDbEntity
  8
一般
370
               5
390
0
  6
Continuous
 62
               7
100
AcDbVertex
100
AcDb2dVertex
 10
223.56831999999994
 20
-23.85172
 30
0.0
  0
SEQEND
  5
176
100
AcDbEntity
  8
一般
370
               5
390
0
  6
Continuous
 62
               7
  0
HATCH
  5
177
100
AcDbEntity
  8
一般
370
               0
390
0
  6
Continuous
 62
               9
100
AcDbHatch
 10
0.0
 20
0.0
 30
0.0
210
0.0
220
0.0
230
1.0
  2
SOLID
 70
               1
 71
               1
 91
        1
 92
        1
 93
        4
 72
               1
 10
223.56831999999994
 20
-21.995200000000182
 11
230.57191999999998
 21
-21.995200000000182
 72
               1
 10
230.57191999999998
 20
-21.995200000000182
 11
230.57191999999998
 21
-23.85172
 72
               1
 10
230.57191999999998
 20
-23.85172
 11
223.56831999999994
 21
-23.85172
 72
               1
 10
223.56831999999994
 20
-23.85172
 11
223.56831999999994
 21
-21.995200000000182
 97
        1
330
171
 75
               0
 76
               1
 98
        1
 10
0.0
 20
0.0
  0
POLYLINE
  5
178
100
AcDbEntity
  8
一般
370
               5
390
0
  6
STYLE_02
 62
               7
100
AcDb2dPolyline
 66
               1
 10
0.0
 20
0.0
 30
0.0
 70
               1
 75
               5
  0
VERTEX
  5
179
100
AcDbEntity
  8
一般
370
               5
390
0
  6
STYLE_02
 62
               7
100
AcDbVertex
100
AcDb2dVertex
 10
-186.20452000000006
 20
72.34719999999993
 30
0.0
  0
VERTEX
  5
17A
100
AcDbEntity
  8
一般
370
               5
390
0
  6
STYLE_02
 62
               7
100
AcDbVertex
100
AcDb2dVertex
 10
-154.18812000000003
 20
72.34719999999993
 30
0.0
  0
VERTEX
  5
17B
100
AcDbEntity
  8
一般
370
               5
390
0
  6
STYLE_02
 62
               7
100
AcDbVertex
100
AcDb2dVertex
 10
-154.18812000000003
 20
70.045999999999879
 30
0.0
  0
VERTEX
  5
17C
100
AcDbEntity
  8
一般
370
               5
390
0
  6
STYLE_02
 62
               7
100
AcDbVertex
100
AcDb2dVertex
 10
-186.20452000000006
 20
70.045999999999879
 30
0.0
  0
SEQEND
  5
17D
100
AcDbEntity
  8
一般
370
               5
390
0
  6
STYLE_02
 62
               7
  0
LINE
  5
17E
100
AcDbEntity
  8
001
370
               5
390
0
  6
STYLE_13
 62
               7
100
AcDbLine
 10
240.0
 20
-20.0
 30
0.0
 11
-260.0
 21
-20.0
 31
0.0
  0
LINE
  5
17F
100
AcDbEntity
  8
001
370
               5
390
0
 62
               7
100
AcDbLine
 10
125.51820000000006
 20
-12.496200000000158
 30
0.0
 11
125.51820000000006
 21
-27.503920000000107
 31
0.0
  0
LINE
  5
180
100
AcDbEntity
  8
001
370
               5
390
0
 62
               7
100
AcDbLine
 10
232.5627199999999
 20
-85.033320000000117
 30
0.0
 11
232.5627199999999
 21
70.045999999999879
 31
0.0
  0
LINE
  5
181
100
AcDbEntity
  8
001
370
               5
390
0
 62
               7
100
AcDbLine
 10
128.01939999999996
 20
81.831079999999929
 30
0.0
 11
128.01939999999996
 21
80.051199999999881
 31
0.0
  0
ARC
  5
182
100
AcDbEntity
  8
001
370
               5
390
0
 62
               7
100
AcDbCircle
 10
129.32011999999995
 20
81.831079999999929
 30
0.0
 40
1.3006150545030637
100
AcDbArc
 50
106.60135187301482
 51
180.0
  0
ARC
  5
183
100
AcDbEntity
  8
001
370
               5
390
0
 62
               7
100
AcDbCircle
 10
131.52119999999996
 20
74.448279999999954
 30
0.0
 40
9.0045761965791051
100
AcDbArc
 50
73.398025830012216
 51
106.60116972403154
  0
ARC
  5
184
100
AcDbEntity
  8
001
370
               5
390
0
 62
               7
100
AcDbCircle
 10
133.72239999999982
 20
81.831079999999929
 30
0.0
 40
1.300600000000145
100
AcDbArc
 50
0.0
 51
73.398648126973512
  0
LINE
  5
185
100
AcDbEntity
  8
001
370
               5
390
0
 62
               7
100
AcDbLine
 10
135.02299999999997
 20
81.831079999999929
 30
0.0
 11
135.02299999999997
 21
80.051199999999881
 31
0.0
  0
LINE
  5
186
100
AcDbEntity
  8
001
370
               5
390
0
 62
               7
100
AcDbLine
 10
132.50672000000014
 20
82.853199999999902
 30
0.0
 11
131.52119999999996
 21
83.452879999999823
 31
0.0
  0
LINE
  5
187
100
AcDbEntity
  8
001
370
               5
390
0
 62
               7
100
AcDbLine
 10
130.38571999999985
 20
82.853199999999902
 30
0.0
 11
131.52119999999996
 21
83.452879999999823
 31
0.0
  0
LINE
  5
188
100
AcDbEntity
  8
001
370
               5
390
0
 62
               7
100
AcDbLine
 10
128.01939999999996
 20
80.851599999999962
 30
0.0
 11
135.02299999999997
 21
80.851599999999962
 31
0.0
  0
LINE
  5
189
100
AcDbEntity
  8
001
370
               5
390
0
 62
               7
100
AcDbLine
 10
131.04471999999987
 20
80.051199999999881
 30
0.0
 11
131.61419999999998
 21
80.851599999999962
 31
0.0
  0
LINE
  5
18A
100
AcDbEntity
  8
001
370
               5
390
0
 62
               7
100
AcDbLine
 10
131.52119999999996
 20
80.051199999999881
 30
0.0
 11
132.11291999999995
 21
80.851599999999962
 31
0.0
  0
LINE
  5
18B
100
AcDbEntity
  8
001
370
               5
390
0
 62
               7
100
AcDbLine
 10
194.05319999999995
 20
81.831079999999929
 30
0.0
 11
194.05319999999995
 21
80.051199999999881
 31
0.0
  0
ARC
  5
18C
100
AcDbEntity
  8
001
370
               5
390
0
 62
               7
100
AcDbCircle
 10
195.35391999999993
 20
81.831079999999929
 30
0.0
 40
1.3006150545030637
100
AcDbArc
 50
106.60135187301482
 51
180.0
  0
ARC
  5
18D
100
AcDbEntity
  8
001
370
               5
390
0
 62
               7
100
AcDbCircle
 10
197.55499999999995
 20
74.448279999999954
 30
0.0
 40
9.0045761965791051
100
AcDbArc
 50
73.398025830012216
 51
106.60116972403154
  0
ARC
  5
18E
100
AcDbEntity
  8
001
370
               5
390
0
 62
               7
100
AcDbCircle
 10
199.75619999999981
 20
81.831079999999929
 30
0.0
 40
1.300600000000145
100
AcDbArc
 50
0.0
 51
73.398648126974649
  0
LINE
  5
18F
100
AcDbEntity
  8
001
370
               5
390
0
 62
               7
100
AcDbLine
 10
201.05679999999995
 20
81.831079999999929
 30
0.0
 11
201.05679999999995
 21
80.051199999999881
 31
0.0
  0
LINE
  5
190
100
AcDbEntity
  8
001
370
               5
390
0
 62
               7
100
AcDbLine
 10
198.54052000000013
 20
82.853199999999902
 30
0.0
 11
197.55499999999995
 21
83.452879999999823
 31
0.0
  0
LINE
  5
191
100
AcDbEntity
  8
001
370
               5
390
0
 62
               7
100
AcDbLine
 10
196.41939999999994
 20
82.853199999999902
 30
0.0
 11
197.55499999999995
 21
83.452879999999823
 31
0.0
  0
LINE
  5
192
100
AcDbEntity
  8
001
370
               5
390
0
 62
               7
100
AcDbLine
 10
194.05319999999995
 20
80.851599999999962
 30
0.0
 11
201.05679999999995
 21
80.851599999999962
 31
0.0
  0
LINE
  5
193
100
AcDbEntity
  8
001
370
               5
390
0
 62
               7
100
AcDbLine
 10
197.07851999999986
 20
80.051199999999881
 30
0.0
 11
197.64799999999997
 21
80.851599999999962
 31
0.0
  0
LINE
  5
194
100
AcDbEntity
  8
001
370
               5
390
0
 62
               7
100
AcDbLine
 10
197.55499999999995
 20
80.051199999999881
 30
0.0
 11
198.1467199999999
 21
80.851599999999962
 31
0.0
  0
ARC
  5
195
100
AcDbEntity
  8
001
370
               5
390
0
 62
               7
100
AcDbCircle
 10
239.34520000000012
 20
-76.829120000000216
 30
0.0
 40
1.3006150545030719
100
AcDbArc
 50
16.601351873016004
 51
89.999999999999986
  0
LINE
  5
196
100
AcDbEntity
  8
001
370
               5
390
0
 62
               7
100
AcDbLine
 10
239.34520000000012
 20
-75.528520000000071
 30
0.0
 11
237.56532000000007
 21
-75.528520000000071
 31
0.0
  0
ARC
  5
197
100
AcDbEntity
  8
001
370
               5
390
0
 62
               7
100
AcDbCircle
 10
231.9624
 20
-79.03020000000015
 30
0.0
 40
9.0045761965792419
100
AcDbArc
 50
343.39802583001256
 51
16.601169724031081
  0
LINE
  5
198
100
AcDbEntity
  8
001
370
               5
390
0
 62
               7
100
AcDbLine
 10
240.36732000000012
 20
-78.044720000000098
 30
0.0
 11
240.96699999999984
 21
-79.03020000000015
 31
0.0
  0
LINE
  5
199
100
AcDbEntity
  8
001
370
               5
390
0
 62
               7
100
AcDbLine
 10
240.36732000000012
 20
-80.165800000000104
 30
0.0
 11
240.96699999999984
 21
-79.03020000000015
 31
0.0
  0
LINE
  5
19A
100
AcDbEntity
  8
001
370
               5
390
0
 62
               7
100
AcDbLine
 10
238.36572000000015
 20
-82.532000000000153
 30
0.0
 11
238.36572000000015
 21
-75.528520000000071
 31
0.0
  0
LINE
  5
19B
100
AcDbEntity
  8
001
370
               5
390
0
 62
               7
100
AcDbLine
 10
238.36572000000015
 20
-79.03020000000015
 30
0.0
 11
237.56532000000007
 21
-78.651320000000169
 31
0.0
  0
LINE
  5
19C
100
AcDbEntity
  8
001
370
               5
390
0
 62
               7
100
AcDbLine
 10
237.56532000000007
 20
-79.03020000000015
 30
0.0
 11
238.36572000000015
 21
-79.47932000000003
 31
0.0
  0
ARC
  5
19D
100
AcDbEntity
  8
001
370
               5
390
0
 62
               7
100
AcDbCircle
 10
239.34520000000012
 20
-81.231400000000008
 30
0.0
 40
1.300600000000145
100
AcDbArc
 50
270.0
 51
343.39864812698056
  0
LINE
  5
19E
100
AcDbEntity
  8
001
370
               5
390
0
 62
               7
100
AcDbLine
 10
239.34520000000012
 20
-82.532000000000153
 30
0.0
 11
237.56532000000007
 21
-82.532000000000153
 31
0.0
  0
ARC
  5
19F
100
AcDbEntity
  8
001
370
               5
390
0
 62
               7
100
AcDbCircle
 10
239.34520000000012
 20
66.244079999999826
 30
0.0
 40
1.3006150545030719
100
AcDbArc
 50
16.601351873016004
 51
89.999999999999986
  0
LINE
  5
1A0
100
AcDbEntity
  8
001
370
               5
390
0
 62
               7
100
AcDbLine
 10
239.34520000000012
 20
67.544799999999782
 30
0.0
 11
237.56532000000007
 21
67.544799999999782
 31
0.0
  0
ARC
  5
1A1
100
AcDbEntity
  8
001
370
               5
390
0
 62
               7
100
AcDbCircle
 10
231.9624
 20
64.042999999999779
 30
0.0
 40
9.0045761965792419
100
AcDbArc
 50
343.39802583001256
 51
16.601169724031763
  0
LINE
  5
1A2
100
AcDbEntity
  8
001
370
               5
390
0
 62
               7
100
AcDbLine
 10
240.36732000000012
 20
65.028479999999945
 30
0.0
 11
240.96699999999984
 21
64.042999999999779
 31
0.0
  0
LINE
  5
1A3
100
AcDbEntity
  8
001
370
               5
390
0
 62
               7
100
AcDbLine
 10
240.36732000000012
 20
62.907399999999825
 30
0.0
 11
240.96699999999984
 21
64.042999999999779
 31
0.0
  0
LINE
  5
1A4
100
AcDbEntity
  8
001
370
               5
390
0
 62
               7
100
AcDbLine
 10
238.36572000000015
 20
60.541199999999776
 30
0.0
 11
238.36572000000015
 21
67.544799999999782
 31
0.0
  0
LINE
  5
1A5
100
AcDbEntity
  8
001
370
               5
390
0
 62
               7
100
AcDbLine
 10
238.36572000000015
 20
64.042999999999779
 30
0.0
 11
237.56532000000007
 21
64.421999999999912
 31
0.0
  0
LINE
  5
1A6
100
AcDbEntity
  8
001
370
               5
390
0
 62
               7
100
AcDbLine
 10
237.56532000000007
 20
64.042999999999779
 30
0.0
 11
238.36572000000015
 21
63.593880000000013
 31
0.0
  0
ARC
  5
1A7
100
AcDbEntity
  8
001
370
               5
390
0
 62
               7
100
AcDbCircle
 10
239.34520000000012
 20
61.841799999999921
 30
0.0
 40
1.300600000000145
100
AcDbArc
 50
270.0
 51
343.4020255086204
  0
LINE
  5
1A8
100
AcDbEntity
  8
001
370
               5
390
0
 62
               7
100
AcDbLine
 10
239.34520000000012
 20
60.541199999999776
 30
0.0
 11
237.56532000000007
 21
60.541199999999776
 31
0.0
  0
ARC
  5
1A9
100
AcDbEntity
  8
001
370
               5
390
0
 62
               7
100
AcDbCircle
 10
195.55400000000009
 20
-83.004120000000171
 30
0.0
 40
1.0005199999999661
100
AcDbArc
 50
0.0
 51
88.361983727562645
  0
LINE
  5
1AA
100
AcDbEntity
  8
001
370
               5
390
0
 62
               7
100
AcDbLine
 10
-256.33951999999999
 20
-80.63112000000001
 30
0.0
 11
-256.33951999999999
 21
-86.033800000000156
 31
0.0
  0
LINE
  5
1AB
100
AcDbEntity
  8
001
370
               5
390
0
 62
               7
100
AcDbLine
 10
-162.29140000000007
 20
-80.63112000000001
 30
0.0
 11
-162.29140000000007
 21
-86.033800000000156
 31
0.0
  0
LINE
  5
1AC
100
AcDbEntity
  8
001
370
               5
390
0
 62
               7
100
AcDbLine
 10
-268.34572000000003
 20
-80.63112000000001
 30
0.0
 11
-268.34572000000003
 21
-86.033800000000156
 31
0.0
  0
LINE
  5
1AD
100
AcDbEntity
  8
001
370
               5
390
0
 62
               7
100
AcDbLine
 10
-150.28532000000018
 20
-80.63112000000001
 30
0.0
 11
-150.28532000000018
 21
-86.033800000000156
 31
0.0
  0
LINE
  5
1AE
100
AcDbEntity
  8
001
370
               5
390
0
 62
               7
100
AcDbLine
 10
-151.78600000000006
 20
-80.030800000000113
 30
0.0
 11
-266.84492
 21
-80.030800000000113
 31
0.0
  0
LINE
  5
1AF
100
AcDbEntity
  8
001
370
               5
390
0
 62
               7
100
AcDbLine
 10
-145.78300000000019
 20
78.850479999999834
 30
0.0
 11
-145.78300000000019
 21
-74.027720000000045
 31
0.0
  0
LINE
  5
1B0
100
AcDbEntity
  8
001
370
               5
390
0
 62
               7
100
AcDbLine
 10
-272.84799999999996
 20
78.850479999999834
 30
0.0
 11
-272.84799999999996
 21
-74.027720000000045
 31
0.0
  0
LINE
  5
1B1
100
AcDbEntity
  8
001
370
               5
390
0
 62
               7
100
AcDbLine
 10
-162.29140000000007
 20
-80.63112000000001
 30
0.0
 11
-150.28532000000018
 21
-80.63112000000001
 31
0.0
  0
LINE
  5
1B2
100
AcDbEntity
  8
001
370
               5
390
0
 62
               7
100
AcDbLine
 10
-256.33951999999999
 20
-80.63112000000001
 30
0.0
 11
-268.34572000000003
 21
-80.63112000000001
 31
0.0
  0
LINE
  5
1B3
100
AcDbEntity
  8
001
370
               5
390
0
 62
               7
100
AcDbLine
 10
-163.29192
 20
-86.033800000000156
 30
0.0
 11
-163.29192
 21
-82.031800000000089
 31
0.0
  0
LINE
  5
1B4
100
AcDbEntity
  8
001
370
               5
390
0
 62
               7
100
AcDbLine
 10
-255.33899999999994
 20
-86.033800000000156
 30
0.0
 11
-255.33899999999994
 21
-82.031800000000089
 31
0.0
  0
ARC
  5
1B5
100
AcDbEntity
  8
001
370
               5
390
0
 62
               7
100
AcDbCircle
 10
-266.84492
 20
-74.027720000000045
 30
0.0
 40
6.0030799999999545
100
AcDbArc
 50
180.0
 51
270.0
  0
ARC
  5
1B6
100
AcDbEntity
  8
001
370
               5
390
0
 62
               7
100
AcDbCircle
 10
-151.78600000000006
 20
-74.027720000000045
 30
0.0
 40
6.0030800000000681
100
AcDbArc
 50
270.0
 51
0.0
  0
LINE
  5
1B7
100
AcDbEntity
  8
001
370
               5
390
0
 62
               7
100
AcDbLine
 10
-268.34572000000003
 20
-80.63112000000001
 30
0.0
 11
-269.34619999999995
 21
-81.947720000000118
 31
0.0
  0
LINE
  5
1B8
100
AcDbEntity
  8
001
370
               5
390
0
 62
               7
100
AcDbLine
 10
-256.33951999999999
 20
-80.63112000000001
 30
0.0
 11
-255.33899999999994
 21
-82.031800000000089
 31
0.0
  0
LINE
  5
1B9
100
AcDbEntity
  8
001
370
               5
390
0
 62
               7
100
AcDbLine
 10
-163.29192
 20
-82.031800000000089
 30
0.0
 11
-162.29140000000007
 21
-80.63112000000001
 31
0.0
  0
LINE
  5
1BA
100
AcDbEntity
  8
001
370
               5
390
0
 62
               7
100
AcDbLine
 10
-150.28532000000018
 20
-80.63112000000001
 30
0.0
 11
-149.28479999999979
 21
-81.947720000000118
 31
0.0
  0
CIRCLE
  5
1BB
100
AcDbEntity
  8
001
370
               5
390
0
 62
               7
100
AcDbCircle
 10
-249.33600000000001
 20
-20.0
 30
0.0
 40
4.0020800000002055
  0
CIRCLE
  5
1BC
100
AcDbEntity
  8
001
370
               5
390
0
 62
               7
100
AcDbCircle
 10
-169.29500000000007
 20
-20.0
 30
0.0
 40
4.0020800000002055
  0
CIRCLE
  5
1BD
100
AcDbEntity
  8
001
370
               5
390
0
 62
               7
100
AcDbCircle
 10
-209.31552000000011
 20
-20.0
 30
0.0
 40
12.506400000000212
  0
LINE
  5
1BE
100
AcDbEntity
  8
001
370
               5
390
0
 62
               7
100
AcDbLine
 10
-209.31552000000011
 20
-4.9924000000000888
 30
0.0
 11
-209.31552000000011
 21
0.010199999999827
 31
0.0
  0
ARC
  5
1BF
100
AcDbEntity
  8
001
370
               5
390
0
 62
               7
100
AcDbCircle
 10
-146.98359999999991
 20
78.850479999999834
 30
0.0
 40
1.2005999999997243
100
AcDbArc
 50
0.0
 51
90.0
  0
ARC
  5
1C0
100
AcDbEntity
  8
001
370
               5
390
0
 62
               7
100
AcDbCircle
 10
-271.64739999999983
 20
78.850479999999834
 30
0.0
 40
1.2007200000000466
100
AcDbArc
 50
90.0
 51
179.99427385774715
  0
LINE
  5
1C1
100
AcDbEntity
  8
001
370
               5
390
0
 62
               7
100
AcDbLine
 10
-272.84799999999996
 20
81.831079999999929
 30
0.0
 11
-272.84799999999996
 21
80.051199999999881
 31
0.0
  0
ARC
  5
1C2
100
AcDbEntity
  8
001
370
               5
390
0
 62
               7
100
AcDbCircle
 10
-271.54732000000013
 20
81.831079999999929
 30
0.0
 40
1.3006150545030393
100
AcDbArc
 50
106.60135187301123
 51
179.99823786623779
  0
ARC
  5
1C3
100
AcDbEntity
  8
001
370
               5
390
0
 62
               7
100
AcDbCircle
 10
-269.34619999999995
 20
74.448279999999954
 30
0.0
 40
9.0045419107470099
100
AcDbArc
 50
73.398757557739103
 51
106.60124244226103
  0
ARC
  5
1C4
100
AcDbEntity
  8
001
370
               5
390
0
 62
               7
100
AcDbCircle
 10
-267.14511999999991
 20
81.831079999999929
 30
0.0
 40
1.3007199999999557
100
AcDbArc
 50
0.0
 51
73.400158358872318
  0
LINE
  5
1C5
100
AcDbEntity
  8
001
370
               5
390
0
 62
               7
100
AcDbLine
 10
-265.84439999999995
 20
81.831079999999929
 30
0.0
 11
-265.84439999999995
 21
80.051199999999881
 31
0.0
  0
LINE
  5
1C6
100
AcDbEntity
  8
001
370
               5
390
0
 62
               7
100
AcDbLine
 10
-268.36059999999998
 20
82.853199999999902
 30
0.0
 11
-269.34612000000016
 21
83.452879999999823
 31
0.0
  0
LINE
  5
1C7
100
AcDbEntity
  8
001
370
               5
390
0
 62
               7
100
AcDbLine
 10
-270.48180000000002
 20
82.853199999999902
 30
0.0
 11
-269.34619999999995
 21
83.452879999999823
 31
0.0
  0
LINE
  5
1C8
100
AcDbEntity
  8
001
370
               5
390
0
 62
               7
100
AcDbLine
 10
-272.84799999999996
 20
80.851599999999962
 30
0.0
 11
-265.84439999999995
 21
80.851599999999962
 31
0.0
  0
LINE
  5
1C9
100
AcDbEntity
  8
001
370
               5
390
0
 62
               7
100
AcDbLine
 10
-269.82259999999997
 20
80.051199999999881
 30
0.0
 11
-269.25312000000008
 21
80.851599999999962
 31
0.0
  0
LINE
  5
1CA
100
AcDbEntity
  8
001
370
               5
390
0
 62
               7
100
AcDbLine
 10
-269.34619999999995
 20
80.051199999999881
 30
0.0
 11
-268.75452000000007
 21
80.851599999999962
 31
0.0
  0
LINE
  5
1CB
100
AcDbEntity
  8
001
370
               5
390
0
 62
               7
100
AcDbLine
 10
-152.78652
 20
81.831079999999929
 30
0.0
 11
-152.78652
 21
80.051199999999881
 31
0.0
  0
ARC
  5
1CC
100
AcDbEntity
  8
001
370
               5
390
0
 62
               7
100
AcDbCircle
 10
-151.48591999999991
 20
81.831079999999929
 30
0.0
 40
1.3006150545030555
100
AcDbArc
 50
106.60135187301361
 51
179.99823786623779
  0
ARC
  5
1CD
100
AcDbEntity
  8
001
370
               5
390
0
 62
               7
100
AcDbCircle
 10
-149.28479999999979
 20
74.448279999999954
 30
0.0
 40
9.0045761965791051
100
AcDbArc
 50
73.398025830012216
 51
106.60116972403172
  0
ARC
  5
1CE
100
AcDbEntity
  8
001
370
               5
390
0
 62
               7
100
AcDbCircle
 10
-147.08359999999993
 20
81.831079999999929
 30
0.0
 40
1.3005999999997471
100
AcDbArc
 50
0.0
 51
73.398648126990281
  0
LINE
  5
1CF
100
AcDbEntity
  8
001
370
               5
390
0
 62
               7
100
AcDbLine
 10
-145.78300000000019
 20
81.831079999999929
 30
0.0
 11
-145.78300000000019
 21
80.051199999999881
 31
0.0
  0
LINE
  5
1D0
100
AcDbEntity
  8
001
370
               5
390
0
 62
               7
100
AcDbLine
 10
-148.29912000000002
 20
82.853199999999902
 30
0.0
 11
-149.28460000000018
 21
83.452879999999823
 31
0.0
  0
LINE
  5
1D1
100
AcDbEntity
  8
001
370
               5
390
0
 62
               7
100
AcDbLine
 10
-150.42032
 20
82.853199999999902
 30
0.0
 11
-149.28479999999979
 21
83.452879999999823
 31
0.0
  0
LINE
  5
1D2
100
AcDbEntity
  8
001
370
               5
390
0
 62
               7
100
AcDbLine
 10
-152.78652
 20
80.851599999999962
 30
0.0
 11
-145.78300000000019
 21
80.851599999999962
 31
0.0
  0
LINE
  5
1D3
100
AcDbEntity
  8
001
370
               5
390
0
 62
               7
100
AcDbLine
 10
-149.76120000000014
 20
80.051199999999881
 30
0.0
 11
-149.19172000000003
 21
80.851599999999962
 31
0.0
  0
LINE
  5
1D4
100
AcDbEntity
  8
001
370
               5
390
0
 62
               7
100
AcDbLine
 10
-149.28479999999979
 20
80.051199999999881
 30
0.0
 11
-148.69311999999991
 21
80.851599999999962
 31
0.0
  0
LINE
  5
1D5
100
AcDbEntity
  8
001
370
               5
390
0
 62
               7
100
AcDbLine
 10
-151.78600000000006
 20
-89.623200000000068
 30
0.0
 11
-151.78600000000006
 21
-88.335200000000057
 31
0.0
  0
ARC
  5
1D6
100
AcDbEntity
  8
001
370
               5
390
0
 62
               7
100
AcDbCircle
 10
-153.38679999999988
 20
-89.623320000000106
 30
0.0
 40
1.6007819209375196
100
AcDbArc
 50
286.19239962591763
 51
0.0
  0
ARC
  5
1D7
100
AcDbEntity
  8
001
370
               5
390
0
 62
               7
100
AcDbCircle
 10
-156.28832
 20
-79.630720000000181
 30
0.0
 40
12.006099837532673
100
AcDbArc
 50
253.80852294740248
 51
286.19166036975059
  0
ARC
  5
1D8
100
AcDbEntity
  8
001
370
               5
390
0
 62
               7
100
AcDbCircle
 10
-159.1898000000001
 20
-89.623320000000106
 30
0.0
 40
1.6007999999998219
100
AcDbArc
 50
180.0
 51
253.80760037407845
  0
LINE
  5
1D9
100
AcDbEntity
  8
001
370
               5
390
0
 62
               7
100
AcDbLine
 10
-160.79059999999993
 20
-89.623200000000068
 30
0.0
 11
-160.79059999999993
 21
-88.335200000000057
 31
0.0
  0
LINE
  5
1DA
100
AcDbEntity
  8
001
370
               5
390
0
 62
               7
100
AcDbLine
 10
-157.68580000000003
 20
-91.077000000000069
 30
0.0
 11
-156.28820000000019
 21
-91.636920000000103
 31
0.0
  0
LINE
  5
1DB
100
AcDbEntity
  8
001
370
               5
390
0
 62
               7
100
AcDbLine
 10
-154.79860000000008
 20
-91.077000000000069
 30
0.0
 11
-156.28832
 21
-91.636920000000103
 31
0.0
  0
LINE
  5
1DC
100
AcDbEntity
  8
001
370
               5
390
0
 62
               7
100
AcDbLine
 10
-257.84032000000002
 20
-89.623200000000068
 30
0.0
 11
-257.84032000000002
 21
-88.335200000000057
 31
0.0
  0
ARC
  5
1DD
100
AcDbEntity
  8
001
370
               5
390
0
 62
               7
100
AcDbCircle
 10
-259.44111999999996
 20
-89.623320000000106
 30
0.0
 40
1.6007819209375196
100
AcDbArc
 50
286.19239962591763
 51
0.0
  0
ARC
  5
1DE
100
AcDbEntity
  8
001
370
               5
390
0
 62
               7
100
AcDbCircle
 10
-262.34259999999995
 20
-79.630720000000181
 30
0.0
 40
12.006110991524364
100
AcDbArc
 50
253.80833963024827
 51
286.19166036975014
  0
ARC
  5
1DF
100
AcDbEntity
  8
001
370
               5
390
0
 62
               7
100
AcDbCircle
 10
-265.24412000000007
 20
-89.623320000000106
 30
0.0
 40
1.6007999999999356
100
AcDbArc
 50
180.0
 51
253.80799961224358
  0
LINE
  5
1E0
100
AcDbEntity
  8
001
370
               5
390
0
 62
               7
100
AcDbLine
 10
-266.84492
 20
-89.623200000000068
 30
0.0
 11
-266.84492
 21
-88.335200000000057
 31
0.0
  0
LINE
  5
1E1
100
AcDbEntity
  8
001
370
               5
390
0
 62
               7
100
AcDbLine
 10
-263.74000000000024
 20
-91.077000000000069
 30
0.0
 11
-262.34252000000015
 21
-91.636920000000103
 31
0.0
  0
LINE
  5
1E2
100
AcDbEntity
  8
001
370
               5
390
0
 62
               7
100
AcDbLine
 10
-260.85292000000004
 20
-91.077000000000069
 30
0.0
 11
-262.34259999999995
 21
-91.636920000000103
 31
0.0
  0
CIRCLE
  5
1E3
100
AcDbEntity
  8
001
370
               5
390
0
 62
               7
100
AcDbCircle
 10
-169.29500000000007
 20
-20.0
 30
0.0
 40
3.5018000000000029
  0
CIRCLE
  5
1E4
100
AcDbEntity
  8
001
370
               5
390
0
 62
               7
100
AcDbCircle
 10
-249.33600000000001
 20
-20.0
 30
0.0
 40
3.5018000000000029
  0
LINE
  5
1E5
100
AcDbEntity
  8
001
370
               5
390
0
  6
STYLE_13
 62
               7
100
AcDbLine
 10
-156.28832
 20
-74.031920000000014
 30
0.0
 11
-156.28832
 21
-94.947800000000143
 31
0.0
  0
LINE
  5
1E6
100
AcDbEntity
  8
001
370
               5
390
0
  6
STYLE_13
 62
               7
100
AcDbLine
 10
-262.34259999999995
 20
-73.283000000000015
 30
0.0
 11
-262.34259999999995
 21
-94.68220000000008
 31
0.0
  0
LINE
  5
1E7
100
AcDbEntity
  8
001
370
               5
390
0
  6
STYLE_13
 62
               7
100
AcDbLine
 10
-249.33600000000001
 20
-13.800120000000106
 30
0.0
 11
-249.33600000000001
 21
-26.370920000000183
 31
0.0
  0
LINE
  5
1E8
100
AcDbEntity
  8
001
370
               5
390
0
  6
STYLE_13
 62
               7
100
AcDbLine
 10
-169.29500000000007
 20
-13.123600000000124
 30
0.0
 11
-169.29500000000007
 21
-26.695200000000114
 31
0.0
  0
LINE
  5
1E9
100
AcDbEntity
  8
001
370
               5
390
0
  6
STYLE_13
 62
               7
100
AcDbLine
 10
-269.34619999999995
 20
86.56959999999998
 30
0.0
 11
-269.34619999999995
 21
68.112199999999916
 31
0.0
  0
LINE
  5
1EA
100
AcDbEntity
  8
001
370
               5
390
0
  6
STYLE_13
 62
               7
100
AcDbLine
 10
-149.28479999999979
 20
86.993679999999927
 30
0.0
 11
-149.28479999999979
 21
62.949599999999919
 31
0.0
  0
LINE
  5
1EB
100
AcDbEntity
  8
001
370
               5
390
0
  6
STYLE_13
 62
               7
100
AcDbLine
 10
131.52119999999996
 20
87.028199999999913
 30
0.0
 11
131.52119999999996
 21
65.183199999999829
 31
0.0
  0
LINE
  5
1EC
100
AcDbEntity
  8
001
370
               5
390
0
  6
STYLE_13
 62
               7
100
AcDbLine
 10
197.55499999999995
 20
86.375999999999806
 30
0.0
 11
197.55499999999995
 21
64.682279999999992
 31
0.0
  0
LINE
  5
1ED
100
AcDbEntity
  8
001
370
               5
390
0
  6
STYLE_13
 62
               7
100
AcDbLine
 10
220.06631999999991
 20
64.042999999999779
 30
0.0
 11
243.73459999999977
 21
64.042999999999779
 31
0.0
  0
LINE
  5
1EE
100
AcDbEntity
  8
001
370
               5
390
0
  6
STYLE_13
 62
               7
100
AcDbLine
 10
243.3761999999999
 20
-79.03020000000015
 30
0.0
 11
219.30951999999999
 21
-79.03020000000015
 31
0.0
  0
LINE
  5
1EF
100
AcDbEntity
  8
001
370
               5
390
0
 62
               7
100
AcDbLine
 10
237.56532000000007
 20
68.044999999999845
 30
0.0
 11
306.76071999999988
 21
66.199879999999894
 31
0.0
  0
ARC
  5
1F0
100
AcDbEntity
  8
001
370
               5
390
0
 62
               7
100
AcDbCircle
 10
236.5648000000001
 20
69.045479999999941
 30
0.0
 40
1.0005199999999661
100
AcDbArc
 50
0.0
 51
90.0
  0
LINE
  5
1F1
100
AcDbEntity
  8
001
370
               5
390
0
 62
               7
100
AcDbLine
 10
236.55760000000009
 20
70.045999999999879
 30
0.0
 11
202.55760000000009
 21
70.045999999999879
 31
0.0
  0
ARC
  5
1F2
100
AcDbEntity
  8
001
370
               5
390
0
 62
               7
100
AcDbCircle
 10
201.35699999999997
 20
78.850479999999834
 30
0.0
 40
1.2006000000001222
100
AcDbArc
 50
0.0
 51
90.0
  0
LINE
  5
1F3
100
AcDbEntity
  8
001
370
               5
390
0
 62
               7
100
AcDbLine
 10
201.35699999999997
 20
80.051199999999881
 30
0.0
 11
127.71932000000015
 21
80.051199999999881
 31
0.0
  0
ARC
  5
1F4
100
AcDbEntity
  8
001
370
               5
390
0
 62
               7
100
AcDbCircle
 10
127.71932000000015
 20
78.850479999999834
 30
0.0
 40
1.2007200000000466
100
AcDbArc
 50
90.0
 51
179.99427385774715
  0
LINE
  5
1F5
100
AcDbEntity
  8
001
370
               5
390
0
 62
               7
100
AcDbLine
 10
126.51872000000003
 20
78.850479999999834
 30
0.0
 11
126.51872000000003
 21
-74.196800000000053
 31
0.0
  0
LINE
  5
1F6
100
AcDbEntity
  8
001
370
               5
390
0
 62
               7
100
AcDbLine
 10
125.51820000000006
 20
-12.496200000000158
 30
0.0
 11
126.51872000000003
 21
-12.496200000000158
 31
0.0
  0
LINE
  5
1F7
100
AcDbEntity
  8
001
370
               5
390
0
 62
               7
100
AcDbLine
 10
125.51820000000006
 20
-12.496200000000158
 30
0.0
 11
124.51771999999983
 21
-13.496720000000096
 31
0.0
  0
LINE
  5
1F8
100
AcDbEntity
  8
001
370
               5
390
0
 62
               7
100
AcDbLine
 10
124.51771999999983
 20
-13.496720000000096
 30
0.0
 11
124.51771999999983
 21
-26.50340000000017
 31
0.0
  0
LINE
  5
1F9
100
AcDbEntity
  8
001
370
               5
390
0
 62
               7
100
AcDbLine
 10
125.51820000000006
 20
-27.503920000000107
 30
0.0
 11
124.51771999999983
 21
-26.50340000000017
 31
0.0
  0
LINE
  5
1FA
100
AcDbEntity
  8
001
370
               5
390
0
 62
               7
100
AcDbLine
 10
125.51820000000006
 20
-27.503920000000107
 30
0.0
 11
126.51872000000003
 21
-27.503920000000107
 31
0.0
  0
ARC
  5
1FB
100
AcDbEntity
  8
001
370
               5
390
0
 62
               7
100
AcDbCircle
 10
132.52180000000007
 20
-74.196800000000053
 30
0.0
 40
6.0030800000000397
100
AcDbArc
 50
180.0
 51
268.36310675933498
  0
ARC
  5
1FC
100
AcDbEntity
  8
001
370
               5
390
0
 62
               7
100
AcDbCircle
 10
140.52580000000017
 20
-82.432800000000157
 30
0.0
 40
2.0011199999997302
100
AcDbArc
 50
0.0
 51
88.362049202035507
  0
LINE
  5
1FD
100
AcDbEntity
  8
001
370
               5
390
0
 62
               7
100
AcDbLine
 10
142.5269199999999
 20
-82.432800000000157
 30
0.0
 11
142.5269199999999
 21
-86.033800000000156
 31
0.0
  0
LINE
  5
1FE
100
AcDbEntity
  8
001
370
               5
390
0
 62
               7
100
AcDbLine
 10
140.52580000000017
 20
-86.033800000000156
 30
0.0
 11
220.5667999999998
 21
-86.033800000000156
 31
0.0
  0
LINE
  5
1FF
100
AcDbEntity
  8
001
370
               5
390
0
 62
               7
100
AcDbLine
 10
140.52580000000017
 20
-86.033800000000156
 30
0.0
 11
140.52580000000017
 21
-94.037920000000099
 31
0.0
  0
LINE
  5
200
100
AcDbEntity
  8
001
370
               5
390
0
 62
               7
100
AcDbLine
 10
140.52580000000017
 20
-91.436599999999999
 30
0.0
 11
220.5667999999998
 21
-91.436599999999999
 31
0.0
  0
LINE
  5
201
100
AcDbEntity
  8
001
370
               5
390
0
 62
               7
100
AcDbLine
 10
140.52580000000017
 20
-94.037920000000099
 30
0.0
 11
220.5667999999998
 21
-94.037920000000099
 31
0.0
  0
ARC
  5
202
100
AcDbEntity
  8
001
370
               5
390
0
 62
               7
100
AcDbCircle
 10
236.5648000000001
 20
-84.032800000000179
 30
0.0
 40
1.0005199999999377
100
AcDbArc
 50
270.0
 51
0.0
  0
LINE
  5
203
100
AcDbEntity
  8
001
370
               5
390
0
 62
               7
100
AcDbLine
 10
220.5667999999998
 20
-86.033800000000156
 30
0.0
 11
220.5667999999998
 21
-94.037920000000099
 31
0.0
  0
LINE
  5
204
100
AcDbEntity
  8
001
370
               5
390
0
 62
               7
100
AcDbLine
 10
237.56532000000007
 20
-83.032320000000141
 30
0.0
 11
306.76071999999988
 21
-81.187200000000189
 31
0.0
  0
ARC
  5
205
100
AcDbEntity
  8
001
370
               5
390
0
 62
               7
100
AcDbCircle
 10
306.6006000000001
 20
-75.186200000000099
 30
0.0
 40
6.0031325989020958
100
AcDbArc
 50
271.52727101763082
 51
0.0
  0
LINE
  5
206
100
AcDbEntity
  8
001
370
               5
390
0
 62
               7
100
AcDbLine
 10
312.6037199999999
 20
-75.186200000000099
 30
0.0
 11
312.6037199999999
 21
60.198879999999917
 31
0.0
  0
ARC
  5
207
100
AcDbEntity
  8
001
370
               5
390
0
 62
               7
100
AcDbCircle
 10
306.6006000000001
 20
60.198879999999917
 30
0.0
 40
6.0031199999997966
100
AcDbArc
 50
0.0
 51
88.472728982370654
  0
LINE
  5
208
100
AcDbEntity
  8
001
370
               5
390
0
 62
               7
100
AcDbLine
 10
126.51872000000003
 20
72.04707999999988
 30
0.0
 11
202.55760000000009
 21
72.04707999999988
 31
0.0
  0
CIRCLE
  5
209
100
AcDbEntity
  8
001
370
               5
390
0
 62
               7
100
AcDbCircle
 10
164.53811999999999
 20
52.036799999999857
 30
0.0
 40
10.505400000000009
  0
LINE
  5
20A
100
AcDbEntity
  8
001
370
               5
390
0
 62
               7
100
AcDbLine
 10
-144.28219999999999
 20
78.850479999999834
 30
0.0
 11
-144.28219999999999
 21
-76.028720000000135
 31
0.0
  0
ARC
  5
20B
100
AcDbEntity
  8
001
370
               5
390
0
 62
               7
100
AcDbCircle
 10
-145.48280000000011
 20
78.850479999999834
 30
0.0
 40
1.2006000000001222
100
AcDbArc
 50
0.0
 51
90.0
  0
ARC
  5
20C
100
AcDbEntity
  8
001
370
               5
390
0
 62
               7
100
AcDbCircle
 10
-150.28532000000018
 20
-76.028720000000135
 30
0.0
 40
6.003163242025102
100
AcDbArc
 50
279.59399846558489
 51
0.0
  0
LINE
  5
20D
100
AcDbEntity
  8
001
370
               5
390
0
 62
               7
100
AcDbLine
 10
-149.28479999999979
 20
-81.947920000000181
 30
0.0
 11
-149.28479999999979
 21
-85.977520000000027
 31
0.0
  0
ARC
  5
20E
100
AcDbEntity
  8
001
370
               5
390
0
 62
               7
100
AcDbCircle
 10
-149.28479999999979
 20
-88.635200000000054
 30
0.0
 40
2.6013911183055343
100
AcDbArc
 50
33.769724358745385
 51
89.998238001712963
  0
LINE
  5
20F
100
AcDbEntity
  8
001
370
               5
390
0
 62
               7
100
AcDbLine
 10
-144.28219999999999
 20
-91.739200000000025
 30
0.0
 11
-147.12232000000006
 21
-87.189200000000028
 31
0.0
  0
LINE
  5
210
100
AcDbEntity
  8
001
370
               5
390
0
 62
               7
100
AcDbLine
 10
-126.77319999999997
 20
-91.736599999999996
 30
0.0
 11
-144.28219999999999
 21
-91.736599999999996
 31
0.0
  0
LINE
  5
211
100
AcDbEntity
  8
001
370
               5
390
0
 62
               7
100
AcDbLine
 10
-144.28219999999999
 20
-94.037920000000099
 30
0.0
 11
-126.77319999999997
 21
-94.037920000000099
 31
0.0
  0
ARC
  5
212
100
AcDbEntity
  8
001
370
               5
390
0
 62
               7
100
AcDbCircle
 10
-144.28219999999999
 20
-91.436599999999999
 30
0.0
 40
2.6012801476197325
100
AcDbArc
 50
213.76923904352293
 51
270.0
  0
LINE
  5
213
100
AcDbEntity
  8
001
370
               5
390
0
 62
               7
100
AcDbLine
 10
-149.28460000000018
 20
-88.332520000000116
 30
0.0
 11
-146.44460000000004
 21
-92.882520000000113
 31
0.0
  0
LINE
  5
214
100
AcDbEntity
  8
001
370
               5
390
0
 62
               7
100
AcDbLine
 10
-269.34619999999995
 20
-88.335200000000057
 30
0.0
 11
-149.28479999999979
 21
-88.335200000000057
 31
0.0
  0
LINE
  5
215
100
AcDbEntity
  8
001
370
               5
390
0
 62
               7
100
AcDbLine
 10
-269.34619999999995
 20
-86.033800000000156
 30
0.0
 11
-149.28479999999979
 21
-86.033800000000156
 31
0.0
  0
LINE
  5
216
100
AcDbEntity
  8
001
370
               5
390
0
 62
               7
100
AcDbLine
 10
-274.34860000000003
 20
-91.739200000000025
 30
0.0
 11
-271.50859999999989
 21
-87.189200000000028
 31
0.0
  0
LINE
  5
217
100
AcDbEntity
  8
001
370
               5
390
0
 62
               7
100
AcDbLine
 10
-269.34619999999995
 20
-88.332520000000116
 30
0.0
 11
-272.18632000000002
 21
-92.882520000000113
 31
0.0
  0
ARC
  5
218
100
AcDbEntity
  8
001
370
               5
390
0
 62
               7
100
AcDbCircle
 10
-274.34880000000021
 20
-91.436599999999999
 30
0.0
 40
2.6013200000001007
100
AcDbArc
 50
270.0
 51
326.23125067562376
  0
LINE
  5
219
100
AcDbEntity
  8
001
370
               5
390
0
 62
               7
100
AcDbLine
 10
-274.34880000000021
 20
-94.037920000000099
 30
0.0
 11
-291.85771999999997
 21
-94.037920000000099
 31
0.0
  0
LINE
  5
21A
100
AcDbEntity
  8
001
370
               5
390
0
 62
               7
100
AcDbLine
 10
-291.85771999999997
 20
-91.736599999999996
 30
0.0
 11
-274.34880000000021
 21
-91.736599999999996
 31
0.0
  0
ARC
  5
21B
100
AcDbEntity
  8
001
370
               5
390
0
 62
               7
100
AcDbCircle
 10
-268.34572000000003
 20
-76.028720000000135
 30
0.0
 40
6.0030800000001818
100
AcDbArc
 50
180.0
 51
260.40625071298126
  0
LINE
  5
21C
100
AcDbEntity
  8
001
370
               5
390
0
 62
               7
100
AcDbLine
 10
-269.34619999999995
 20
-86.033800000000156
 30
0.0
 11
-269.34619999999995
 21
-81.947720000000118
 31
0.0
  0
LINE
  5
21D
100
AcDbEntity
  8
001
370
               5
390
0
 62
               7
100
AcDbLine
 10
-274.34880000000021
 20
78.850479999999834
 30
0.0
 11
-274.34880000000021
 21
-76.028720000000135
 31
0.0
  0
ARC
  5
21E
100
AcDbEntity
  8
001
370
               5
390
0
 62
               7
100
AcDbCircle
 10
-273.14811999999984
 20
78.850479999999834
 30
0.0
 40
1.2007200000000466
100
AcDbArc
 50
90.0
 51
179.99427385774715
  0
CIRCLE
  5
21F
100
AcDbEntity
  8
001
370
               5
390
0
 62
               7
100
AcDbCircle
 10
-209.31552000000011
 20
-20.0
 30
0.0
 40
7.5039199999999369
  0
ARC
  5
220
100
AcDbEntity
  8
001
370
               5
390
0
 62
               7
100
AcDbCircle
 10
-269.34619999999995
 20
-88.635200000000054
 30
0.0
 40
2.6013999999998987
100
AcDbArc
 50
90.0
 51
146.23027564125837
  0
LINE
  5
221
100
AcDbEntity
  8
001
370
               5
390
0
 62
               7
100
AcDbLine
 10
-255.33899999999994
 20
-82.031800000000089
 30
0.0
 11
-163.29192
 21
-82.031800000000089
 31
0.0
  0
LINE
  5
222
100
AcDbEntity
  8
001
370
               5
390
0
 62
               7
100
AcDbLine
 10
140.5830000000002
 20
-80.432720000000131
 30
0.0
 11
132.35040000000009
 21
-80.197520000000054
 31
0.0
  0
LINE
  5
223
100
AcDbEntity
  8
001
370
               5
390
0
 62
               7
100
AcDbLine
 10
202.55760000000009
 20
-85.033320000000117
 30
0.0
 11
236.55760000000009
 21
-85.033320000000117
 31
0.0
  0
LINE
  5
224
100
AcDbEntity
  8
001
370
               5
390
0
 62
               7
100
AcDbLine
 10
202.55760000000009
 20
-85.033320000000117
 30
0.0
 11
202.55760000000009
 21
-86.033800000000156
 31
0.0
  0
LINE
  5
225
100
AcDbEntity
  8
001
370
               5
390
0
 62
               7
100
AcDbLine
 10
237.56532000000007
 20
-83.032320000000141
 30
0.0
 11
237.56532000000007
 21
-84.032800000000179
 31
0.0
  0
LINE
  5
226
100
AcDbEntity
  8
001
370
               5
390
0
 62
               7
100
AcDbLine
 10
237.56532000000007
 20
68.044999999999845
 30
0.0
 11
237.56532000000007
 21
69.045479999999941
 31
0.0
  0
LINE
  5
227
100
AcDbEntity
  8
001
370
               5
390
0
 62
               7
100
AcDbLine
 10
202.55760000000009
 20
70.045999999999879
 30
0.0
 11
202.55760000000009
 21
78.850479999999834
 31
0.0
  0
LINE
  5
228
100
AcDbEntity
  8
001
370
               5
390
0
 62
               7
100
AcDbLine
 10
202.55760000000009
 20
70.045999999999879
 30
0.0
 11
202.55760000000009
 21
-85.033320000000117
 31
0.0
  0
LINE
  5
229
100
AcDbEntity
  8
001
370
               5
390
0
 62
               7
100
AcDbLine
 10
237.56532000000007
 20
68.044999999999845
 30
0.0
 11
237.56532000000007
 21
-83.032320000000141
 31
0.0
  0
LINE
  5
22A
100
AcDbEntity
  8
001
370
               5
390
0
 62
               7
100
AcDbLine
 10
196.55452000000005
 20
-83.032320000000141
 30
0.0
 11
196.55452000000005
 21
-78.029720000000111
 31
0.0
  0
ARC
  5
22B
100
AcDbEntity
  8
001
370
               5
390
0
 62
               7
100
AcDbCircle
 10
198.55551999999989
 20
-83.032320000000141
 30
0.0
 40
2.0009999999998342
100
AcDbArc
 50
180.0
 51
269.99885465707922
  0
LINE
  5
22C
100
AcDbEntity
  8
001
370
               5
390
0
 62
               7
100
AcDbLine
 10
202.55760000000009
 20
-85.033320000000117
 30
0.0
 11
198.55551999999989
 21
-85.033320000000117
 31
0.0
  0
LINE
  5
22D
100
AcDbEntity
  8
001
370
               5
390
0
 62
               7
100
AcDbLine
 10
140.5830000000002
 20
-80.432600000000093
 30
0.0
 11
195.58251999999993
 21
-82.004000000000133
 31
0.0
  0
LINE
  5
22E
100
AcDbEntity
  8
001
370
               5
390
0
  6
STYLE_12
 62
               7
100
AcDbLine
 10
122.5166000000001
 20
-13.997000000000185
 30
0.0
 11
122.5166000000001
 21
-16.498199999999997
 31
0.0
  0
LINE
  5
22F
100
AcDbEntity
  8
001
370
               5
390
0
  6
STYLE_13
 62
               7
100
AcDbLine
 10
-283.37360000000012
 20
52.036799999999857
 30
0.0
 11
-266.86372000000006
 21
52.036799999999857
 31
0.0
  0
LINE
  5
230
100
AcDbEntity
  8
001
370
               5
390
0
  6
STYLE_13
 62
               7
100
AcDbLine
 10
-135.94439999999997
 20
52.036799999999857
 30
0.0
 11
-155.33899999999994
 21
52.036799999999857
 31
0.0
  0
LINE
  5
231
100
AcDbEntity
  8
001
370
               5
390
0
  6
STYLE_06
 62
               7
100
AcDbLine
 10
164.53811999999999
 20
88.890079999999898
 30
0.0
 11
164.53811999999999
 21
37.019079999999803
 31
0.0
  0
LINE
  5
232
100
AcDbEntity
  8
001
370
               5
390
0
  6
STYLE_06
 62
               7
100
AcDbLine
 10
141.66800000000003
 20
52.036799999999857
 30
0.0
 11
181.21532000000008
 21
52.036799999999857
 31
0.0
  0
LINE
  5
233
100
AcDbEntity
  8
001
370
               5
390
0
  6
STYLE_13
 62
               7
100
AcDbLine
 10
-209.31552000000011
 20
107.7503999999999
 30
0.0
 11
-209.31552000000011
 21
-100.02632000000017
 31
0.0
  0
LINE
  5
234
100
AcDbEntity
  8
001
370
               5
390
0
  6
STYLE_13
 62
               7
100
AcDbLine
 10
210.52580000000017
 20
-100.09512000000018
 30
0.0
 11
210.52580000000017
 21
-81.908600000000092
 31
0.0
  0
LINE
  5
235
100
AcDbEntity
  8
001
370
               5
390
0
  6
STYLE_13
 62
               7
100
AcDbLine
 10
150.52580000000017
 20
-83.731800000000135
 30
0.0
 11
150.52580000000017
 21
-101.0408000000001
 31
0.0
  0
LINE
  5
236
100
AcDbEntity
  8
001
370
               5
390
0
  6
STYLE_06
 62
               7
100
AcDbLine
 10
-281.85259999999982
 20
-85.718320000000176
 30
0.0
 11
-281.85259999999982
 21
-100.57912000000022
 31
0.0
  0
LINE
  5
237
100
AcDbEntity
  8
001
370
               5
390
0
  6
STYLE_06
 62
               7
100
AcDbLine
 10
-136.77839999999998
 20
-85.939120000000003
 30
0.0
 11
-136.77839999999998
 21
-100.86392000000012
 31
0.0
  0
LINE
  5
238
100
AcDbEntity
  8
001
370
               5
390
0
 62
               7
100
AcDbLine
 10
-209.31552000000011
 20
67.550399999999854
 30
0.0
 11
-215.81879999999984
 21
63.795599999999808
 31
0.0
  0
LINE
  5
239
100
AcDbEntity
  8
001
370
               5
390
0
 62
               7
100
AcDbLine
 10
-215.81879999999984
 20
56.286199999999894
 30
0.0
 11
-209.31552000000011
 21
52.53147999999976
 31
0.0
  0
CIRCLE
  5
23A
100
AcDbEntity
  8
001
370
               5
390
0
 62
               7
100
AcDbCircle
 10
-209.31552000000011
 20
60.040879999999902
 30
0.0
 40
8.0041199999999435
  0
ARC
  5
23B
100
AcDbEntity
  8
001
370
               5
390
0
 62
               7
100
AcDbCircle
 10
-209.31552000000011
 20
60.040879999999902
 30
0.0
 40
7.0035318117645655
100
AcDbArc
 50
218.21288000332507
 51
261.78701279303323
  0
ARC
  5
23C
100
AcDbEntity
  8
001
370
               5
390
0
 62
               7
100
AcDbCircle
 10
-209.31552000000011
 20
60.040879999999902
 30
0.0
 40
7.0036284503390869
100
AcDbArc
 50
98.21289371382673
 51
141.78609154001546
  0
CIRCLE
  5
23D
100
AcDbEntity
  8
001
370
               5
390
0
 62
               7
100
AcDbCircle
 10
-209.31552000000011
 20
60.040879999999902
 30
0.0
 40
6.2531999999999357
  0
LINE
  5
23E
100
AcDbEntity
  8
001
370
               5
390
0
 62
               7
100
AcDbLine
 10
-202.81212000000016
 20
63.795599999999808
 30
0.0
 11
-209.31552000000011
 21
67.550399999999854
 31
0.0
  0
LINE
  5
23F
100
AcDbEntity
  8
001
370
               5
390
0
 62
               7
100
AcDbLine
 10
-209.31552000000011
 20
52.53147999999976
 30
0.0
 11
-202.81212000000016
 21
56.286199999999894
 31
0.0
  0
ARC
  5
240
100
AcDbEntity
  8
001
370
               5
390
0
 62
               7
100
AcDbCircle
 10
-209.31552000000011
 20
60.040879999999902
 30
0.0
 40
7.0035565552369965
100
AcDbArc
 50
38.213137120214348
 51
81.78668891096342
  0
ARC
  5
241
100
AcDbEntity
  8
001
370
               5
390
0
 62
               7
100
AcDbCircle
 10
-209.31552000000011
 20
60.040879999999902
 30
0.0
 40
7.0035153953425615
100
AcDbArc
 50
278.21335783819057
 51
321.78711999667553
  0
LINE
  5
242
100
AcDbEntity
  8
001
370
               5
390
0
 62
               7
100
AcDbLine
 10
-202.81212000000016
 20
56.286199999999894
 30
0.0
 11
-202.81212000000016
 21
63.795599999999808
 31
0.0
  0
ARC
  5
243
100
AcDbEntity
  8
001
370
               5
390
0
 62
               7
100
AcDbCircle
 10
-209.31552000000011
 20
60.040879999999902
 30
0.0
 40
7.0036484720465202
100
AcDbArc
 50
338.21347813704654
 51
21.78755489637058
  0
LINE
  5
244
100
AcDbEntity
  8
001
370
               5
390
0
 62
               7
100
AcDbLine
 10
-215.81879999999984
 20
63.795599999999808
 30
0.0
 11
-215.81879999999984
 21
56.286199999999894
 31
0.0
  0
ARC
  5
245
100
AcDbEntity
  8
001
370
               5
390
0
 62
               7
100
AcDbCircle
 10
-209.31552000000011
 20
60.040879999999902
 30
0.0
 40
7.0035370434086266
100
AcDbArc
 50
158.21311377324557
 51
201.78688622675443
  0
ARC
  5
246
100
AcDbEntity
  8
001
370
               5
390
0
 62
               7
100
AcDbCircle
 10
-209.31552000000011
 20
-31.505920000000174
 30
0.0
 40
15.007614723412752
100
AcDbArc
 50
176.18734731362093
 51
1.9100071409410475
  0
LINE
  5
247
100
AcDbEntity
  8
001
370
               5
390
0
 62
               7
100
AcDbLine
 10
-220.31500000000017
 20
88.92167999999981
 30
0.0
 11
-224.32299999999998
 21
-31.505920000000174
 31
0.0
  0
CIRCLE
  5
248
100
AcDbEntity
  8
001
370
               5
390
0
 62
               7
100
AcDbCircle
 10
-209.31552000000011
 20
-20.0
 30
0.0
 40
12.506400000000212
  0
LINE
  5
249
100
AcDbEntity
  8
001
370
               5
390
0
 62
               7
100
AcDbLine
 10
-194.3161199999999
 20
-31.00572000000011
 30
0.0
 11
-198.31599999999997
 21
88.922279999999944
 31
0.0
  0
LINE
  5
24A
100
AcDbEntity
  8
001
370
               5
390
0
 62
               7
100
AcDbLine
 10
-205.31339999999983
 20
5.51299999999992
 30
0.0
 11
-205.31339999999983
 21
53.109199999999873
 31
0.0
  0
ARC
  5
24B
100
AcDbEntity
  8
001
370
               5
390
0
 62
               7
100
AcDbCircle
 10
-209.31552000000011
 20
5.51299999999992
 30
0.0
 40
4.0020000000000664
100
AcDbArc
 50
180.0
 51
0.0
  0
LINE
  5
24C
100
AcDbEntity
  8
001
370
               5
390
0
 62
               7
100
AcDbLine
 10
-213.31752000000017
 20
5.51299999999992
 30
0.0
 11
-213.31752000000017
 21
53.109199999999873
 31
0.0
  0
LINE
  5
24D
100
AcDbEntity
  8
001
370
               5
390
0
 62
               7
100
AcDbLine
 10
-204.31291999999996
 20
-17.111920000000168
 30
0.0
 11
-209.31552000000011
 21
-14.223600000000147
 31
0.0
  0
LINE
  5
24E
100
AcDbEntity
  8
001
370
               5
390
0
 62
               7
100
AcDbLine
 10
-209.31552000000011
 20
-14.223600000000147
 30
0.0
 11
-214.31800000000004
 21
-17.111920000000168
 31
0.0
  0
LINE
  5
24F
100
AcDbEntity
  8
001
370
               5
390
0
 62
               7
100
AcDbLine
 10
-214.31800000000004
 20
-17.111800000000017
 30
0.0
 11
-214.31800000000004
 21
-22.888320000000022
 31
0.0
  0
LINE
  5
250
100
AcDbEntity
  8
001
370
               5
390
0
 62
               7
100
AcDbLine
 10
-214.31800000000004
 20
-22.888200000000211
 30
0.0
 11
-209.31552000000011
 21
-25.776520000000232
 31
0.0
  0
LINE
  5
251
100
AcDbEntity
  8
001
370
               5
390
0
 62
               7
100
AcDbLine
 10
-209.31552000000011
 20
-25.776520000000232
 30
0.0
 11
-204.31291999999996
 21
-22.888200000000211
 31
0.0
  0
ARC
  5
252
100
AcDbEntity
  8
001
370
               5
390
0
 62
               7
100
AcDbCircle
 10
-209.31552000000011
 20
88.555479999999989
 30
0.0
 40
11.005638124016379
100
AcDbArc
 50
1.9105538144602172
 51
178.09361563892074
  0
ARC
  5
253
100
AcDbEntity
  8
001
370
               5
390
0
 62
               7
100
AcDbCircle
 10
-209.31552000000011
 20
84.553479999999922
 30
0.0
 40
4.002120000000275
100
AcDbArc
 50
0.0
 51
179.99942734571306
  0
LINE
  5
254
100
AcDbEntity
  8
001
370
               5
390
0
 62
               7
100
AcDbLine
 10
-205.31339999999983
 20
84.553479999999922
 30
0.0
 11
-205.31339999999983
 21
66.972679999999855
 31
0.0
  0
LINE
  5
255
100
AcDbEntity
  8
001
370
               5
390
0
 62
               7
100
AcDbLine
 10
-213.31752000000017
 20
84.553479999999922
 30
0.0
 11
-213.31752000000017
 21
66.972679999999855
 31
0.0
  0
CIRCLE
  5
256
100
AcDbEntity
  8
001
370
               5
390
0
 62
               7
100
AcDbCircle
 10
-209.31552000000011
 20
-20.0
 30
0.0
 40
5.0026000000001432
  0
LINE
  5
257
100
AcDbEntity
  8
001
370
               5
390
0
 62
               7
100
AcDbLine
 10
-204.31291999999996
 20
-22.888320000000022
 30
0.0
 11
-204.31291999999996
 21
-17.111800000000017
 31
0.0
  0
ARC
  5
258
100
AcDbEntity
  8
001
370
               5
390
0
 62
               7
100
AcDbCircle
 10
-209.31552000000011
 20
-20.0
 30
0.0
 40
15.007716175781109
100
AcDbArc
 50
253.93885647831354
 51
286.06129027103236
  0
LINE
  5
259
100
AcDbEntity
  8
001
370
               5
390
0
 62
               7
100
AcDbLine
 10
-205.16332000000006
 20
-31.797120000000064
 30
0.0
 11
-205.16332000000006
 21
-34.421800000000076
 31
0.0
  0
LINE
  5
25A
100
AcDbEntity
  8
001
370
               5
390
0
 62
               7
100
AcDbLine
 10
-213.46759999999995
 20
-31.797120000000064
 30
0.0
 11
-213.46759999999995
 21
-34.421800000000076
 31
0.0
  0
LINE
  5
25B
100
AcDbEntity
  8
001
370
               5
390
0
 62
               7
100
AcDbLine
 10
-213.46759999999995
 20
-8.2029200000000628
 30
0.0
 11
-213.46759999999995
 21
-5.5782000000001517
 31
0.0
  0
ARC
  5
25C
100
AcDbEntity
  8
001
370
               5
390
0
 62
               7
100
AcDbCircle
 10
-209.31552000000011
 20
-20.0
 30
0.0
 40
15.007634060037446
100
AcDbArc
 50
73.938289479067762
 51
106.06122802064289
  0
LINE
  5
25D
100
AcDbEntity
  8
001
370
               5
390
0
 62
               7
100
AcDbLine
 10
-205.16332000000006
 20
-8.2029200000000628
 30
0.0
 11
-205.16332000000006
 21
-5.5782000000001517
 31
0.0
  0
LINE
  5
25E
100
AcDbEntity
  8
001
370
               5
390
0
  6
STYLE_13
 62
               7
100
AcDbLine
 10
-192.67500000000001
 20
60.040879999999902
 30
0.0
 11
-226.08751999999981
 21
60.040879999999902
 31
0.0
  0
LINE
  5
25F
100
AcDbEntity
  8
001
370
               5
390
0
 62
               7
100
AcDbLine
 10
-273.14811999999984
 20
80.051199999999881
 30
0.0
 11
-220.61019999999991
 21
80.051199999999881
 31
0.0
  0
LINE
  5
260
100
AcDbEntity
  8
001
370
               5
390
0
 62
               7
100
AcDbLine
 10
-213.31752000000017
 20
80.051199999999881
 30
0.0
 11
-205.31339999999983
 21
80.051199999999881
 31
0.0
  0
LINE
  5
261
100
AcDbEntity
  8
001
370
               5
390
0
 62
               7
100
AcDbLine
 10
-198.02011999999996
 20
80.051199999999881
 30
0.0
 11
-145.48280000000011
 21
80.051199999999881
 31
0.0
  0
LINE
  5
262
100
AcDbEntity
  8
001
370
               5
390
0
 62
               7
100
AcDbLine
 10
-197.75319999999994
 20
72.04707999999988
 30
0.0
 11
-144.28219999999999
 21
72.04707999999988
 31
0.0
  0
LINE
  5
263
100
AcDbEntity
  8
001
370
               5
390
0
 62
               7
100
AcDbLine
 10
-274.34880000000021
 20
72.04707999999988
 30
0.0
 11
-220.8766
 21
72.04707999999988
 31
0.0
  0
LINE
  5
264
100
AcDbEntity
  8
001
370
               5
390
0
 62
               7
100
AcDbLine
 10
-213.31752000000017
 20
72.04707999999988
 30
0.0
 11
-205.31339999999983
 21
72.04707999999988
 31
0.0
  0
ARC
  5
265
100
AcDbEntity
  8
001
370
               5
390
0
 62
               7
100
AcDbCircle
 10
-209.31552000000011
 20
-20.0
 30
0.0
 40
21.010683448912321
100
AcDbArc
 50
132.17486791827258
 51
226.13860190895176
  0
ARC
  5
266
100
AcDbEntity
  8
001
370
               5
390
0
 62
               7
100
AcDbCircle
 10
-209.31552000000011
 20
-20.0
 30
0.0
 40
21.010818504151619
100
AcDbArc
 50
313.86163709935784
 51
47.800712507718693
  0
LINE
  5
267
100
AcDbEntity
  8
001
370
               5
390
0
  6
STYLE_11
 62
               7
100
AcDbLine
 10
-198.70339999999999
 20
-9.3880000000001473
 30
0.0
 11
-195.166
 21
-5.8506000000000995
 31
0.0
  0
LINE
  5
268
100
AcDbEntity
  8
001
370
               5
390
0
  6
STYLE_11
 62
               7
100
AcDbLine
 10
-200.49419999999992
 20
-7.8585200000001123
 30
0.0
 11
-198.72992000000016
 21
-5.4303200000000516
 31
0.0
  0
LINE
  5
269
100
AcDbEntity
  8
001
370
               5
390
0
  6
STYLE_11
 62
               7
100
AcDbLine
 10
-202.50211999999993
 20
-6.6281200000001945
 30
0.0
 11
-201.13940000000002
 21
-3.9537200000000894
 31
0.0
  0
LINE
  5
26A
100
AcDbEntity
  8
001
370
               5
390
0
  6
STYLE_11
 62
               7
100
AcDbLine
 10
-204.67779999999988
 20
-5.7269200000000637
 30
0.0
 11
-203.75031999999993
 21
-2.8723200000000588
 31
0.0
  0
LINE
  5
26B
100
AcDbEntity
  8
001
370
               5
390
0
  6
STYLE_11
 62
               7
100
AcDbLine
 10
-206.96780000000001
 20
-5.1771200000001727
 30
0.0
 11
-206.49811999999986
 21
-2.2126000000000658
 31
0.0
  0
LINE
  5
26C
100
AcDbEntity
  8
001
370
               5
390
0
  6
STYLE_11
 62
               7
100
AcDbLine
 10
-211.66311999999999
 20
-5.1771200000001727
 30
0.0
 11
-212.13272000000001
 21
-2.2126000000000658
 31
0.0
  0
LINE
  5
26D
100
AcDbEntity
  8
001
370
               5
390
0
  6
STYLE_11
 62
               7
100
AcDbLine
 10
-213.95299999999992
 20
-5.7269200000000637
 30
0.0
 11
-214.88051999999988
 21
-2.8723200000000588
 31
0.0
  0
LINE
  5
26E
100
AcDbEntity
  8
001
370
               5
390
0
  6
STYLE_11
 62
               7
100
AcDbLine
 10
-216.12880000000007
 20
-6.6281200000001945
 30
0.0
 11
-217.49151999999998
 21
-3.9537200000000894
 31
0.0
  0
LINE
  5
26F
100
AcDbEntity
  8
001
370
               5
390
0
  6
STYLE_11
 62
               7
100
AcDbLine
 10
-218.13672000000008
 20
-7.8585200000001123
 30
0.0
 11
-219.90099999999984
 21
-5.4303200000000516
 31
0.0
  0
LINE
  5
270
100
AcDbEntity
  8
001
370
               5
390
0
  6
STYLE_11
 62
               7
100
AcDbLine
 10
-219.92740000000015
 20
-9.3880000000001473
 30
0.0
 11
-223.4648000000002
 21
-5.8506000000000995
 31
0.0
  0
LINE
  5
271
100
AcDbEntity
  8
001
370
               5
390
0
 62
               7
100
AcDbLine
 10
91.060519999999826
 20
-46.51360000000011
 30
0.0
 11
91.060519999999826
 21
99.561079999999833
 31
0.0
  0
LINE
  5
272
100
AcDbEntity
  8
001
370
               5
390
0
 62
               7
100
AcDbLine
 10
94.26219999999995
 20
-46.51360000000011
 30
0.0
 11
94.26219999999995
 21
99.561079999999833
 31
0.0
  0
LINE
  5
273
100
AcDbEntity
  8
001
370
               5
390
0
 62
               7
100
AcDbLine
 10
87.558720000000164
 20
71.996799999999865
 30
0.0
 11
87.558720000000164
 21
88.004999999999853
 31
0.0
  0
LINE
  5
274
100
AcDbEntity
  8
001
370
               5
390
0
 62
               7
100
AcDbLine
 10
102.56640000000007
 20
83.002479999999849
 30
0.0
 11
102.56640000000007
 21
76.999399999999781
 31
0.0
  0
LINE
  5
275
100
AcDbEntity
  8
001
370
               5
390
0
 62
               7
100
AcDbLine
 10
70.550000000000011
 20
72.997279999999904
 30
0.0
 11
70.550000000000011
 21
87.004479999999916
 31
0.0
  0
LINE
  5
276
100
AcDbEntity
  8
001
370
               5
390
0
 62
               7
100
AcDbLine
 10
63.545920000000109
 20
87.50479999999979
 30
0.0
 11
58.736279999999908
 21
87.50479999999979
 31
0.0
  0
LINE
  5
277
100
AcDbEntity
  8
001
370
               5
390
0
 62
               7
100
AcDbLine
 10
63.545920000000109
 20
87.50479999999979
 30
0.0
 11
63.545920000000109
 21
72.497079999999841
 31
0.0
  0
LINE
  5
278
100
AcDbEntity
  8
001
370
               5
390
0
 62
               7
100
AcDbLine
 10
70.550000000000011
 20
87.004479999999916
 30
0.0
 11
68.548999999999808
 21
85.003479999999939
 31
0.0
  0
LINE
  5
279
100
AcDbEntity
  8
001
370
               5
390
0
 62
               7
100
AcDbLine
 10
70.550000000000011
 20
87.004479999999916
 30
0.0
 11
87.558720000000164
 21
87.004479999999916
 31
0.0
  0
LINE
  5
27A
100
AcDbEntity
  8
001
370
               5
390
0
 62
               7
100
AcDbLine
 10
91.060519999999826
 20
88.004999999999853
 30
0.0
 11
87.558720000000164
 21
88.004999999999853
 31
0.0
  0
LINE
  5
27B
100
AcDbEntity
  8
001
370
               5
390
0
 62
               7
100
AcDbLine
 10
99.369919999999922
 20
89.80587999999986
 30
0.0
 11
95.15751999999992
 21
89.80587999999986
 31
0.0
  0
LINE
  5
27C
100
AcDbEntity
  8
001
370
               5
390
0
 62
               7
100
AcDbLine
 10
100.26520000000019
 20
71.746679999999941
 30
0.0
 11
99.370000000000061
 21
70.19587999999996
 31
0.0
  0
LINE
  5
27D
100
AcDbEntity
  8
001
370
               5
390
0
 62
               7
100
AcDbLine
 10
99.369919999999922
 20
70.19587999999996
 30
0.0
 11
95.15751999999992
 21
70.19587999999996
 31
0.0
  0
LINE
  5
27E
100
AcDbEntity
  8
001
370
               5
390
0
 62
               7
100
AcDbLine
 10
94.26219999999995
 20
71.746679999999941
 30
0.0
 11
95.157400000000052
 21
70.19587999999996
 31
0.0
  0
LINE
  5
27F
100
AcDbEntity
  8
001
370
               5
390
0
 62
               7
100
AcDbLine
 10
91.060519999999826
 20
71.996799999999865
 30
0.0
 11
87.558720000000164
 21
71.996799999999865
 31
0.0
  0
LINE
  5
280
100
AcDbEntity
  8
001
370
               5
390
0
 62
               7
100
AcDbLine
 10
70.550000000000011
 20
72.997279999999904
 30
0.0
 11
87.558720000000164
 21
72.997279999999904
 31
0.0
  0
CIRCLE
  5
281
100
AcDbEntity
  8
001
370
               5
390
0
 62
               7
100
AcDbCircle
 10
82.555719999999923
 20
80.00087999999991
 30
0.0
 40
4.1020800000001998
  0
LINE
  5
282
100
AcDbEntity
  8
001
370
               5
390
0
 62
               7
100
AcDbLine
 10
68.548999999999808
 20
74.998400000000032
 30
0.0
 11
70.550000000000011
 21
72.997279999999904
 31
0.0
  0
LINE
  5
283
100
AcDbEntity
  8
001
370
               5
390
0
 62
               7
100
AcDbLine
 10
68.548999999999808
 20
74.998400000000032
 30
0.0
 11
68.548999999999808
 21
85.003479999999939
 31
0.0
  0
LINE
  5
284
100
AcDbEntity
  8
001
370
               5
390
0
 62
               7
100
AcDbLine
 10
102.56640000000007
 20
76.999399999999781
 30
0.0
 11
101.56592000000018
 21
76.999399999999781
 31
0.0
  0
LINE
  5
285
100
AcDbEntity
  8
001
370
               5
390
0
 62
               7
100
AcDbLine
 10
102.56640000000007
 20
83.002479999999849
 30
0.0
 11
101.56592000000018
 21
83.002479999999849
 31
0.0
  0
LINE
  5
286
100
AcDbEntity
  8
001
370
               5
390
0
 62
               7
100
AcDbLine
 10
100.26520000000019
 20
88.255079999999879
 30
0.0
 11
99.370000000000061
 21
89.80587999999986
 31
0.0
  0
LINE
  5
287
100
AcDbEntity
  8
001
370
               5
390
0
 62
               7
100
AcDbLine
 10
94.26219999999995
 20
88.255079999999879
 30
0.0
 11
95.157400000000052
 21
89.80587999999986
 31
0.0
  0
LINE
  5
288
100
AcDbEntity
  8
001
370
               5
390
0
 62
               7
100
AcDbLine
 10
100.56539999999987
 20
86.003999999999877
 30
0.0
 11
100.26520000000019
 21
86.003999999999877
 31
0.0
  0
LINE
  5
289
100
AcDbEntity
  8
001
370
               5
390
0
 62
               7
100
AcDbLine
 10
100.56539999999987
 20
84.50319999999985
 30
0.0
 11
101.16572000000014
 21
84.50319999999985
 31
0.0
  0
LINE
  5
28A
100
AcDbEntity
  8
001
370
               5
390
0
 62
               7
100
AcDbLine
 10
101.16572000000014
 20
82.001879999999886
 30
0.0
 11
101.65580000000008
 21
82.001879999999886
 31
0.0
  0
LINE
  5
28B
100
AcDbEntity
  8
001
370
               5
390
0
 62
               7
100
AcDbLine
 10
101.16572000000014
 20
77.999879999999933
 30
0.0
 11
101.56592000000018
 21
77.999879999999933
 31
0.0
  0
LINE
  5
28C
100
AcDbEntity
  8
001
370
               5
390
0
 62
               7
100
AcDbLine
 10
100.56539999999987
 20
73.997799999999842
 30
0.0
 11
100.26520000000019
 21
73.997799999999842
 31
0.0
  0
LINE
  5
28D
100
AcDbEntity
  8
001
370
               5
390
0
 62
               7
100
AcDbLine
 10
100.56539999999987
 20
75.498599999999868
 30
0.0
 11
101.16572000000014
 21
75.498599999999868
 31
0.0
  0
LINE
  5
28E
100
AcDbEntity
  8
001
370
               5
390
0
 62
               7
100
AcDbLine
 10
63.545920000000109
 20
76.248999999999882
 30
0.0
 11
58.736279999999908
 21
76.248999999999882
 31
0.0
  0
LINE
  5
28F
100
AcDbEntity
  8
001
370
               5
390
0
 62
               7
100
AcDbLine
 10
63.545920000000109
 20
83.752799999999951
 30
0.0
 11
58.736279999999908
 21
83.752799999999951
 31
0.0
  0
LINE
  5
290
100
AcDbEntity
  8
001
370
               5
390
0
 62
               7
100
AcDbLine
 10
65.848719999999958
 20
84.002999999999787
 30
0.0
 11
65.848719999999958
 21
75.998879999999843
 31
0.0
  0
ARC
  5
291
100
AcDbEntity
  8
001
370
               5
390
0
 62
               7
100
AcDbCircle
 10
95.744599999999991
 20
87.354680000000002
 30
0.0
 40
4.3762676724350449
100
AcDbArc
 50
325.93519262945051
 51
34.065534541600186
  0
LINE
  5
292
100
AcDbEntity
  8
001
370
               5
390
0
 62
               7
100
AcDbLine
 10
99.369919999999922
 20
84.903399999999891
 30
0.0
 11
95.15751999999992
 21
84.903399999999891
 31
0.0
  0
ARC
  5
293
100
AcDbEntity
  8
001
370
               5
390
0
 62
               7
100
AcDbCircle
 10
98.782800000000123
 20
87.354680000000002
 30
0.0
 40
4.3761897260517362
100
AcDbArc
 50
145.93576696531292
 51
214.06496021729066
  0
ARC
  5
294
100
AcDbEntity
  8
001
370
               5
390
0
 62
               7
100
AcDbCircle
 10
110.78499999999985
 20
80.00087999999991
 30
0.0
 40
16.378425855398859
100
AcDbArc
 50
162.58275960575091
 51
197.41710688001331
  0
ARC
  5
295
100
AcDbEntity
  8
001
370
               5
390
0
 62
               7
100
AcDbCircle
 10
83.742399999999918
 20
80.00087999999991
 30
0.0
 40
16.378452048371354
100
AcDbArc
 50
342.58293500452794
 51
17.417198509427976
  0
LINE
  5
296
100
AcDbEntity
  8
001
370
               5
390
0
 62
               7
100
AcDbLine
 10
99.369919999999922
 20
75.098399999999941
 30
0.0
 11
95.15751999999992
 21
75.098399999999941
 31
0.0
  0
ARC
  5
297
100
AcDbEntity
  8
001
370
               5
390
0
 62
               7
100
AcDbCircle
 10
95.744599999999991
 20
72.64719999999997
 30
0.0
 40
4.3762900777713023
100
AcDbArc
 50
325.93475880003973
 51
34.064080203059177
  0
ARC
  5
298
100
AcDbEntity
  8
001
370
               5
390
0
 62
               7
100
AcDbCircle
 10
98.782800000000123
 20
72.64719999999997
 30
0.0
 40
4.3761897260518001
100
AcDbArc
 50
145.93576696531173
 51
214.06612123821247
  0
LINE
  5
299
100
AcDbEntity
  8
001
370
               5
390
0
 62
               7
100
AcDbLine
 10
101.16572000000014
 20
82.001879999999886
 30
0.0
 11
101.16572000000014
 21
84.50319999999985
 31
0.0
  0
LINE
  5
29A
100
AcDbEntity
  8
001
370
               5
390
0
 62
               7
100
AcDbLine
 10
101.16572000000014
 20
77.999879999999933
 30
0.0
 11
101.16572000000014
 21
75.498599999999868
 31
0.0
  0
LINE
  5
29B
100
AcDbEntity
  8
001
370
               5
390
0
 62
               7
100
AcDbLine
 10
100.56539999999987
 20
75.498599999999868
 30
0.0
 11
100.56539999999987
 21
73.997799999999842
 31
0.0
  0
LINE
  5
29C
100
AcDbEntity
  8
001
370
               5
390
0
 62
               7
100
AcDbLine
 10
100.56539999999987
 20
84.50319999999985
 30
0.0
 11
100.56539999999987
 21
86.003999999999877
 31
0.0
  0
LINE
  5
29D
100
AcDbEntity
  8
001
370
               5
390
0
 62
               7
100
AcDbLine
 10
100.26520000000019
 20
86.003999999999877
 30
0.0
 11
100.26520000000019
 21
88.255079999999879
 31
0.0
  0
LINE
  5
29E
100
AcDbEntity
  8
001
370
               5
390
0
 62
               7
100
AcDbLine
 10
100.26520000000019
 20
73.997799999999842
 30
0.0
 11
100.26520000000019
 21
71.746679999999941
 31
0.0
  0
LINE
  5
29F
100
AcDbEntity
  8
001
370
               5
390
0
 62
               7
100
AcDbLine
 10
100.26520000000019
 20
73.997799999999842
 30
0.0
 11
100.26520000000019
 21
86.003999999999877
 31
0.0
  0
LINE
  5
2A0
100
AcDbEntity
  8
001
370
               5
390
0
 62
               7
100
AcDbLine
 10
100.56539999999987
 20
84.50319999999985
 30
0.0
 11
100.56539999999987
 21
75.498599999999868
 31
0.0
  0
LINE
  5
2A1
100
AcDbEntity
  8
001
370
               5
390
0
 62
               7
100
AcDbLine
 10
101.16572000000014
 20
77.999879999999933
 30
0.0
 11
101.16572000000014
 21
82.001879999999886
 31
0.0
  0
LINE
  5
2A2
100
AcDbEntity
  8
001
370
               5
390
0
 62
               7
100
AcDbLine
 10
101.56592000000018
 20
82.001879999999886
 30
0.0
 11
101.56592000000018
 21
83.002479999999849
 31
0.0
  0
LINE
  5
2A3
100
AcDbEntity
  8
001
370
               5
390
0
 62
               7
100
AcDbLine
 10
101.56592000000018
 20
77.999879999999933
 30
0.0
 11
101.56592000000018
 21
76.999399999999781
 31
0.0
  0
LINE
  5
2A4
100
AcDbEntity
  8
001
370
               5
390
0
 62
               7
100
AcDbLine
 10
101.56592000000018
 20
77.999879999999933
 30
0.0
 11
101.56592000000018
 21
82.001879999999886
 31
0.0
  0
LINE
  5
2A5
100
AcDbEntity
  8
001
370
               5
390
0
 62
               7
100
AcDbLine
 10
68.548999999999808
 20
84.002999999999787
 30
0.0
 11
63.545920000000109
 21
84.002999999999787
 31
0.0
  0
LINE
  5
2A6
100
AcDbEntity
  8
001
370
               5
390
0
  6
STYLE_12
 62
               7
100
AcDbLine
 10
68.548999999999808
 20
84.002999999999787
 30
0.0
 11
80.655199999999979
 21
84.002999999999787
 31
0.0
  0
LINE
  5
2A7
100
AcDbEntity
  8
001
370
               5
390
0
  6
STYLE_12
 62
               7
100
AcDbLine
 10
68.548999999999808
 20
83.327599999999933
 30
0.0
 11
79.155600000000049
 21
83.327599999999933
 31
0.0
  0
LINE
  5
2A8
100
AcDbEntity
  8
001
370
               5
390
0
  6
STYLE_12
 62
               7
100
AcDbLine
 10
77.553600000000017
 20
82.802399999999892
 30
0.0
 11
76.352999999999895
 21
84.002999999999787
 31
0.0
  0
LINE
  5
2A9
100
AcDbEntity
  8
001
370
               5
390
0
  6
STYLE_12
 62
               7
100
AcDbLine
 10
76.352999999999895
 20
75.998879999999843
 30
0.0
 11
76.352999999999895
 21
84.002999999999787
 31
0.0
  0
LINE
  5
2AA
100
AcDbEntity
  8
001
370
               5
390
0
  6
STYLE_12
 62
               7
100
AcDbLine
 10
77.553600000000017
 20
82.802399999999892
 30
0.0
 11
77.553600000000017
 21
77.199479999999966
 31
0.0
  0
LINE
  5
2AB
100
AcDbEntity
  8
001
370
               5
390
0
  6
STYLE_12
 62
               7
100
AcDbLine
 10
77.553600000000017
 20
77.199479999999966
 30
0.0
 11
76.352999999999895
 21
75.998879999999843
 31
0.0
  0
LINE
  5
2AC
100
AcDbEntity
  8
001
370
               5
390
0
  6
STYLE_12
 62
               7
100
AcDbLine
 10
68.548999999999808
 20
76.674200000000013
 30
0.0
 11
79.155600000000049
 21
76.674200000000013
 31
0.0
  0
LINE
  5
2AD
100
AcDbEntity
  8
001
370
               5
390
0
  6
STYLE_12
 62
               7
100
AcDbLine
 10
68.548999999999808
 20
75.998879999999843
 30
0.0
 11
80.655199999999979
 21
75.998879999999843
 31
0.0
  0
LINE
  5
2AE
100
AcDbEntity
  8
001
370
               5
390
0
 62
               7
100
AcDbLine
 10
68.548999999999808
 20
76.674200000000013
 30
0.0
 11
65.848719999999958
 21
76.674200000000013
 31
0.0
  0
LINE
  5
2AF
100
AcDbEntity
  8
001
370
               5
390
0
 62
               7
100
AcDbLine
 10
68.548999999999808
 20
83.327599999999933
 30
0.0
 11
65.848719999999958
 21
83.327599999999933
 31
0.0
  0
LINE
  5
2B0
100
AcDbEntity
  8
001
370
               5
390
0
 62
               7
100
AcDbLine
 10
65.848719999999958
 20
83.327599999999933
 30
0.0
 11
64.67891999999992
 21
84.002999999999787
 31
0.0
  0
LINE
  5
2B1
100
AcDbEntity
  8
001
370
               5
390
0
 62
               7
100
AcDbLine
 10
65.848719999999958
 20
76.674200000000013
 30
0.0
 11
64.67891999999992
 21
75.998879999999843
 31
0.0
  0
LINE
  5
2B2
100
AcDbEntity
  8
001
370
               5
390
0
  6
STYLE_13
 62
               7
100
AcDbLine
 10
82.555719999999923
 20
85.148479999999921
 30
0.0
 11
82.555719999999923
 21
73.858280000000008
 31
0.0
  0
LINE
  5
2B3
100
AcDbEntity
  8
001
370
               5
390
0
 62
               7
100
AcDbLine
 10
63.545920000000109
 20
72.497079999999841
 30
0.0
 11
58.736279999999908
 21
72.497079999999841
 31
0.0
  0
LINE
  5
2B4
100
AcDbEntity
  8
001
370
               5
390
0
 62
               7
100
AcDbLine
 10
68.548999999999808
 20
75.998879999999843
 30
0.0
 11
63.545920000000109
 21
75.998879999999843
 31
0.0
  0
LINE
  5
2B5
100
AcDbEntity
  8
001
370
               5
390
0
 62
               7
100
AcDbLine
 10
94.26219999999995
 20
99.561079999999833
 30
0.0
 11
91.060519999999826
 21
99.561079999999833
 31
0.0
  0
ARC
  5
2B6
100
AcDbEntity
  8
001
370
               5
390
0
 62
               7
100
AcDbCircle
 10
83.742399999999918
 20
80.00087999999991
 30
0.0
 40
16.378452048371354
100
AcDbArc
 50
342.58293500452794
 51
17.417198509427976
  0
LINE
  5
2B7
100
AcDbEntity
  8
001
370
               5
390
0
 62
               7
100
AcDbLine
 10
58.736279999999908
 20
72.497079999999841
 30
0.0
 11
58.043079999999833
 21
73.697679999999963
 31
0.0
  0
LINE
  5
2B8
100
AcDbEntity
  8
001
370
               5
390
0
 62
               7
100
AcDbLine
 10
58.736279999999908
 20
87.50479999999979
 30
0.0
 11
58.043079999999833
 21
86.304079999999857
 31
0.0
  0
ARC
  5
2B9
100
AcDbEntity
  8
001
370
               5
390
0
 62
               7
100
AcDbCircle
 10
68.54360000000014
 20
80.00087999999991
 30
0.0
 40
10.50049662010349
100
AcDbArc
 50
159.06498718906502
 51
200.93480895944901
  0
ARC
  5
2BA
100
AcDbEntity
  8
001
370
               5
390
0
 62
               7
100
AcDbCircle
 10
60.928199999999919
 20
74.372999999999905
 30
0.0
 40
2.8849459291984614
100
AcDbArc
 50
139.44101282104421
 51
220.55786708774559
  0
ARC
  5
2BB
100
AcDbEntity
  8
001
370
               5
390
0
 62
               7
100
AcDbCircle
 10
60.928199999999919
 20
85.628799999999814
 30
0.0
 40
2.8849459291986093
100
AcDbArc
 50
139.44101282104074
 51
220.55898717895082
  0
LINE
  5
2BC
100
AcDbEntity
  8
001
370
               5
390
0
 62
               7
100
AcDbLine
 10
91.060519999999826
 20
-46.51360000000011
 30
0.0
 11
94.26219999999995
 21
-46.51360000000011
 31
0.0
  0
LINE
  5
2BD
100
AcDbEntity
  8
001
370
               5
390
0
 62
               7
100
AcDbLine
 10
124.51771999999983
 20
-5.9929200000000264
 30
0.0
 11
124.51771999999983
 21
-31.00572000000011
 31
0.0
  0
LINE
  5
2BE
100
AcDbEntity
  8
001
370
               5
390
0
 62
               7
100
AcDbLine
 10
88.459200000000067
 20
-7.4936000000001286
 30
0.0
 11
88.459200000000067
 21
-32.506400000000099
 31
0.0
  0
LINE
  5
2BF
100
AcDbEntity
  8
001
370
               5
390
0
 62
               7
100
AcDbLine
 10
117.51411999999982
 20
-1.9908000000001493
 30
0.0
 11
117.51411999999982
 21
-5.9929200000000264
 31
0.0
  0
LINE
  5
2C0
100
AcDbEntity
  8
001
370
               5
390
0
 62
               7
100
AcDbLine
 10
113.51199999999989
 20
-1.9908000000001493
 30
0.0
 11
113.51199999999989
 21
-5.9929200000000264
 31
0.0
  0
LINE
  5
2C1
100
AcDbEntity
  8
001
370
               5
390
0
 62
               7
100
AcDbLine
 10
119.01480000000009
 20
1.5109999999998536
 30
0.0
 11
119.01480000000009
 21
-1.9908000000001493
 31
0.0
  0
LINE
  5
2C2
100
AcDbEntity
  8
001
370
               5
390
0
 62
               7
100
AcDbLine
 10
112.01131999999998
 20
1.5109999999998536
 30
0.0
 11
112.01131999999998
 21
-1.9908000000001493
 31
0.0
  0
LINE
  5
2C3
100
AcDbEntity
  8
001
370
               5
390
0
 62
               7
100
AcDbLine
 10
119.21860000000015
 20
-1.9908000000001493
 30
0.0
 11
112.20931999999993
 21
-1.9908000000001493
 31
0.0
  0
LINE
  5
2C4
100
AcDbEntity
  8
001
370
               5
390
0
 62
               7
100
AcDbLine
 10
124.51771999999983
 20
-5.9929200000000264
 30
0.0
 11
107.50900000000001
 21
-5.9929200000000264
 31
0.0
  0
ARC
  5
2C5
100
AcDbEntity
  8
001
370
               5
390
0
 62
               7
100
AcDbCircle
 10
107.00872000000018
 20
-5.2425200000001269
 30
0.0
 40
0.5002799999998331
100
AcDbArc
 50
0.0
 51
90.0
  0
LINE
  5
2C6
100
AcDbEntity
  8
001
370
               5
390
0
 62
               7
100
AcDbLine
 10
107.00872000000018
 20
-4.7422000000000253
 30
0.0
 11
94.26219999999995
 21
-4.7422000000000253
 31
0.0
  0
LINE
  5
2C7
100
AcDbEntity
  8
001
370
               5
390
0
 62
               7
100
AcDbLine
 10
107.99739999999983
 20
-33.395400000000222
 30
0.0
 11
122.5166000000001
 21
-33.053800000000024
 31
0.0
  0
LINE
  5
2C8
100
AcDbEntity
  8
001
370
               5
390
0
 62
               7
100
AcDbLine
 10
122.5166000000001
 20
-33.053720000000112
 30
0.0
 11
124.51771999999983
 21
-31.00572000000011
 31
0.0
  0
LINE
  5
2C9
100
AcDbEntity
  8
001
370
               5
390
0
 62
               7
100
AcDbLine
 10
107.50900000000001
 20
-5.2425200000001269
 30
0.0
 11
107.50900000000001
 21
-34.757600000000139
 31
0.0
  0
ARC
  5
2CA
100
AcDbEntity
  8
001
370
               5
390
0
 62
               7
100
AcDbCircle
 10
108.00920000000005
 20
-33.895600000000059
 30
0.0
 40
0.5003391649669664
100
AcDbArc
 50
91.351389088533324
 51
179.99083853870198
  0
ARC
  5
2CB
100
AcDbEntity
  8
001
370
               5
390
0
 62
               7
100
AcDbCircle
 10
107.00872000000018
 20
-34.757600000000139
 30
0.0
 40
0.5002000000000635
100
AcDbArc
 50
270.0
 51
0.0
  0
LINE
  5
2CC
100
AcDbEntity
  8
001
370
               5
390
0
 62
               7
100
AcDbLine
 10
107.00872000000018
 20
-35.257800000000202
 30
0.0
 11
94.26219999999995
 21
-35.257800000000202
 31
0.0
  0
LINE
  5
2CD
100
AcDbEntity
  8
001
370
               5
390
0
 62
               7
100
AcDbLine
 10
88.459200000000067
 20
-32.506400000000099
 30
0.0
 11
91.060519999999826
 21
-32.506400000000099
 31
0.0
  0
LINE
  5
2CE
100
AcDbEntity
  8
001
370
               5
390
0
 62
               7
100
AcDbLine
 10
88.459200000000067
 20
-7.4936000000001286
 30
0.0
 11
91.060519999999826
 21
-7.4936000000001286
 31
0.0
  0
LINE
  5
2CF
100
AcDbEntity
  8
001
370
               5
390
0
 62
               7
100
AcDbLine
 10
124.51771999999983
 20
-8.9944000000001552
 30
0.0
 11
122.5166000000001
 21
-6.9464000000000397
 31
0.0
  0
LINE
  5
2D0
100
AcDbEntity
  8
001
370
               5
390
0
 62
               7
100
AcDbLine
 10
119.51512000000002
 20
-5.9929200000000264
 30
0.0
 11
122.5166000000001
 21
-6.9464000000000397
 31
0.0
  0
LINE
  5
2D1
100
AcDbEntity
  8
001
370
               5
390
0
 62
               7
100
AcDbLine
 10
117.51411999999982
 20
-3.291520000000105
 30
0.0
 11
113.51199999999989
 21
-3.291520000000105
 31
0.0
  0
LINE
  5
2D2
100
AcDbEntity
  8
001
370
               5
390
0
 62
               7
100
AcDbLine
 10
117.11391999999978
 20
-5.9929200000000264
 30
0.0
 11
117.11391999999978
 21
-3.291520000000105
 31
0.0
  0
LINE
  5
2D3
100
AcDbEntity
  8
001
370
               5
390
0
 62
               7
100
AcDbLine
 10
117.11391999999978
 20
-3.291520000000105
 30
0.0
 11
117.51411999999982
 21
-2.5983200000000579
 31
0.0
  0
LINE
  5
2D4
100
AcDbEntity
  8
001
370
               5
390
0
 62
               7
100
AcDbLine
 10
113.91219999999993
 20
-3.291520000000105
 30
0.0
 11
113.51199999999989
 21
-2.5983200000000579
 31
0.0
  0
LINE
  5
2D5
100
AcDbEntity
  8
001
370
               5
390
0
 62
               7
100
AcDbLine
 10
113.91219999999993
 20
-5.9929200000000264
 30
0.0
 11
113.91219999999993
 21
-3.291520000000105
 31
0.0
  0
LINE
  5
2D6
100
AcDbEntity
  8
001
370
               5
390
0
  6
STYLE_13
 62
               7
100
AcDbLine
 10
115.51300000000009
 20
4.8191999999999098
 30
0.0
 11
115.51300000000009
 21
-14.50572000000011
 31
0.0
  0
LINE
  5
2D7
100
AcDbEntity
  8
001
370
               5
390
0
 62
               7
100
AcDbLine
 10
122.5166000000001
 20
-33.053800000000024
 30
0.0
 11
122.5166000000001
 21
-6.9463200000000143
 31
0.0
  0
LINE
  5
2D8
100
AcDbEntity
  8
001
370
               5
390
0
 62
               7
100
AcDbLine
 10
107.99739999999983
 20
-6.6047200000001567
 30
0.0
 11
122.5166000000001
 21
-6.9463200000000143
 31
0.0
  0
ARC
  5
2D9
100
AcDbEntity
  8
001
370
               5
390
0
 62
               7
100
AcDbCircle
 10
108.00920000000005
 20
-6.1045200000000932
 30
0.0
 40
0.5002000000000351
100
AcDbArc
 50
180.0
 51
268.64828675030458
  0
LINE
  5
2DA
100
AcDbEntity
  8
001
370
               5
390
0
 62
               7
100
AcDbLine
 10
88.459200000000067
 20
-14.247119999999995
 30
0.0
 11
84.948199999999986
 21
-14.247119999999995
 31
0.0
  0
LINE
  5
2DB
100
AcDbEntity
  8
001
370
               5
390
0
 62
               7
100
AcDbLine
 10
84.4572
 20
-15.097520000000145
 30
0.0
 11
84.948199999999986
 21
-14.247119999999995
 31
0.0
  0
LINE
  5
2DC
100
AcDbEntity
  8
001
370
               5
390
0
 62
               7
100
AcDbLine
 10
84.4572
 20
-15.097520000000145
 30
0.0
 11
84.4572
 21
-24.902519999999981
 31
0.0
  0
LINE
  5
2DD
100
AcDbEntity
  8
001
370
               5
390
0
 62
               7
100
AcDbLine
 10
84.4572
 20
-24.902519999999981
 30
0.0
 11
84.948199999999986
 21
-25.753000000000043
 31
0.0
  0
LINE
  5
2DE
100
AcDbEntity
  8
001
370
               5
390
0
 62
               7
100
AcDbLine
 10
88.459200000000067
 20
-25.753000000000043
 30
0.0
 11
84.948199999999986
 21
-25.753000000000043
 31
0.0
  0
ARC
  5
2DF
100
AcDbEntity
  8
001
370
               5
390
0
 62
               7
100
AcDbCircle
 10
87.118799999999823
 20
-24.314720000000193
 30
0.0
 40
2.6038286425952535
100
AcDbArc
 50
146.47227069185934
 51
213.52894920331789
  0
ARC
  5
2E0
100
AcDbEntity
  8
001
370
               5
390
0
 62
               7
100
AcDbCircle
 10
94.280800000000085
 20
-20.0
 30
0.0
 40
9.7658128038582195
100
AcDbArc
 50
162.87018233909771
 51
197.1305595887552
  0
LINE
  5
2E1
100
AcDbEntity
  8
001
370
               5
390
0
 62
               7
100
AcDbLine
 10
88.459200000000067
 20
-22.876520000000141
 30
0.0
 11
84.948199999999986
 21
-22.876520000000141
 31
0.0
  0
LINE
  5
2E2
100
AcDbEntity
  8
001
370
               5
390
0
 62
               7
100
AcDbLine
 10
88.459200000000067
 20
-17.123600000000124
 30
0.0
 11
84.948199999999986
 21
-17.123600000000124
 31
0.0
  0
ARC
  5
2E3
100
AcDbEntity
  8
001
370
               5
390
0
 62
               7
100
AcDbCircle
 10
87.118799999999823
 20
-15.685320000000161
 30
0.0
 40
2.6038286425953161
100
AcDbArc
 50
146.47227069185726
 51
213.52772930813998
  0
LINE
  5
2E4
100
AcDbEntity
  8
001
370
               5
390
0
 62
               7
100
AcDbLine
 10
102.26631999999989
 20
-35.174200000000042
 30
0.0
 11
99.504920000000141
 21
-35.257800000000202
 31
0.0
  0
LINE
  5
2E5
100
AcDbEntity
  8
001
370
               5
390
0
 62
               7
100
AcDbLine
 10
102.26631999999989
 20
-4.8259200000001101
 30
0.0
 11
99.504920000000141
 21
-4.7422000000000253
 31
0.0
  0
ARC
  5
2E6
100
AcDbEntity
  8
001
370
               5
390
0
 62
               7
100
AcDbCircle
 10
118.51460000000006
 20
1.5109999999998536
 30
0.0
 40
0.5002000000000351
100
AcDbArc
 50
0.0
 51
90.0
  0
LINE
  5
2E7
100
AcDbEntity
  8
001
370
               5
390
0
 62
               7
100
AcDbLine
 10
112.51152000000002
 20
2.0111999999999171
 30
0.0
 11
118.51460000000006
 21
2.0111999999999171
 31
0.0
  0
ARC
  5
2E8
100
AcDbEntity
  8
001
370
               5
390
0
 62
               7
100
AcDbCircle
 10
112.51152000000002
 20
1.5109999999998536
 30
0.0
 40
0.5002000000000635
100
AcDbArc
 50
90.0
 51
180.0
  0
LINE
  5
2E9
100
AcDbEntity
  8
001
370
               5
390
0
  6
STYLE_11
 62
               7
100
AcDbLine
 10
58.043079999999833
 20
86.304079999999857
 30
0.0
 11
58.043079999999833
 21
73.697679999999963
 31
0.0
  0
LINE
  5
2EA
100
AcDbEntity
  8
001
370
               5
390
0
 62
               7
100
AcDbLine
 10
-248.89971999999989
 20
-18.249120000000062
 30
0.0
 11
-249.69212000000016
 21
-18.249120000000062
 31
0.0
  0
LINE
  5
2EB
100
AcDbEntity
  8
001
370
               5
390
0
 62
               7
100
AcDbLine
 10
-248.89959999999996
 20
-18.249000000000137
 30
0.0
 11
-248.89959999999996
 21
-19.236200000000167
 31
0.0
  0
LINE
  5
2EC
100
AcDbEntity
  8
001
370
               5
390
0
 62
               7
100
AcDbLine
 10
-248.89959999999996
 20
-19.236200000000167
 30
0.0
 11
-248.49199999999985
 21
-19.643800000000056
 31
0.0
  0
LINE
  5
2ED
100
AcDbEntity
  8
001
370
               5
390
0
 62
               7
100
AcDbLine
 10
-247.58512000000019
 20
-19.643920000000094
 30
0.0
 11
-248.49192000000005
 21
-19.643920000000094
 31
0.0
  0
LINE
  5
2EE
100
AcDbEntity
  8
001
370
               5
390
0
 62
               7
100
AcDbLine
 10
-247.58512000000019
 20
-19.643920000000094
 30
0.0
 11
-247.58512000000019
 21
-20.436320000000137
 31
0.0
  0
LINE
  5
2EF
100
AcDbEntity
  8
001
370
               5
390
0
 62
               7
100
AcDbLine
 10
-247.58492000000001
 20
-20.436320000000137
 30
0.0
 11
-248.57212000000004
 21
-20.436320000000137
 31
0.0
  0
LINE
  5
2F0
100
AcDbEntity
  8
001
370
               5
390
0
 62
               7
100
AcDbLine
 10
-248.57212000000004
 20
-20.436320000000137
 30
0.0
 11
-248.97972000000004
 21
-20.843920000000139
 31
0.0
  0
LINE
  5
2F1
100
AcDbEntity
  8
001
370
               5
390
0
 62
               7
100
AcDbLine
 10
-248.97979999999984
 20
-21.75080000000014
 30
0.0
 11
-248.97979999999984
 21
-20.844000000000051
 31
0.0
  0
LINE
  5
2F2
100
AcDbEntity
  8
001
370
               5
390
0
 62
               7
100
AcDbLine
 10
-248.97979999999984
 20
-21.750920000000065
 30
0.0
 11
-249.77220000000011
 21
-21.750920000000065
 31
0.0
  0
LINE
  5
2F3
100
AcDbEntity
  8
001
370
               5
390
0
 62
               7
100
AcDbLine
 10
-249.77220000000011
 20
-21.750920000000065
 30
0.0
 11
-249.77220000000011
 21
-20.76380000000006
 31
0.0
  0
LINE
  5
2F4
100
AcDbEntity
  8
001
370
               5
390
0
 62
               7
100
AcDbLine
 10
-249.77220000000011
 20
-20.76380000000006
 30
0.0
 11
-250.17979999999989
 21
-20.356200000000058
 31
0.0
  0
LINE
  5
2F5
100
AcDbEntity
  8
001
370
               5
390
0
 62
               7
100
AcDbLine
 10
-251.08672000000001
 20
-20.356200000000058
 30
0.0
 11
-250.17992000000015
 21
-20.356200000000058
 31
0.0
  0
LINE
  5
2F6
100
AcDbEntity
  8
001
370
               5
390
0
 62
               7
100
AcDbLine
 10
-251.08679999999981
 20
-20.356200000000058
 30
0.0
 11
-251.08679999999981
 21
-19.563800000000128
 31
0.0
  0
LINE
  5
2F7
100
AcDbEntity
  8
001
370
               5
390
0
 62
               7
100
AcDbLine
 10
-251.08679999999981
 20
-19.563800000000128
 30
0.0
 11
-250.09971999999982
 21
-19.563800000000128
 31
0.0
  0
LINE
  5
2F8
100
AcDbEntity
  8
001
370
               5
390
0
 62
               7
100
AcDbLine
 10
-250.09971999999982
 20
-19.563720000000103
 30
0.0
 11
-249.69212000000016
 21
-19.156119999999987
 31
0.0
  0
LINE
  5
2F9
100
AcDbEntity
  8
001
370
               5
390
0
 62
               7
100
AcDbLine
 10
-249.69212000000016
 20
-18.249120000000062
 30
0.0
 11
-249.69212000000016
 21
-19.156000000000176
 31
0.0
  0
LINE
  5
2FA
100
AcDbEntity
  8
001
370
               5
390
0
 62
               7
100
AcDbLine
 10
-168.85879999999997
 20
-18.249120000000062
 30
0.0
 11
-169.6511999999999
 21
-18.249120000000062
 31
0.0
  0
LINE
  5
2FB
100
AcDbEntity
  8
001
370
               5
390
0
 62
               7
100
AcDbLine
 10
-168.85872000000018
 20
-18.249000000000137
 30
0.0
 11
-168.85872000000018
 21
-19.236200000000167
 31
0.0
  0
LINE
  5
2FC
100
AcDbEntity
  8
001
370
               5
390
0
 62
               7
100
AcDbLine
 10
-168.85872000000018
 20
-19.236200000000167
 30
0.0
 11
-168.45112000000006
 21
-19.643800000000056
 31
0.0
  0
LINE
  5
2FD
100
AcDbEntity
  8
001
370
               5
390
0
 62
               7
100
AcDbLine
 10
-167.54412000000013
 20
-19.643920000000094
 30
0.0
 11
-168.45092000000005
 21
-19.643920000000094
 31
0.0
  0
LINE
  5
2FE
100
AcDbEntity
  8
001
370
               5
390
0
 62
               7
100
AcDbLine
 10
-167.54412000000013
 20
-19.643920000000094
 30
0.0
 11
-167.54412000000013
 21
-20.436320000000137
 31
0.0
  0
LINE
  5
2FF
100
AcDbEntity
  8
001
370
               5
390
0
 62
               7
100
AcDbLine
 10
-167.54399999999987
 20
-20.436320000000137
 30
0.0
 11
-168.53111999999999
 21
-20.436320000000137
 31
0.0
  0
LINE
  5
300
100
AcDbEntity
  8
001
370
               5
390
0
 62
               7
100
AcDbLine
 10
-168.53111999999999
 20
-20.436320000000137
 30
0.0
 11
-168.9387200000001
 21
-20.843920000000139
 31
0.0
  0
LINE
  5
301
100
AcDbEntity
  8
001
370
               5
390
0
 62
               7
100
AcDbLine
 10
-168.9387999999999
 20
-21.75080000000014
 30
0.0
 11
-168.9387999999999
 21
-20.844000000000051
 31
0.0
  0
LINE
  5
302
100
AcDbEntity
  8
001
370
               5
390
0
 62
               7
100
AcDbLine
 10
-168.9387999999999
 20
-21.750920000000065
 30
0.0
 11
-169.73119999999983
 21
-21.750920000000065
 31
0.0
  0
LINE
  5
303
100
AcDbEntity
  8
001
370
               5
390
0
 62
               7
100
AcDbLine
 10
-169.73119999999983
 20
-21.750920000000065
 30
0.0
 11
-169.73119999999983
 21
-20.76380000000006
 31
0.0
  0
LINE
  5
304
100
AcDbEntity
  8
001
370
               5
390
0
 62
               7
100
AcDbLine
 10
-169.73119999999983
 20
-20.76380000000006
 30
0.0
 11
-170.13879999999995
 21
-20.356200000000058
 31
0.0
  0
LINE
  5
305
100
AcDbEntity
  8
001
370
               5
390
0
 62
               7
100
AcDbLine
 10
-171.04579999999987
 20
-20.356200000000058
 30
0.0
 11
-170.13892000000016
 21
-20.356200000000058
 31
0.0
  0
LINE
  5
306
100
AcDbEntity
  8
001
370
               5
390
0
 62
               7
100
AcDbLine
 10
-171.04592000000014
 20
-20.356200000000058
 30
0.0
 11
-171.04592000000014
 21
-19.563800000000128
 31
0.0
  0
LINE
  5
307
100
AcDbEntity
  8
001
370
               5
390
0
 62
               7
100
AcDbLine
 10
-171.04592000000014
 20
-19.563800000000128
 30
0.0
 11
-170.05880000000002
 21
-19.563800000000128
 31
0.0
  0
LINE
  5
308
100
AcDbEntity
  8
001
370
               5
390
0
 62
               7
100
AcDbLine
 10
-170.05880000000002
 20
-19.563720000000103
 30
0.0
 11
-169.6511999999999
 21
-19.156119999999987
 31
0.0
  0
LINE
  5
309
100
AcDbEntity
  8
001
370
               5
390
0
 62
               7
100
AcDbLine
 10
-169.6511999999999
 20
-18.249120000000062
 30
0.0
 11
-169.6511999999999
 21
-19.156000000000176
 31
0.0
  0
LINE
  5
30A
100
AcDbEntity
  8
001
370
               5
390
0
 62
               7
100
AcDbLine
 10
147.0239999999998
 20
-91.436599999999999
 30
0.0
 11
147.0239999999998
 21
-94.037920000000099
 31
0.0
  0
LINE
  5
30B
100
AcDbEntity
  8
001
370
               5
390
0
 62
               7
100
AcDbLine
 10
154.02759999999981
 20
-94.037920000000099
 30
0.0
 11
154.02759999999981
 21
-91.436599999999999
 31
0.0
  0
LINE
  5
30C
100
AcDbEntity
  8
001
370
               5
390
0
 62
               7
100
AcDbLine
 10
207.0239999999998
 20
-94.037920000000099
 30
0.0
 11
207.0239999999998
 21
-91.436599999999999
 31
0.0
  0
LINE
  5
30D
100
AcDbEntity
  8
001
370
               5
390
0
 62
               7
100
AcDbLine
 10
214.02759999999981
 20
-91.436599999999999
 30
0.0
 11
214.02759999999981
 21
-94.037920000000099
 31
0.0
  0
LINE
  5
30E
100
AcDbEntity
  8
001
370
               5
390
0
 62
               7
100
AcDbLine
 10
102.26631999999989
 20
-20.0
 30
0.0
 11
99.504920000000141
 21
-21.594920000000116
 31
0.0
  0
LINE
  5
30F
100
AcDbEntity
  8
001
370
               5
390
0
 62
               7
100
AcDbLine
 10
99.504920000000141
 20
-21.594920000000116
 30
0.0
 11
102.26631999999989
 21
-23.172320000000013
 31
0.0
  0
LINE
  5
310
100
AcDbEntity
  8
001
370
               5
390
0
 62
               7
100
AcDbLine
 10
102.26631999999989
 20
-23.172400000000039
 30
0.0
 11
99.504920000000141
 21
-24.715000000000146
 31
0.0
  0
LINE
  5
311
100
AcDbEntity
  8
001
370
               5
390
0
 62
               7
100
AcDbLine
 10
99.504920000000141
 20
-24.715000000000146
 30
0.0
 11
102.26631999999989
 21
-26.205920000000219
 31
0.0
  0
LINE
  5
312
100
AcDbEntity
  8
001
370
               5
390
0
 62
               7
100
AcDbLine
 10
102.26631999999989
 20
-26.206000000000131
 30
0.0
 11
99.504920000000141
 21
-27.628920000000107
 31
0.0
  0
LINE
  5
313
100
AcDbEntity
  8
001
370
               5
390
0
 62
               7
100
AcDbLine
 10
99.504920000000141
 20
-27.628920000000107
 30
0.0
 11
102.26631999999989
 21
-28.968400000000088
 31
0.0
  0
LINE
  5
314
100
AcDbEntity
  8
001
370
               5
390
0
 62
               7
100
AcDbLine
 10
102.26631999999989
 20
-28.968320000000176
 30
0.0
 11
99.504920000000141
 21
-30.209600000000137
 31
0.0
  0
LINE
  5
315
100
AcDbEntity
  8
001
370
               5
390
0
 62
               7
100
AcDbLine
 10
99.504920000000141
 20
-30.209520000000225
 30
0.0
 11
102.26631999999989
 21
-31.338800000000106
 31
0.0
  0
LINE
  5
316
100
AcDbEntity
  8
001
370
               5
390
0
 62
               7
100
AcDbLine
 10
102.26631999999989
 20
-31.33872000000008
 30
0.0
 11
99.504920000000141
 21
-32.343920000000139
 31
0.0
  0
LINE
  5
317
100
AcDbEntity
  8
001
370
               5
390
0
 62
               7
100
AcDbLine
 10
99.504920000000141
 20
-32.343920000000139
 30
0.0
 11
102.26631999999989
 21
-33.21372000000008
 31
0.0
  0
LINE
  5
318
100
AcDbEntity
  8
001
370
               5
390
0
 62
               7
100
AcDbLine
 10
102.26631999999989
 20
-33.21372000000008
 30
0.0
 11
99.504920000000141
 21
-33.938720000000103
 31
0.0
  0
LINE
  5
319
100
AcDbEntity
  8
001
370
               5
390
0
 62
               7
100
AcDbLine
 10
99.504920000000141
 20
-33.938800000000128
 30
0.0
 11
102.26631999999989
 21
-34.511120000000119
 31
0.0
  0
LINE
  5
31A
100
AcDbEntity
  8
001
370
               5
390
0
 62
               7
100
AcDbLine
 10
102.26631999999989
 20
-34.511120000000119
 30
0.0
 11
99.504920000000141
 21
-35.062600000000089
 31
0.0
  0
LINE
  5
31B
100
AcDbEntity
  8
001
370
               5
390
0
 62
               7
100
AcDbLine
 10
102.26631999999989
 20
-20.0
 30
0.0
 11
99.504920000000141
 21
-18.40520000000015
 31
0.0
  0
LINE
  5
31C
100
AcDbEntity
  8
001
370
               5
390
0
 62
               7
100
AcDbLine
 10
99.504920000000141
 20
-18.405120000000238
 30
0.0
 11
102.26631999999989
 21
-16.827720000000113
 31
0.0
  0
LINE
  5
31D
100
AcDbEntity
  8
001
370
               5
390
0
 62
               7
100
AcDbLine
 10
102.26631999999989
 20
-16.827720000000113
 30
0.0
 11
99.504920000000141
 21
-15.28512000000012
 31
0.0
  0
LINE
  5
31E
100
AcDbEntity
  8
001
370
               5
390
0
 62
               7
100
AcDbLine
 10
99.504920000000141
 20
-15.28512000000012
 30
0.0
 11
102.26631999999989
 21
-13.79420000000016
 31
0.0
  0
LINE
  5
31F
100
AcDbEntity
  8
001
370
               5
390
0
 62
               7
100
AcDbLine
 10
102.26631999999989
 20
-13.794120000000134
 30
0.0
 11
99.504920000000141
 21
-12.371120000000133
 31
0.0
  0
LINE
  5
320
100
AcDbEntity
  8
001
370
               5
390
0
 62
               7
100
AcDbLine
 10
99.504920000000141
 20
-12.371120000000133
 30
0.0
 11
102.26631999999989
 21
-11.03160000000014
 31
0.0
  0
LINE
  5
321
100
AcDbEntity
  8
001
370
               5
390
0
 62
               7
100
AcDbLine
 10
102.26631999999989
 20
-11.031800000000089
 30
0.0
 11
99.504920000000141
 21
-9.7905200000001287
 31
0.0
  0
LINE
  5
322
100
AcDbEntity
  8
001
370
               5
390
0
 62
               7
100
AcDbLine
 10
99.504920000000141
 20
-9.7906000000001541
 30
0.0
 11
102.26631999999989
 21
-8.6613200000001598
 31
0.0
  0
LINE
  5
323
100
AcDbEntity
  8
001
370
               5
390
0
 62
               7
100
AcDbLine
 10
102.26631999999989
 20
-8.6614000000001852
 30
0.0
 11
99.504920000000141
 21
-7.6562000000000126
 31
0.0
  0
LINE
  5
324
100
AcDbEntity
  8
001
370
               5
390
0
 62
               7
100
AcDbLine
 10
99.504920000000141
 20
-7.6562000000000126
 30
0.0
 11
102.26631999999989
 21
-6.7864000000001852
 31
0.0
  0
LINE
  5
325
100
AcDbEntity
  8
001
370
               5
390
0
 62
               7
100
AcDbLine
 10
102.26631999999989
 20
-6.7864000000001852
 30
0.0
 11
99.504920000000141
 21
-6.0614000000001624
 31
0.0
  0
LINE
  5
326
100
AcDbEntity
  8
001
370
               5
390
0
 62
               7
100
AcDbLine
 10
99.504920000000141
 20
-6.061320000000137
 30
0.0
 11
102.26631999999989
 21
-5.4890000000001464
 31
0.0
  0
LINE
  5
327
100
AcDbEntity
  8
001
370
               5
390
0
 62
               7
100
AcDbLine
 10
102.26631999999989
 20
-5.4890000000001464
 30
0.0
 11
99.504920000000141
 21
-4.9375200000000632
 31
0.0
  0
LINE
  5
328
100
AcDbEntity
  8
001
370
               5
390
0
 62
               7
100
AcDbLine
 10
99.504920000000141
 20
-4.9375200000000632
 30
0.0
 11
102.26631999999989
 21
-4.8259200000001101
 31
0.0
  0
LINE
  5
329
100
AcDbEntity
  8
001
370
               5
390
0
 62
               7
100
AcDbLine
 10
99.504920000000141
 20
-35.062600000000089
 30
0.0
 11
102.26631999999989
 21
-35.174200000000042
 31
0.0
  0
MTEXT
  5
32A
100
AcDbEntity
  8
001
390
0
 62
               7
100
AcDbMText
 10
29.376550000000151
 20
6.8329995446297955
 30
0.0
 40
8.7312499999999993
 41
0.0
 71
               1
 72
               1
  1
MIN. 30
  7
ＭＳ Ｐゴシック
 11
-0.0000000521540643
 21
0.9999999999999987
 31
0.0
 73
               1
 44
0.8762322015334064
  0
LINE
  5
32B
100
AcDbEntity
  8
001
370
               5
390
0
  6
STYLE_13
 62
               7
100
AcDbLine
 10
61.236400000000145
 20
80.00087999999991
 30
0.0
 11
120.68051999999989
 21
80.00087999999991
 31
0.0
  0
DIMENSION
  5
32C
100
AcDbEntity
  8
寸法
370
               5
390
0
  6
Continuous
 62
               7
100
AcDbDimension
  2
*D1
 10
-274.34880000000021
 20
115.63607999999982
 30
0.0
 11
-210.00020729064951
 21
115.68819999999982
 31
0.0
 70
             128
 71
               5
 72
               1
 41
1.0
 42
0.0
  3
中谷
100
AcDbAlignedDimension
 13
-144.28219999999999
 23
78.130679999999813
 33
0.0
 14
-274.34880000000021
 24
78.130679999999813
 34
0.0
100
AcDbRotatedDimension
1001
ACAD
1000
DSTYLE
1002
{
1070
             271
1070
               0
1070
             279
1070
               2
1070
             340
1005
3B
1070
             147
1040
0.05212
1002
}
  0
DIMENSION
  5
32D
100
AcDbEntity
  8
寸法
370
               5
390
0
  6
Continuous
 62
               7
100
AcDbDimension
  2
*D2
 10
-176.00000000000011
 20
99.561199999999872
 30
0.0
 11
-175.97000000000011
 21
31.136786437988221
 31
0.0
 70
             128
 71
               5
 72
               1
 41
1.0
 42
0.0
  3
中谷
100
AcDbAlignedDimension
 13
-178.0
 23
-20.0
 33
0.0
 14
-209.31552000000011
 24
99.561199999999872
 34
0.0
 50
90.0
100
AcDbRotatedDimension
1001
ACAD
1000
DSTYLE
1002
{
1070
             271
1070
               0
1070
             279
1070
               2
1070
             340
1005
3B
1070
             147
1040
0.03
1002
}
  0
MTEXT
  5
32E
100
AcDbEntity
  8
001
390
0
 62
               7
100
AcDbMText
 10
-309.0
 20
188.86732999999987
 30
0.0
 40
8.7312499999999993
 41
0.0
 71
               1
 72
               1
  1
ＣＭＳ-０２２シリーズ　外形図
  7
ＭＳ Ｐゴシック (bold)
 73
               1
 44
0.8762322015334064
  0
DIMENSION
  5
32F
100
AcDbEntity
  8
寸法
370
               5
390
0
  6
Continuous
 62
               7
100
AcDbDimension
  2
*D3
 10
-281.85259999999982
 20
-110.86392000000012
 30
0.0
 11
-209.3154999999999
 21
-110.86392000000012
 31
0.0
 71
               5
 72
               1
 41
1.0
 42
0.0
  3
中谷
100
AcDbAlignedDimension
 13
-136.77839999999998
 23
-100.86392000000012
 33
0.0
 14
-281.85259999999982
 24
-100.86392000000012
 34
0.0
100
AcDbRotatedDimension
1001
ACAD
1000
DSTYLE
1002
{
1070
             271
1070
               0
1070
             279
1070
               2
1070
             340
1005
3B
1070
             147
1040
0.03
1002
}
  0
DIMENSION
  5
330
100
AcDbEntity
  8
寸法
370
               5
390
0
  6
Continuous
 62
               7
100
AcDbDimension
  2
*D4
 10
-291.85771999999997
 20
-130.86392000000009
 30
0.0
 11
-209.31545999999997
 21
-130.86392000000009
 31
0.0
 71
               5
 72
               1
 41
1.0
 42
0.0
  3
中谷
100
AcDbAlignedDimension
 13
-126.77319999999997
 23
-94.037920000000099
 33
0.0
 14
-291.85771999999997
 24
-94.037920000000099
 34
0.0
100
AcDbRotatedDimension
1001
ACAD
1000
DSTYLE
1002
{
1070
             271
1070
               0
1070
             279
1070
               2
1070
             340
1005
3B
1070
             147
1040
0.03
1002
}
  0
DIMENSION
  5
331
100
AcDbEntity
  8
寸法
370
               5
390
0
  6
Continuous
 62
               7
100
AcDbDimension
  2
*D5
 10
-140.11111999999991
 20
-87.006000000000199
 30
0.0
 11
-118.00022523867906
 21
-116.8639954678048
 31
0.0
 70
               3
 71
               5
 72
               1
 41
1.0
 42
0.0
  1
4-φ7取付穴
  3
中谷
100
AcDbDiametricDimension
 15
-136.4789199999999
 25
-92.99412000000018
 35
0.0
 40
27.9178
1001
ACAD
1000
DSTYLE
1002
{
1070
             172
1070
               0
1070
             289
1070
               0
1070
             342
1005
5C
1070
             340
1005
3B
1070
              73
1070
               1
1070
              74
1070
               1
1070
              75
1070
               1
1070
              76
1070
               1
1070
             174
1070
               0
1070
             147
1040
0.03
1002
}
  0
DIMENSION
  5
332
100
AcDbEntity
  8
寸法
370
               5
390
0
  6
Continuous
 62
               7
100
AcDbDimension
  2
*D6
 10
-119.99999999999997
 20
-94.037920000000099
 30
0.0
 11
-119.96999999999997
 21
-84.2834
 31
0.0
 70
             128
 71
               5
 72
               1
 41
1.0
 42
0.0
  3
中谷
100
AcDbAlignedDimension
 13
-126.77319999999997
 23
-91.736599999999996
 33
0.0
 14
-126.77319999999997
 24
-94.037920000000099
 34
0.0
 50
90.0
100
AcDbRotatedDimension
1001
ACAD
1000
DSTYLE
1002
{
1070
             279
1070
               2
1070
             340
1005
3B
1070
             174
1070
               0
1070
             147
1040
0.03
1002
}
  0
DIMENSION
  5
333
100
AcDbEntity
  8
寸法
370
               5
390
0
  6
Continuous
 62
               7
100
AcDbDimension
  2
*D7
 10
-98.999999999999972
 20
-94.037920000000099
 30
0.0
 11
-98.96999999999997
 21
-54.863437060546921
 31
0.0
 70
             128
 71
               5
 72
               1
 41
1.0
 42
0.0
  3
中谷
100
AcDbAlignedDimension
 13
-144.28219999999999
 23
-20.0
 33
0.0
 14
-126.77319999999997
 24
-94.037920000000099
 34
0.0
 50
90.0
100
AcDbRotatedDimension
1001
ACAD
1000
DSTYLE
1002
{
1070
             271
1070
               0
1070
             279
1070
               2
1070
             340
1005
3B
1070
             147
1040
0.03
1002
}
  0
DIMENSION
  5
334
100
AcDbEntity
  8
寸法
370
               5
390
0
  6
Continuous
 62
               7
100
AcDbDimension
  2
*D8
 10
-74.999999999999972
 20
-94.037920000000099
 30
0.0
 11
-74.96999999999997
 21
-4.8629358935547913
 31
0.0
 70
             128
 71
               5
 72
               1
 41
1.0
 42
0.0
  3
中谷
100
AcDbAlignedDimension
 13
-146.98359999999991
 23
80.051199999999881
 33
0.0
 14
-126.77319999999997
 24
-94.037920000000099
 34
0.0
 50
90.0
100
AcDbRotatedDimension
1001
ACAD
1000
DSTYLE
1002
{
1070
             271
1070
               0
1070
             279
1070
               2
1070
             340
1005
3B
1070
             147
1040
0.03
1002
}
  0
DIMENSION
  5
335
100
AcDbEntity
  8
寸法
370
               5
390
0
  6
Continuous
 62
               7
100
AcDbDimension
  2
*D9
 10
104.30806747195456
 20
-28.886677350419291
 30
0.0
 11
73.887870049783785
 21
-80.197430316134785
 31
0.0
 70
               3
 71
               5
 72
               1
 41
1.0
 42
0.0
  1
歯数30枚
  3
中谷
100
AcDbDiametricDimension
 15
101.1019325280453
 25
-35.113322649580709
 35
0.0
 40
50.709658457083592
1001
ACAD
1000
DSTYLE
1002
{
1070
             172
1070
               0
1070
             289
1070
               0
1070
             342
1005
5C
1070
             340
1005
3B
1070
              73
1070
               1
1070
              74
1070
               1
1070
              75
1070
               1
1070
              76
1070
               1
1070
             174
1070
               0
1070
             147
1040
0.03
1002
}
  0
DIMENSION
  5
336
100
AcDbEntity
  8
寸法
370
               5
390
0
  6
Continuous
 62
               7
100
AcDbDimension
  2
*D10
 10
126.51872000000003
 20
-130.86392000000006
 30
0.0
 11
132.49998424865731
 21
-130.83392000000006
 31
0.0
 70
             128
 71
               5
 72
               1
 41
1.0
 42
0.0
  3
中谷
100
AcDbAlignedDimension
 13
140.52580000000017
 23
-94.037920000000099
 33
0.0
 14
126.51872000000003
 24
-74.196800000000053
 34
0.0
100
AcDbRotatedDimension
1001
ACAD
1000
DSTYLE
1002
{
1070
             271
1070
               0
1070
             279
1070
               2
1070
             340
1005
3B
1070
             147
1040
0.03
1002
}
  0
DIMENSION
  5
337
100
AcDbEntity
  8
寸法
370
               5
390
0
  6
Continuous
 62
               7
100
AcDbDimension
  2
*D11
 10
140.52580000000017
 20
-130.86392000000009
 30
0.0
 11
180.54629999999997
 21
-130.86392000000009
 31
0.0
 71
               5
 72
               1
 41
1.0
 42
0.0
  3
中谷
100
AcDbAlignedDimension
 13
220.5667999999998
 23
-94.037920000000099
 33
0.0
 14
140.52580000000017
 24
-94.037920000000099
 34
0.0
100
AcDbRotatedDimension
1001
ACAD
1000
DSTYLE
1002
{
1070
             271
1070
               0
1070
             279
1070
               2
1070
             340
1005
3B
1070
             147
1040
0.03
1002
}
  0
DIMENSION
  5
338
100
AcDbEntity
  8
寸法
370
               5
390
0
  6
Continuous
 62
               7
100
AcDbDimension
  2
*D12
 10
140.52580000000017
 20
-110.86392000000012
 30
0.0
 11
145.52580000000017
 21
-110.83392000000012
 31
0.0
 70
             128
 71
               5
 72
               1
 41
1.0
 42
0.0
  3
中谷
100
AcDbAlignedDimension
 13
150.52580000000017
 23
-101.0408000000001
 33
0.0
 14
140.52580000000017
 24
-94.863920000000121
 34
0.0
100
AcDbRotatedDimension
1001
ACAD
1000
DSTYLE
1002
{
1070
             271
1070
               0
1070
             279
1070
               2
1070
             340
1005
3B
1070
             147
1040
0.03
1002
}
  0
DIMENSION
  5
339
100
AcDbEntity
  8
寸法
370
               5
390
0
  6
Continuous
 62
               7
100
AcDbDimension
  2
*D13
 10
150.52580000000017
 20
-110.86392000000011
 30
0.0
 11
180.52580000000017
 21
-110.86392000000011
 31
0.0
 71
               5
 72
               1
 41
1.0
 42
0.0
  3
中谷
100
AcDbAlignedDimension
 13
210.52580000000017
 23
-100.09512000000018
 33
0.0
 14
150.52580000000017
 24
-101.0408000000001
 34
0.0
100
AcDbRotatedDimension
1001
ACAD
1000
DSTYLE
1002
{
1070
             271
1070
               0
1070
             279
1070
               2
1070
             340
1005
3B
1070
             147
1040
0.03
1002
}
  0
DIMENSION
  5
33A
100
AcDbEntity
  8
寸法
370
               5
390
0
  6
Continuous
 62
               7
100
AcDbDimension
  2
*D14
 10
210.52580000000017
 20
-110.86392000000018
 30
0.0
 11
215.54629999999997
 21
-110.83392000000018
 31
0.0
 70
             128
 71
               5
 72
               1
 41
1.0
 42
0.0
  3
中谷
100
AcDbAlignedDimension
 13
220.5667999999998
 23
-94.037920000000099
 33
0.0
 14
210.52580000000017
 24
-99.811422691896354
 34
0.0
100
AcDbRotatedDimension
1001
ACAD
1000
DSTYLE
1002
{
1070
             271
1070
               0
1070
             279
1070
               2
1070
             340
1005
3B
1070
             147
1040
0.03
1002
}
  0
DIMENSION
  5
33B
100
AcDbEntity
  8
寸法
370
               5
390
0
  6
Continuous
 62
               7
100
AcDbDimension
  2
*D15
 10
188.0
 20
52.036799999999857
 30
0.0
 11
188.03
 21
-6.8647281787110614
 31
0.0
 70
             128
 71
               5
 72
               1
 41
1.0
 42
0.0
  3
中谷
100
AcDbAlignedDimension
 13
182.0
 23
-94.037920000000099
 33
0.0
 14
182.0
 24
52.036799999999857
 34
0.0
 50
90.0
100
AcDbRotatedDimension
1001
ACAD
1000
DSTYLE
1002
{
1070
             271
1070
               0
1070
             279
1070
               2
1070
             340
1005
3B
1070
             147
1040
0.03
1002
}
  0
DIMENSION
  5
33C
100
AcDbEntity
  8
寸法
370
               5
390
0
  6
Continuous
 62
               7
100
AcDbDimension
  2
*D16
 10
126.51872000000003
 20
97.136079999999836
 30
0.0
 11
145.52842000000001
 21
97.136079999999836
 31
0.0
 71
               5
 72
               1
 41
1.0
 42
0.0
  3
中谷
100
AcDbAlignedDimension
 13
164.53811999999999
 23
89.136079999999822
 33
0.0
 14
126.51872000000003
 24
78.850479999999834
 34
0.0
100
AcDbRotatedDimension
1001
ACAD
1000
DSTYLE
1002
{
1070
             271
1070
               0
1070
             279
1070
               2
1070
             340
1005
3B
1070
             147
1040
0.03
1002
}
  0
DIMENSION
  5
33D
100
AcDbEntity
  8
寸法
370
               5
390
0
  6
Continuous
 62
               7
100
AcDbDimension
  2
*D17
 10
161.7083200000001
 20
41.920679999999948
 30
0.0
 11
183.00023813478896
 21
106.93162912831863
 31
0.0
 70
               3
 71
               5
 72
               1
 41
1.0
 42
0.0
  1
2-φ21電線口×2ヶ
  3
中谷
100
AcDbDiametricDimension
 15
167.10632000000004
 25
62.215079999999944
 35
0.0
 40
46.271320000000003
1001
ACAD
1000
DSTYLE
1002
{
1070
             172
1070
               0
1070
             289
1070
               0
1070
             342
1005
5C
1070
             340
1005
3B
1070
              73
1070
               1
1070
              74
1070
               1
1070
              75
1070
               1
1070
              76
1070
               1
1070
             174
1070
               0
1070
             147
1040
0.05
1002
}
  0
DIMENSION
  5
33E
100
AcDbEntity
  8
寸法
370
               5
390
0
  6
Continuous
 62
               7
100
AcDbDimension
  2
*D18
 10
126.51872000000003
 20
117.13607999999984
 30
0.0
 11
219.56121999999996
 21
117.13607999999984
 31
0.0
 71
               5
 72
               1
 41
1.0
 42
0.0
  3
中谷
100
AcDbAlignedDimension
 13
312.6037199999999
 23
64.136079999999879
 33
0.0
 14
126.51872000000003
 24
78.850479999999834
 34
0.0
100
AcDbRotatedDimension
1001
ACAD
1000
DSTYLE
1002
{
1070
             271
1070
               0
1070
             279
1070
               2
1070
             340
1005
3B
1070
             147
1040
0.03
1002
}
  0
DIMENSION
  5
33F
100
AcDbEntity
  8
寸法
370
               5
390
0
  6
Continuous
 62
               7
100
AcDbDimension
  2
*D19
 10
91.060519999999826
 20
117.13607999999992
 30
0.0
 11
108.78961999999993
 21
117.13607999999992
 31
0.0
 71
               5
 72
               1
 41
1.0
 42
0.0
  3
中谷
100
AcDbAlignedDimension
 13
126.51872000000003
 23
78.850479999999834
 33
0.0
 14
91.060519999999826
 24
99.322279999999921
 34
0.0
100
AcDbRotatedDimension
1001
ACAD
1000
DSTYLE
1002
{
1070
             271
1070
               0
1070
             279
1070
               2
1070
             340
1005
3B
1070
             147
1040
0.03
1002
}
  0
DIMENSION
  5
340
100
AcDbEntity
  8
寸法
370
               5
390
0
  6
Continuous
 62
               7
100
AcDbDimension
  2
*D20
 10
82.555719999999923
 20
117.13607999999992
 30
0.0
 11
81.0
 21
117.16607999999992
 31
0.0
 70
             128
 71
               5
 72
               1
 41
1.0
 42
0.0
  3
中谷
100
AcDbAlignedDimension
 13
91.060519999999826
 23
99.532999999999959
 33
0.0
 14
82.555719999999923
 24
65.188479999999913
 34
0.0
100
AcDbRotatedDimension
1001
ACAD
1000
DSTYLE
1002
{
1070
             271
1070
               0
1070
             279
1070
               2
1070
             340
1005
3B
1070
             174
1070
               0
1070
             147
1040
0.03
1002
}
  0
DIMENSION
  5
341
100
AcDbEntity
  8
寸法
370
               5
390
0
  6
Continuous
 62
               7
100
AcDbDimension
  2
*D21
 10
58.043079999999833
 20
137.13611999999995
 30
0.0
 11
185.32339999999988
 21
137.13611999999995
 31
0.0
 71
               5
 72
               1
 41
1.0
 42
0.0
  3
中谷
100
AcDbAlignedDimension
 13
312.6037199999999
 23
64.136079999999879
 33
0.0
 14
58.043079999999833
 24
86.304079999999857
 34
0.0
100
AcDbRotatedDimension
1001
ACAD
1000
DSTYLE
1002
{
1070
             271
1070
               0
1070
             279
1070
               2
1070
             340
1005
3B
1070
             147
1040
0.03
1002
}
  0
DIMENSION
  5
342
100
AcDbEntity
  8
寸法
370
               5
390
0
  6
Continuous
 62
               7
100
AcDbDimension
  2
*D22
 10
23.000000000000021
 20
-20.0
 30
0.0
 11
23.000000000000021
 21
30.000439999999955
 31
0.0
 71
               5
 72
               1
 41
1.0
 42
0.0
  3
中谷
100
AcDbAlignedDimension
 13
61.236400000000145
 23
80.00087999999991
 33
0.0
 14
82.0
 24
-20.0
 34
0.0
 50
90.0
100
AcDbRotatedDimension
1001
ACAD
1000
DSTYLE
1002
{
1070
             279
1070
               2
1070
             340
1005
3B
1070
               3
1000
MAX.<>
1070
             147
1040
0.03
1002
}
  0
DIMENSION
  5
343
100
AcDbEntity
  8
寸法
370
               5
390
0
  6
Continuous
 62
               7
100
AcDbDimension
  2
*D23
 10
82.383831904629915
 20
83.684666899768985
 30
0.0
 11
77.000000000000426
 21
33.096022681433553
 31
0.0
 70
               3
 71
               5
 72
               1
 41
1.0
 42
0.0
  1
 
  3
中谷
100
AcDbDiametricDimension
 15
82.159608095369919
 25
75.48773310023293
 35
0.0
 40
42.407567758198411
1001
ACAD
1000
DSTYLE
1002
{
1070
             172
1070
               0
1070
             289
1070
               0
1070
             342
1005
5C
1070
             340
1005
3B
1070
              73
1070
               1
1070
              74
1070
               1
1070
              75
1070
               1
1070
              76
1070
               1
1070
             174
1070
               0
1070
             147
1040
0.05
1002
}
  0
MTEXT
  5
344
100
AcDbEntity
  8
001
390
0
 62
               7
100
AcDbMText
 10
-236.30319999999995
 20
-2.3868731250000561
 30
0.0
 40
9.7730468750000004
 41
0.0
 71
               1
 72
               1
  1
O
  7
ＭＳ ゴシック
 73
               1
 44
0.7828267384257843
  0
MTEXT
  5
345
100
AcDbEntity
  8
001
390
0
 62
               7
100
AcDbMText
 10
-192.28780000000006
 20
-2.3868731250000561
 30
0.0
 40
9.7730468750000004
 41
0.0
 71
               1
 72
               1
  1
S
  7
ＭＳ ゴシック
 73
               1
 44
0.7828267384257843
  0
LINE
  5
346
100
AcDbEntity
  8
001
370
               5
390
0
 62
               7
100
AcDbLine
 10
218.56579999999994
 20
72.34719999999993
 30
0.0
 11
232.57292000000018
 21
72.34719999999993
 31
0.0
  0
LINE
  5
347
100
AcDbEntity
  8
001
370
               5
390
0
 62
               7
100
AcDbLine
 10
223.56831999999994
 20
-28.004120000000171
 30
0.0
 11
232.57292000000018
 21
-28.004120000000171
 31
0.0
  0
LINE
  5
348
100
AcDbEntity
  8
001
370
               5
390
0
 62
               7
100
AcDbLine
 10
223.56831999999994
 20
13.016879999999901
 30
0.0
 11
232.57292000000018
 21
13.016879999999901
 31
0.0
  0
LINE
  5
349
100
AcDbEntity
  8
001
370
               5
390
0
 62
               7
100
AcDbLine
 10
223.56831999999994
 20
-24.302200000000084
 30
0.0
 11
228.57092000000011
 21
-24.302200000000084
 31
0.0
  0
LINE
  5
34A
100
AcDbEntity
  8
001
370
               5
390
0
 62
               7
100
AcDbLine
 10
228.57092000000011
 20
9.3149999999999409
 30
0.0
 11
223.56831999999994
 21
9.3149999999999409
 31
0.0
  0
LINE
  5
34B
100
AcDbEntity
  8
001
370
               5
390
0
 62
               7
100
AcDbLine
 10
223.56831999999994
 20
-21.50080000000014
 30
0.0
 11
228.57092000000011
 21
-21.50080000000014
 31
0.0
  0
LINE
  5
34C
100
AcDbEntity
  8
001
370
               5
390
0
 62
               7
100
AcDbLine
 10
223.56831999999994
 20
-18.699400000000082
 30
0.0
 11
228.57092000000011
 21
-18.699400000000082
 31
0.0
  0
LINE
  5
34D
100
AcDbEntity
  8
001
370
               5
390
0
 62
               7
100
AcDbLine
 10
223.56831999999994
 20
-15.897920000000227
 30
0.0
 11
228.57092000000011
 21
-15.897920000000227
 31
0.0
  0
LINE
  5
34E
100
AcDbEntity
  8
001
370
               5
390
0
 62
               7
100
AcDbLine
 10
223.56831999999994
 20
-13.096520000000055
 30
0.0
 11
228.57092000000011
 21
-13.096520000000055
 31
0.0
  0
LINE
  5
34F
100
AcDbEntity
  8
001
370
               5
390
0
 62
               7
100
AcDbLine
 10
223.56831999999994
 20
-10.295120000000111
 30
0.0
 11
228.57092000000011
 21
-10.295120000000111
 31
0.0
  0
LINE
  5
350
100
AcDbEntity
  8
001
370
               5
390
0
 62
               7
100
AcDbLine
 10
223.56831999999994
 20
-7.4936000000001286
 30
0.0
 11
228.57092000000011
 21
-7.4936000000001286
 31
0.0
  0
LINE
  5
351
100
AcDbEntity
  8
001
370
               5
390
0
 62
               7
100
AcDbLine
 10
223.56831999999994
 20
-4.6922000000000708
 30
0.0
 11
228.57092000000011
 21
-4.6922000000000708
 31
0.0
  0
LINE
  5
352
100
AcDbEntity
  8
001
370
               5
390
0
 62
               7
100
AcDbLine
 10
223.56831999999994
 20
-1.8908000000001266
 30
0.0
 11
228.57092000000011
 21
-1.8908000000001266
 31
0.0
  0
LINE
  5
353
100
AcDbEntity
  8
001
370
               5
390
0
 62
               7
100
AcDbLine
 10
223.56831999999994
 20
0.9106799999999566
 30
0.0
 11
228.57092000000011
 21
0.9106799999999566
 31
0.0
  0
LINE
  5
354
100
AcDbEntity
  8
001
370
               5
390
0
 62
               7
100
AcDbLine
 10
223.56831999999994
 20
3.7120799999999008
 30
0.0
 11
228.57092000000011
 21
3.7120799999999008
 31
0.0
  0
LINE
  5
355
100
AcDbEntity
  8
001
370
               5
390
0
 62
               7
100
AcDbLine
 10
223.56831999999994
 20
6.5134799999999586
 30
0.0
 11
228.57092000000011
 21
6.5134799999999586
 31
0.0
  0
LINE
  5
356
100
AcDbEntity
  8
001
370
               5
390
0
 62
               7
100
AcDbLine
 10
283.4177199999998
 20
10.465599999999881
 30
0.0
 11
287.49012000000005
 21
17.519199999999842
 31
0.0
  0
LINE
  5
357
100
AcDbEntity
  8
001
370
               5
390
0
 62
               7
100
AcDbLine
 10
287.49012000000005
 20
17.519199999999842
 30
0.0
 11
283.4177199999998
 21
24.572799999999916
 31
0.0
  0
LINE
  5
358
100
AcDbEntity
  8
001
370
               5
390
0
 62
               7
100
AcDbLine
 10
283.4177199999998
 20
24.572799999999916
 30
0.0
 11
275.27292000000017
 21
24.572799999999916
 31
0.0
  0
LINE
  5
359
100
AcDbEntity
  8
001
370
               5
390
0
 62
               7
100
AcDbLine
 10
275.27292000000017
 20
24.572799999999916
 30
0.0
 11
271.20040000000006
 21
17.519199999999842
 31
0.0
  0
LINE
  5
35A
100
AcDbEntity
  8
001
370
               5
390
0
 62
               7
100
AcDbLine
 10
271.20040000000006
 20
17.519199999999842
 30
0.0
 11
275.27292000000017
 21
10.465599999999881
 31
0.0
  0
LINE
  5
35B
100
AcDbEntity
  8
001
370
               5
390
0
 62
               7
100
AcDbLine
 10
282.19232000000011
 20
10.465599999999881
 30
0.0
 11
283.4177199999998
 21
10.465599999999881
 31
0.0
  0
LINE
  5
35C
100
AcDbEntity
  8
001
370
               5
390
0
 62
               7
100
AcDbLine
 10
276.49840000000006
 20
10.465599999999881
 30
0.0
 11
275.27292000000017
 21
10.465599999999881
 31
0.0
  0
LINE
  5
35D
100
AcDbEntity
  8
001
370
               5
390
0
 62
               7
100
AcDbLine
 10
250.76352000000009
 20
10.465599999999881
 30
0.0
 11
246.69091999999983
 21
17.519199999999842
 31
0.0
  0
LINE
  5
35E
100
AcDbEntity
  8
001
370
               5
390
0
 62
               7
100
AcDbLine
 10
246.69091999999983
 20
17.519199999999842
 30
0.0
 11
250.76352000000009
 21
24.572799999999916
 31
0.0
  0
LINE
  5
35F
100
AcDbEntity
  8
001
370
               5
390
0
 62
               7
100
AcDbLine
 10
250.76352000000009
 20
24.572799999999916
 30
0.0
 11
258.90832000000012
 21
24.572799999999916
 31
0.0
  0
LINE
  5
360
100
AcDbEntity
  8
001
370
               5
390
0
 62
               7
100
AcDbLine
 10
258.90832000000012
 20
24.572799999999916
 30
0.0
 11
262.98071999999991
 21
17.519199999999842
 31
0.0
  0
LINE
  5
361
100
AcDbEntity
  8
001
370
               5
390
0
 62
               7
100
AcDbLine
 10
262.98071999999991
 20
17.519199999999842
 30
0.0
 11
258.90832000000012
 21
10.465599999999881
 31
0.0
  0
ARC
  5
362
100
AcDbEntity
  8
001
370
               5
390
0
 62
               7
100
AcDbCircle
 10
254.8359199999999
 20
11.41599999999994
 30
0.0
 40
3.0016221888836969
100
AcDbArc
 50
162.0375735163216
 51
184.36936654161545
  0
LINE
  5
363
100
AcDbEntity
  8
001
370
               5
390
0
 62
               7
100
AcDbLine
 10
251.98891999999978
 20
10.465599999999881
 30
0.0
 11
250.76352000000009
 21
10.465599999999881
 31
0.0
  0
LINE
  5
364
100
AcDbEntity
  8
001
370
               5
390
0
 62
               7
100
AcDbLine
 10
257.68280000000016
 20
10.465599999999881
 30
0.0
 11
258.90832000000012
 21
10.465599999999881
 31
0.0
  0
MTEXT
  5
365
100
AcDbEntity
  8
001
390
0
 62
               7
100
AcDbMText
 10
218.7315200000001
 20
-22.056835416666846
 30
0.0
 40
6.5153645833333327
 41
0.0
 71
               1
 72
               1
  1
S
  7
ＭＳ ゴシック
 73
               1
 44
0.7828267384257843
  0
MTEXT
  5
366
100
AcDbEntity
  8
001
390
0
 62
               7
100
AcDbMText
 10
218.93379999999999
 20
11.74976458333327
 30
0.0
 40
6.5153645833333327
 41
0.0
 71
               1
 72
               1
  1
O
  7
ＭＳ ゴシック
 73
               1
 44
0.7828267384257843
  0
MTEXT
  5
367
100
AcDbEntity
  8
001
390
0
 62
               7
100
AcDbMText
 10
240.95459999999986
 20
7.6087645833331932
 30
0.0
 40
6.5153645833333327
 41
0.0
 71
               1
 72
               1
  1
MAN.
  7
ＭＳ ゴシック
 73
               1
 44
0.7828267384257843
  0
MTEXT
  5
368
100
AcDbEntity
  8
001
390
0
 62
               7
100
AcDbMText
 10
240.93640000000016
 20
33.867444583333103
 30
0.0
 40
6.5153645833333327
 41
0.0
 71
               1
 72
               1
  1
AUTO
  7
ＭＳ ゴシック
 73
               1
 44
0.7828267384257843
  0
MTEXT
  5
369
100
AcDbEntity
  8
001
390
0
 62
               7
100
AcDbMText
 10
260.29311999999993
 20
7.6026445833331833
 30
0.0
 40
6.5153645833333327
 41
0.0
 71
               1
 72
               1
  1
MAN.SHUT
  7
ＭＳ ゴシック
 73
               1
 44
0.7828267384257843
  0
MTEXT
  5
36A
100
AcDbEntity
  8
001
390
0
 62
               7
100
AcDbMText
 10
260.38872000000015
 20
34.057644583333108
 30
0.0
 40
6.5153645833333327
 41
0.0
 71
               1
 72
               1
  1
MAN.OPEN
  7
ＭＳ ゴシック
 73
               1
 44
0.7828267384257843
  0
LINE
  5
36B
100
AcDbEntity
  8
001
370
               5
390
0
 62
               7
100
AcDbLine
 10
230.57191999999998
 20
-23.38760000000002
 30
0.0
 11
325.0
 21
-55.863920000000121
 31
0.0
  0
SOLID
  5
36C
100
AcDbEntity
  8
001
370
               5
390
0
 62
               7
100
AcDbTrace
 10
230.57191999999998
 20
-23.38760000000002
 30
0.0
 11
238.83345012277883
 21
-23.965302463261224
 31
0.0
 12
237.43776372882621
 22
-28.018670070402486
 32
0.0
 13
237.43776372882621
 23
-28.018670070402486
 33
0.0
  0
LINE
  5
36D
100
AcDbEntity
  8
001
370
               5
390
0
 62
               7
100
AcDbLine
 10
231.70000000000002
 20
-4.6505200000001423
 30
0.0
 11
325.0
 21
-25.863920000000121
 31
0.0
  0
SOLID
  5
36E
100
AcDbEntity
  8
001
370
               5
390
0
 62
               7
100
AcDbTrace
 10
231.70000000000002
 20
-4.6505200000001423
 30
0.0
 11
239.97665894705875
 21
-4.3614927007480908
 31
0.0
 12
239.01231055623867
 22
-8.5385444899900236
 32
0.0
 13
239.01231055623867
 23
-8.5385444899900236
 33
0.0
  0
ARC
  5
36F
100
AcDbEntity
  8
001
370
               5
390
0
 62
               7
100
AcDbCircle
 10
225.56932000000015
 20
67.119479999999953
 30
0.0
 40
6.02815551876356
100
AcDbArc
 50
60.136850135177916
 51
119.86230114637695
  0
LINE
  5
370
100
AcDbEntity
  8
001
370
               5
390
0
 62
               7
100
AcDbLine
 10
232.57292000000018
 20
70.045999999999879
 30
0.0
 11
232.57292000000018
 21
72.34719999999993
 31
0.0
  0
LINE
  5
371
100
AcDbEntity
  8
001
370
               5
390
0
 62
               7
100
AcDbLine
 10
218.56579999999994
 20
72.34719999999993
 30
0.0
 11
218.56579999999994
 21
70.045999999999879
 31
0.0
  0
LINE
  5
372
100
AcDbEntity
  8
001
370
               5
390
0
 62
               7
100
AcDbLine
 10
223.56831999999994
 20
13.016879999999901
 30
0.0
 11
223.56831999999994
 21
-28.004120000000171
 31
0.0
  0
LINE
  5
373
100
AcDbEntity
  8
001
370
               5
390
0
 62
               7
100
AcDbLine
 10
218.56579999999994
 20
23.021999999999935
 30
0.0
 11
218.56579999999994
 21
-38.009320000000116
 31
0.0
  0
LINE
  5
374
100
AcDbEntity
  8
001
370
               5
390
0
 62
               7
100
AcDbLine
 10
218.56579999999994
 20
-38.009320000000116
 30
0.0
 11
232.57292000000018
 21
-38.009320000000116
 31
0.0
  0
CIRCLE
  5
375
100
AcDbEntity
  8
001
370
               5
390
0
 62
               7
100
AcDbCircle
 10
225.56932000000015
 20
-33.0067200000002
 30
0.0
 40
3.0015999999999678
  0
CIRCLE
  5
376
100
AcDbEntity
  8
001
370
               5
390
0
 62
               7
100
AcDbCircle
 10
225.56932000000015
 20
18.019399999999905
 30
0.0
 40
3.0015999999999678
  0
LINE
  5
377
100
AcDbEntity
  8
001
370
               5
390
0
 62
               7
100
AcDbLine
 10
218.56579999999994
 20
23.021999999999935
 30
0.0
 11
232.57292000000018
 21
23.021999999999935
 31
0.0
  0
LINE
  5
378
100
AcDbEntity
  8
001
370
               5
390
0
 62
               7
100
AcDbLine
 10
226.71771999999984
 20
16.871079999999893
 30
0.0
 11
224.42079999999987
 21
19.167879999999968
 31
0.0
  0
LINE
  5
379
100
AcDbEntity
  8
001
370
               5
390
0
 62
               7
100
AcDbLine
 10
224.42079999999987
 20
16.871079999999893
 30
0.0
 11
226.71771999999984
 21
19.167879999999968
 31
0.0
  0
LINE
  5
37A
100
AcDbEntity
  8
001
370
               5
390
0
 62
               7
100
AcDbLine
 10
226.71771999999984
 20
-34.155000000000086
 30
0.0
 11
224.42079999999987
 21
-31.858200000000011
 31
0.0
  0
LINE
  5
37B
100
AcDbEntity
  8
001
370
               5
390
0
 62
               7
100
AcDbLine
 10
224.42079999999987
 20
-34.155000000000086
 30
0.0
 11
226.71771999999984
 21
-31.858200000000011
 31
0.0
  0
LINE
  5
37C
100
AcDbEntity
  8
001
370
               5
390
0
  6
STYLE_13
 62
               7
100
AcDbLine
 10
222.04320000000007
 20
-33.0067200000002
 30
0.0
 11
232.57292000000018
 21
-33.0067200000002
 31
0.0
  0
LINE
  5
37D
100
AcDbEntity
  8
001
370
               5
390
0
  6
STYLE_13
 62
               7
100
AcDbLine
 10
225.56932000000015
 20
-39.957520000000159
 30
0.0
 11
225.56932000000015
 21
-25.992720000000077
 31
0.0
  0
LINE
  5
37E
100
AcDbEntity
  8
001
370
               5
390
0
  6
STYLE_13
 62
               7
100
AcDbLine
 10
225.56932000000015
 20
24.587400000000002
 30
0.0
 11
225.56932000000015
 21
8.4015999999999167
 31
0.0
  0
LINE
  5
37F
100
AcDbEntity
  8
001
370
               5
390
0
  6
STYLE_13
 62
               7
100
AcDbLine
 10
220.99979999999996
 20
18.019399999999905
 30
0.0
 11
232.57292000000018
 21
18.019399999999905
 31
0.0
  0
LINE
  5
380
100
AcDbEntity
  8
001
370
               5
390
0
  6
STYLE_13
 62
               7
100
AcDbLine
 10
225.56932000000015
 20
76.252879999999777
 30
0.0
 11
225.56932000000015
 21
61.494799999999827
 31
0.0
  0
ARC
  5
381
100
AcDbEntity
  8
001
370
               5
390
0
 62
               7
100
AcDbCircle
 10
279.34532000000002
 20
17.519199999999842
 30
0.0
 40
7.0036091824714433
100
AcDbArc
 50
295.29848472585957
 51
244.70224681650006
  0
ARC
  5
382
100
AcDbEntity
  8
001
370
               5
390
0
 62
               7
100
AcDbCircle
 10
254.8359199999999
 20
17.519199999999842
 30
0.0
 40
7.0035749961287168
100
AcDbArc
 50
295.29789301934522
 51
244.70107958220231
  0
ARC
  5
383
100
AcDbEntity
  8
001
370
               5
390
0
 62
               7
100
AcDbCircle
 10
254.8359199999999
 20
17.519199999999842
 30
0.0
 40
3.0014473932424011
100
AcDbArc
 50
321.22249148713945
 51
218.92466489123396
  0
ARC
  5
384
100
AcDbEntity
  8
001
370
               5
390
0
 62
               7
100
AcDbCircle
 10
279.34532000000002
 20
17.519199999999842
 30
0.0
 40
3.0015484092048612
100
AcDbArc
 50
321.07403278306788
 51
218.77714734324934
  0
ARC
  5
385
100
AcDbEntity
  8
001
370
               5
390
0
 62
               7
100
AcDbCircle
 10
279.34532000000002
 20
15.987479999999891
 30
0.0
 40
2.251194998217648
100
AcDbArc
 50
8.9803008773932493
 51
170.55257328844644
  0
ARC
  5
386
100
AcDbEntity
  8
001
370
               5
390
0
 62
               7
100
AcDbCircle
 10
254.8359199999999
 20
15.987479999999891
 30
0.0
 40
2.250997065835425
100
AcDbArc
 50
9.445249319253552
 51
171.02091581693421
  0
ARC
  5
387
100
AcDbEntity
  8
001
370
               5
390
0
 62
               7
100
AcDbCircle
 10
279.34532000000002
 20
17.519199999999842
 30
0.0
 40
6.0030583070963655
100
AcDbArc
 50
298.56375046491297
 51
241.09401871177016
  0
ARC
  5
388
100
AcDbEntity
  8
001
370
               5
390
0
 62
               7
100
AcDbCircle
 10
254.8359199999999
 20
17.519199999999842
 30
0.0
 40
6.0030333665572302
100
AcDbArc
 50
298.90479410261327
 51
241.43573168264672
  0
ARC
  5
389
100
AcDbEntity
  8
001
370
               5
390
0
 62
               7
100
AcDbCircle
 10
279.34532000000002
 20
11.41599999999994
 30
0.0
 40
3.0016296954819732
100
AcDbArc
 50
170.55286612194985
 51
355.62993032268497
  0
ARC
  5
38A
100
AcDbEntity
  8
001
370
               5
390
0
 62
               7
100
AcDbCircle
 10
254.8359199999999
 20
11.41599999999994
 30
0.0
 40
3.0016467088581842
100
AcDbArc
 50
184.37006967731654
 51
9.4478870499711718
  0
LINE
  5
38B
100
AcDbEntity
  8
001
370
               5
390
0
 62
               7
100
AcDbLine
 10
257.79660000000001
 20
11.90867999999989
 30
0.0
 11
257.05639999999983
 21
16.356879999999933
 31
0.0
  0
LINE
  5
38C
100
AcDbEntity
  8
001
370
               5
390
0
 62
               7
100
AcDbLine
 10
251.83431999999993
 20
11.41599999999994
 30
0.0
 11
252.61231999999984
 21
16.338999999999942
 31
0.0
  0
LINE
  5
38D
100
AcDbEntity
  8
001
370
               5
390
0
 62
               7
100
AcDbLine
 10
276.38440000000014
 20
11.90867999999989
 30
0.0
 11
277.12459999999993
 21
16.356879999999933
 31
0.0
  0
LINE
  5
38E
100
AcDbEntity
  8
001
370
               5
390
0
 62
               7
100
AcDbLine
 10
282.34691999999995
 20
11.41599999999994
 30
0.0
 11
281.56892000000005
 21
16.338999999999942
 31
0.0
  0
ARC
  5
38F
100
AcDbEntity
  8
001
370
               5
390
0
 62
               7
100
AcDbCircle
 10
279.34532000000002
 20
11.41599999999994
 30
0.0
 40
3.0014912584247408
100
AcDbArc
 50
49.861343809658862
 51
127.76528846787947
  0
ARC
  5
390
100
AcDbEntity
  8
001
370
               5
390
0
 62
               7
100
AcDbCircle
 10
254.8359199999999
 20
11.41599999999994
 30
0.0
 40
3.0016842338927163
100
AcDbArc
 50
52.237517121307334
 51
130.1395144020702
  0
ARC
  5
391
100
AcDbEntity
  8
001
370
               5
390
0
 62
               7
100
AcDbCircle
 10
279.34532000000002
 20
17.519199999999842
 30
0.0
 40
5.5528323439484186
100
AcDbArc
 50
300.22405424932595
 51
239.44332060640099
  0
ARC
  5
392
100
AcDbEntity
  8
001
370
               5
390
0
 62
               7
100
AcDbCircle
 10
254.8359199999999
 20
17.519199999999842
 30
0.0
 40
5.5528607703056219
100
AcDbArc
 50
300.55498367195105
 51
239.77339049054137
  0
LINE
  5
393
100
AcDbEntity
  8
001
370
               5
390
0
  6
STYLE_09
 62
               7
100
AcDbLine
 10
-180.89131999999995
 20
130.39019999999982
 30
0.0
 11
-180.89131999999995
 21
134.46779999999995
 31
0.0
  0
LINE
  5
394
100
AcDbEntity
  8
001
370
               5
390
0
  6
STYLE_09
 62
               7
100
AcDbLine
 10
-183.06572000000017
 20
132.46439999999984
 30
0.0
 11
-155.95691999999985
 21
132.46439999999984
 31
0.0
  0
LINE
  5
395
100
AcDbEntity
  8
001
370
               5
390
0
  6
STYLE_09
 62
               7
100
AcDbLine
 10
-164.88312000000008
 20
127.79739999999981
 30
0.0
 11
-164.88312000000008
 21
136.82419999999979
 31
0.0
  0
CIRCLE
  5
396
100
AcDbEntity
  8
001
370
               5
390
0
 62
               7
100
AcDbCircle
 10
-164.88312000000008
 20
132.46439999999984
 30
0.0
 40
2.6013200000001007
  0
CIRCLE
  5
397
100
AcDbEntity
  8
001
370
               5
390
0
 62
               7
100
AcDbCircle
 10
-174.88820000000015
 20
132.46439999999984
 30
0.0
 40
2.6012800000000311
  0
LINE
  5
398
100
AcDbEntity
  8
001
370
               5
390
0
 62
               7
100
AcDbLine
 10
-176.00519999999995
 20
134.54739999999981
 30
0.0
 11
-172.80520000000001
 21
131.34739999999982
 31
0.0
  0
LINE
  5
399
100
AcDbEntity
  8
001
370
               5
390
0
 62
               7
100
AcDbLine
 10
-176.97131999999988
 20
133.58147999999983
 30
0.0
 11
-173.77131999999983
 21
130.38147999999978
 31
0.0
  0
LINE
  5
39A
100
AcDbEntity
  8
001
370
               5
390
0
 62
               7
100
AcDbLine
 10
-166.96620000000007
 20
133.58147999999983
 30
0.0
 11
-163.76620000000003
 21
130.38147999999978
 31
0.0
  0
LINE
  5
39B
100
AcDbEntity
  8
001
370
               5
390
0
 62
               7
100
AcDbLine
 10
-166.00011999999992
 20
134.54739999999981
 30
0.0
 11
-162.80011999999988
 21
131.34739999999982
 31
0.0
  0
CIRCLE
  5
39C
100
AcDbEntity
  8
001
370
               5
390
0
 62
               7
100
AcDbCircle
 10
-158.88012000000015
 20
132.46439999999984
 30
0.0
 40
1.0999999999999659
  0
CIRCLE
  5
39D
100
AcDbEntity
  8
001
370
               5
390
0
 62
               7
100
AcDbCircle
 10
-180.89131999999995
 20
132.46439999999984
 30
0.0
 40
1.1000000000000227
  0
CIRCLE
  5
39E
100
AcDbEntity
  8
001
370
               5
390
0
 62
               7
100
AcDbCircle
 10
-158.88012000000015
 20
132.46439999999984
 30
0.0
 40
1.5309200000002647
  0
CIRCLE
  5
39F
100
AcDbEntity
  8
001
370
               5
390
0
 62
               7
100
AcDbCircle
 10
-180.89131999999995
 20
132.46439999999984
 30
0.0
 40
1.530800000000113
  0
LINE
  5
3A0
100
AcDbEntity
  8
001
370
               5
390
0
 62
               7
100
AcDbLine
 10
-153.87752
 20
139.46787999999992
 30
0.0
 11
-185.89392000000009
 21
139.46787999999992
 31
0.0
  0
LINE
  5
3A1
100
AcDbEntity
  8
001
370
               5
390
0
 62
               7
100
AcDbLine
 10
-185.89392000000009
 20
125.46079999999984
 30
0.0
 11
-153.87752
 21
125.46079999999984
 31
0.0
  0
LINE
  5
3A2
100
AcDbEntity
  8
001
370
               5
390
0
 62
               7
100
AcDbLine
 10
-185.89392000000009
 20
125.46079999999984
 30
0.0
 11
-185.89392000000009
 21
139.46787999999992
 31
0.0
  0
LINE
  5
3A3
100
AcDbEntity
  8
001
370
               5
390
0
  6
STYLE_09
 62
               7
100
AcDbLine
 10
-174.88820000000015
 20
127.99867999999987
 30
0.0
 11
-174.88820000000015
 21
136.61227999999988
 31
0.0
  0
LINE
  5
3A4
100
AcDbEntity
  8
001
370
               5
390
0
 62
               7
100
AcDbLine
 10
-153.87752
 20
125.46079999999984
 30
0.0
 11
-153.87752
 21
139.46787999999992
 31
0.0
  0
LINE
  5
3A5
100
AcDbEntity
  8
001
370
               5
390
0
  6
STYLE_09
 62
               7
100
AcDbLine
 10
-158.88012000000015
 20
130.39019999999982
 30
0.0
 11
-158.88012000000015
 21
134.46779999999995
 31
0.0
  0
LINE
  5
3A6
100
AcDbEntity
  8
001
370
               5
390
0
 62
               7
100
AcDbLine
 10
-144.0
 20
147.13607999999982
 30
0.0
 11
-59.0
 21
147.13607999999982
 31
0.0
  0
LINE
  5
3A7
100
AcDbEntity
  8
001
370
               5
390
0
 62
               7
100
AcDbLine
 10
-189.0
 20
147.13607999999982
 30
0.0
 11
-288.0
 21
147.13607999999982
 31
0.0
  0
LINE
  5
3A8
100
AcDbEntity
  8
001
370
               5
390
0
  6
STYLE_13
 62
               7
100
AcDbLine
 10
-165.19372000000004
 20
77.215999999999951
 30
0.0
 11
-165.19372000000004
 21
64.616479999999797
 31
0.0
  0
LINE
  5
3A9
100
AcDbEntity
  8
001
370
               5
390
0
  6
STYLE_13
 62
               7
100
AcDbLine
 10
-175.19880000000012
 20
77.216199999999844
 30
0.0
 11
-175.19880000000012
 21
65.497479999999996
 31
0.0
  0
LINE
  5
3AA
100
AcDbEntity
  8
001
370
               5
390
0
 62
               7
100
AcDbLine
 10
294.25551999999993
 20
26.356999999999971
 30
0.0
 11
324.78679999999986
 21
33.815479999999866
 31
0.0
  0
SOLID
  5
3AB
100
AcDbEntity
  8
001
370
               5
390
0
 62
               7
100
AcDbTrace
 10
294.25551999999993
 20
26.356999999999971
 30
0.0
 11
301.56783055623856
 21
30.245024489989852
 31
0.0
 12
302.53217894705864
 22
26.067972700747923
 32
0.0
 13
302.53217894705864
 23
26.067972700747923
 33
0.0
  0
LINE
  5
3AC
100
AcDbEntity
  8
001
370
               5
390
0
 62
               7
100
AcDbLine
 10
225.56932000000015
 20
74.136079999999822
 30
0.0
 11
225.5648000000001
 21
86.136079999999822
 31
0.0
  0
SOLID
  5
3AD
100
AcDbEntity
  8
001
370
               5
390
0
 62
               7
100
AcDbTrace
 10
225.56932000000015
 20
74.136079999999822
 30
0.0
 11
223.42585729511779
 21
82.135591718749822
 31
0.0
 12
227.7127827048825
 22
82.135591718749822
 32
0.0
 13
227.7127827048825
 23
82.135591718749822
 33
0.0
  0
MTEXT
  5
3AE
100
AcDbEntity
  8
001
390
0
 62
               7
100
AcDbMText
 10
325.0
 20
45.040449999999808
 30
0.0
 40
8.7312499999999993
 41
0.0
 71
               1
 72
               1
  1
操作ｽｲｯﾁ
  7
ＭＳ Ｐゴシック
 73
               1
 44
0.8762322015334064
  0
MTEXT
  5
3AF
100
AcDbEntity
  8
001
390
0
 62
               7
100
AcDbMText
 10
327.0
 20
-45.054670000000144
 30
0.0
 40
8.7312499999999993
 41
0.0
 71
               1
 72
               1
  1
開度設定目盛(白)
  7
ＭＳ Ｐゴシック
 73
               1
 44
0.8762322015334064
  0
MTEXT
  5
3B0
100
AcDbEntity
  8
001
390
0
 62
               7
100
AcDbMText
 10
326.0
 20
100.51824999999987
 30
0.0
 40
8.7312499999999993
 41
0.0
 71
               1
 72
               1
  1
開度設定ｶﾊﾞｰ
  7
ＭＳ Ｐゴシック
 73
               1
 44
0.8762322015334064
  0
MTEXT
  5
3B1
100
AcDbEntity
  8
001
390
0
 62
               7
100
AcDbMText
 10
-136.34280000000001
 20
138.49244999999991
 30
0.0
 40
8.7312499999999993
 41
0.0
 71
               1
 72
               1
  1
開度設定カバーを\P外し開度目盛りの\P白い指針を個々に\Pセットして下さい
  7
ＭＳ Ｐゴシック
 73
               1
 44
0.8762322015334064
  0
MTEXT
  5
3B2
100
AcDbEntity
  8
001
390
0
 62
               7
100
AcDbMText
 10
-156.14999914442521
 20
142.585033125
 30
0.0
 40
9.7730468750000004
 41
0.0
 71
               1
 72
               1
  1
Ｓ
  7
ＭＳ ゴシック
 11
-0.9999999999999961
 21
-0.0000000875443214
 31
0.0
 73
               1
 44
0.7828267384257843
  0
MTEXT
  5
3B3
100
AcDbEntity
  8
001
390
0
 62
               7
100
AcDbMText
 10
-170.14999914442521
 20
142.585033125
 30
0.0
 40
9.7730468750000004
 41
0.0
 71
               1
 72
               1
  1
Ｏ\P
  7
ＭＳ ゴシック
 11
-0.9999999999999961
 21
-0.0000000875443214
 31
0.0
 73
               1
 44
0.7828267384257843
  0
MTEXT
  5
3B4
100
AcDbEntity
  8
001
390
0
 62
               7
100
AcDbMText
 10
-166.24851999999993
 20
104.81232999999993
 30
0.0
 40
8.7312499999999993
 41
0.0
 71
               1
 72
               1
  1
B
  7
ＭＳ Ｐゴシック
 73
               1
 44
0.8762322015334064
  0
MTEXT
  5
3B5
100
AcDbEntity
  8
001
390
0
 62
               7
100
AcDbMText
 10
-285.97799999999984
 20
158.64064999999988
 30
0.0
 40
8.7312499999999993
 41
0.0
 71
               1
 72
               1
  1
開度設定ネジ
  7
ＭＳ Ｐゴシック
 73
               1
 44
0.8762322015334064
  0
MTEXT
  5
3B6
100
AcDbEntity
  8
001
390
0
 62
               7
100
AcDbMText
 10
-141.0
 20
158.20492999999982
 30
0.0
 40
8.7312499999999993
 41
0.0
 71
               1
 72
               1
  1
″Ｂ″矢視
  7
ＭＳ Ｐゴシック
 73
               1
 44
0.8762322015334064
  0
MTEXT
  5
3B7
100
AcDbEntity
  8
001
390
0
 62
               7
100
AcDbMText
 10
223.01260000000002
 20
96.295329999999879
 30
0.0
 40
8.7312499999999993
 41
0.0
 71
               1
 72
               1
  1
B
  7
ＭＳ Ｐゴシック
 73
               1
 44
0.8762322015334064
  0
MTEXT
  5
3B8
100
AcDbEntity
  8
001
390
0
 62
               7
100
AcDbMText
 10
327.0
 20
-15.054670000000147
 30
0.0
 40
8.7312499999999993
 41
0.0
 71
               1
 72
               1
  1
開度指針(赤)
  7
ＭＳ Ｐゴシック
 73
               1
 44
0.8762322015334064
  0
MTEXT
  5
3B9
100
AcDbEntity
  8
001
390
0
 62
               7
100
AcDbMText
 10
332.0
 20
-60.054670000000144
 30
0.0
 40
8.7312499999999993
 41
0.0
 71
               1
 72
               1
  1
120deg12等分
  7
ＭＳ Ｐゴシック
 73
               1
 44
0.8762322015334064
  0
LINE
  5
3BA
100
AcDbEntity
  8
255
370
               5
390
0
  6
Continuous
 62
               7
100
AcDbLine
 10
325.0
 20
89.136079999999822
 30
0.0
 11
418.2087200000002
 21
89.136079999999822
 31
0.0
  0
LINE
  5
3BB
100
AcDbEntity
  8
255
370
               5
390
0
  6
Continuous
 62
               7
100
AcDbLine
 10
324.78679999999986
 20
33.815479999999866
 30
0.0
 11
386.58692000000013
 21
33.815479999999866
 31
0.0
  0
LINE
  5
3BC
100
AcDbEntity
  8
255
370
               5
390
0
  6
Continuous
 62
               7
100
AcDbLine
 10
325.0
 20
-25.863920000000121
 30
0.0
 11
403.48819999999978
 21
-25.863920000000121
 31
0.0
  0
LINE
  5
3BD
100
AcDbEntity
  8
255
370
               5
390
0
  6
Continuous
 62
               7
100
AcDbLine
 10
230.57191999999998
 20
4.136079999999879
 30
0.0
 11
325.0
 21
-55.863920000000121
 31
0.0
  0
SOLID
  5
3BE
100
AcDbEntity
  8
255
370
               5
390
0
 62
               7
100
AcDbTrace
 10
230.57191999999998
 20
4.136079999999879
 30
0.0
 11
238.44828849562793
 21
1.5768927409820042
 31
0.0
 12
236.11346157727229
 22
-2.0184254271650524
 32
0.0
 13
236.11346157727229
 23
-2.0184254271650524
 33
0.0
  0
POLYLINE
  5
3BF
100
AcDbEntity
  8
一般
370
               5
390
0
  6
Continuous
 62
               7
100
AcDb2dPolyline
 66
               1
 10
0.0
 20
0.0
 30
0.0
 70
               1
 75
               5
  0
VERTEX
  5
3C0
100
AcDbEntity
  8
一般
370
               5
390
0
  6
Continuous
 62
               7
100
AcDbVertex
100
AcDb2dVertex
 10
-139.0
 20
144.13607999999982
 30
0.0
  0
VERTEX
  5
3C1
100
AcDbEntity
  8
一般
370
               5
390
0
  6
Continuous
 62
               7
100
AcDbVertex
100
AcDb2dVertex
 10
-21.0
 20
144.13607999999982
 30
0.0
  0
VERTEX
  5
3C2
100
AcDbEntity
  8
一般
370
               5
390
0
  6
Continuous
 62
               7
100
AcDbVertex
100
AcDb2dVertex
 10
-21.0
 20
84.136079999999822
 30
0.0
  0
VERTEX
  5
3C3
100
AcDbEntity
  8
一般
370
               5
390
0
  6
Continuous
 62
               7
100
AcDbVertex
100
AcDb2dVertex
 10
-139.0
 20
84.136079999999822
 30
0.0
  0
SEQEND
  5
3C4
100
AcDbEntity
  8
一般
370
               5
390
0
  6
Continuous
 62
               7
  0
LINE
  5
3C5
100
AcDbEntity
  8
001
370
               5
390
0
 62
               7
100
AcDbLine
 10
212.5627199999999
 20
-85.033320000000117
 30
0.0
 11
212.5627199999999
 21
70.045999999999879
 31
0.0
  0
LINE
  5
3C6
100
AcDbEntity
  8
001
370
               5
390
0
 62
               7
100
AcDbLine
 10
230.0
 20
72.34719999999993
 30
0.0
 11
325.0
 21
89.136079999999822
 31
0.0
  0
SOLID
  5
3C7
100
AcDbEntity
  8
001
370
               5
390
0
 62
               7
100
AcDbTrace
 10
230.0
 20
72.34719999999993
 30
0.0
 11
237.50577276833715
 21
75.847199322246794
 31
0.0
 12
238.25018955353687
 22
71.62540194212545
 32
0.0
 13
238.25018955353687
 23
71.62540194212545
 33
0.0
  0
LINE
  5
3C8
100
AcDbEntity
  8
001
370
               5
390
0
 62
               7
100
AcDbLine
 10
-164.0
 20
83.02339999999981
 30
0.0
 11
-164.0
 21
95.02339999999981
 31
0.0
  0
SOLID
  5
3C9
100
AcDbEntity
  8
001
370
               5
390
0
 62
               7
100
AcDbTrace
 10
-164.0
 20
83.02339999999981
 30
0.0
 11
-166.14346270488235
 21
91.02291171874981
 31
0.0
 12
-161.85653729511765
 22
91.02291171874981
 32
0.0
 13
-161.85653729511765
 23
91.02291171874981
 33
0.0
  0
LINE
  5
3CA
100
AcDbEntity
  8
001
370
               5
390
0
 62
               7
100
AcDbLine
 10
-176.38300000000015
 20
134.5190799999998
 30
0.0
 11
-189.0
 21
147.13607999999982
 31
0.0
  0
SOLID
  5
3CB
100
AcDbEntity
  8
001
370
               5
390
0
 62
               7
100
AcDbTrace
 10
-176.38300000000015
 20
134.5190799999998
 30
0.0
 11
-183.55516599635232
 21
138.6599319686664
 31
0.0
 12
-180.52385196866675
 22
141.69124599635197
 32
0.0
 13
-180.52385196866675
 23
141.69124599635197
 33
0.0
  0
LINE
  5
3CC
100
AcDbEntity
  8
001
370
               5
390
0
 62
               7
100
AcDbLine
 10
-156.61699999999985
 20
134.5190799999998
 30
0.0
 11
-144.0
 21
147.13607999999982
 31
0.0
  0
SOLID
  5
3CD
100
AcDbEntity
  8
001
370
               5
390
0
 62
               7
100
AcDbTrace
 10
-156.61699999999985
 20
134.5190799999998
 30
0.0
 11
-152.47614803133325
 21
141.69124599635197
 31
0.0
 12
-149.44483400364768
 22
138.6599319686664
 32
0.0
 13
-149.44483400364768
 23
138.6599319686664
 33
0.0
  0
LINE
  5
3CE
100
AcDbEntity
  8
255
370
               5
390
0
  6
Continuous
 62
               7
100
AcDbLine
 10
325.0
 20
-55.863920000000121
 30
0.0
 11
422.96291999999994
 21
-55.863920000000121
 31
0.0
  0
LINE
  5
3CF
100
AcDbEntity
  8
001
370
               5
390
0
 62
               7
100
AcDbLine
 10
-126.77319999999997
 20
-91.737920000000102
 30
0.0
 11
-126.77319999999997
 21
-94.037920000000099
 31
0.0
  0
LINE
  5
3D0
100
AcDbEntity
  8
001
370
               5
390
0
 62
               7
100
AcDbLine
 10
-291.85771999999997
 20
-91.737920000000102
 30
0.0
 11
-291.85771999999997
 21
-94.037920000000099
 31
0.0
  0
LINE
  5
3D1
100
AcDbEntity
  8
001
370
               5
390
0
 62
               7
100
AcDbLine
 10
-133.27659999999997
 20
-91.737920000000102
 30
0.0
 11
-133.27659999999997
 21
-94.037920000000099
 31
0.0
  0
LINE
  5
3D2
100
AcDbEntity
  8
001
370
               5
390
0
 62
               7
100
AcDbLine
 10
-140.28012000000018
 20
-91.737920000000102
 30
0.0
 11
-140.28012000000018
 21
-94.037920000000099
 31
0.0
  0
LINE
  5
3D3
100
AcDbEntity
  8
001
370
               5
390
0
 62
               7
100
AcDbLine
 10
-278.35080000000016
 20
-91.737920000000102
 30
0.0
 11
-278.35080000000016
 21
-94.037920000000099
 31
0.0
  0
LINE
  5
3D4
100
AcDbEntity
  8
001
370
               5
390
0
 62
               7
100
AcDbLine
 10
-285.35440000000017
 20
-91.737920000000102
 30
0.0
 11
-285.35440000000017
 21
-94.037920000000099
 31
0.0
  0
ENDSEC
  0
SECTION
  2
OBJECTS
  0
DICTIONARY
  5
19
100
AcDbDictionary
280
               0
281
               1
  3
ACAD_GROUP
350
1A
  3
ACAD_MLINESTYLE
350
1B
  3
ACAD_LAYOUT
350
1E
  3
ACAD_PLOTSETTINGS
350
22
  3
ACAD_PLOTSTYLENAME
350
1F
  3
ACAD_WIPEOUT_VARS
350
23
  0
DICTIONARY
  5
1A
102
{ACAD_REACTORS
330
19
102
}
100
AcDbDictionary
280
               0
281
               1
  0
DICTIONARY
  5
1B
102
{ACAD_REACTORS
330
19
102
}
100
AcDbDictionary
280
               0
281
               1
  3
Standard
350
1C
  0
MLINESTYLE
  5
1C
102
{ACAD_REACTORS
330
1B
102
}
100
AcDbMlineStyle
  2
Standard
 70
               0
  3

 62
               0
 51
90.0
 52
90.0
 71
               2
 49
0.5
 62
             256
  6
ByLayer
 49
-0.5
 62
             256
  6
ByLayer
  0
ACDBDICTIONARYWDFLT
  5
1F
102
{ACAD_REACTORS
330
19
102
}
100
AcDbDictionary
281
               1
  3
Normal
350
1D
100
AcDbDictionaryWithDefault
340
1D
  0
ACDBPLACEHOLDER
  5
1D
102
{ACAD_REACTORS
330
1F
102
}
  0
LAYOUT
  5
20
102
{ACAD_REACTORS
330
1E
102
}
100
AcDbPlotSettings
  1

  2

  4

  6

 40
0.0
 41
0.0
 42
0.0
 43
0.0
 44
0.0
 45
0.0
 46
0.0
 47
0.0
 48
0.0
 49
0.0
140
0.0
141
0.0
142
1.0
143
1.0
 70
            1024
 72
               0
 73
               0
 74
               0
  7

 75
               0
147
1.0
148
0.0
149
0.0
100
AcDbLayout
  1
Model
 70
               0
 71
               0
 10
0.0
 20
0.0
 11
0.0
 21
0.0
 12
0.0
 22
0.0
 32
0.0
 14
0.0
 24
0.0
 34
0.0
 15
0.0
 25
0.0
 35
0.0
146
0.0
 13
0.0
 23
0.0
 33
0.0
 16
0.0
 26
0.0
 36
0.0
 17
0.0
 27
0.0
 37
0.0
 76
               0
330
A
331
0
345
0
346
0
  0
LAYOUT
  5
21
102
{ACAD_REACTORS
330
1E
102
}
100
AcDbPlotSettings
  1

  2

  4

  6

 40
0.0
 41
0.0
 42
0.0
 43
0.0
 44
0.0
 45
0.0
 46
0.0
 47
0.0
 48
0.0
 49
0.0
140
0.0
141
0.0
142
1.0
143
1.0
 70
               0
 72
               0
 73
               0
 74
               0
  7

 75
               0
147
1.0
148
0.0
149
0.0
100
AcDbLayout
  1
Layout1
 70
               0
 71
               0
 10
0.0
 20
0.0
 11
0.0
 21
0.0
 12
0.0
 22
0.0
 32
0.0
 14
0.0
 24
0.0
 34
0.0
 15
0.0
 25
0.0
 35
0.0
146
0.0
 13
0.0
 23
0.0
 33
0.0
 16
0.0
 26
0.0
 36
0.0
 17
0.0
 27
0.0
 37
0.0
 76
               0
330
B
331
0
345
0
346
0
  0
DICTIONARY
  5
1E
102
{ACAD_REACTORS
330
19
102
}
100
AcDbDictionary
280
               0
281
               1
  3
Layout1
350
21
  3
Model
350
20
  0
DICTIONARY
  5
22
102
{ACAD_REACTORS
330
19
102
}
100
AcDbDictionary
280
               0
281
               1
  0
WIPEOUTVARIABLES
  5
23
100
AcDbWipeoutVariables
 70
               0
  0
ENDSEC
  0
EOF
